  0
SECTION
  2
HEADER
  9
$ACADVER
  1
AC1027
  9
$ACADMAINTVER
 70
    20
  9
$DWGCODEPAGE
  3
ANSI_1252
  9
$AUTHOR
  1
se-milkar
  9
$LASTSAVEDBY
  1
se-milkar
  9
$CUSTOMPROPERTYTAG
  1
Manager
  9
$CUSTOMPROPERTY
  1

  9
$CUSTOMPROPERTYTAG
  1
Company
  9
$CUSTOMPROPERTY
  1

  9
$CUSTOMPROPERTYTAG
  1
Category
  9
$CUSTOMPROPERTY
  1

  9
$CUSTOMPROPERTYTAG
  1
Part Number
  9
$CUSTOMPROPERTY
  1
SLFORI43.iam
  9
$CUSTOMPROPERTYTAG
  1
Description
  9
$CUSTOMPROPERTY
  1

  9
$CUSTOMPROPERTYTAG
  1
Project
  9
$CUSTOMPROPERTY
  1

  9
$CUSTOMPROPERTYTAG
  1
Designer
  9
$CUSTOMPROPERTY
  1
se-milkar
  9
$CUSTOMPROPERTYTAG
  1
Engineer
  9
$CUSTOMPROPERTY
  1

  9
$CUSTOMPROPERTYTAG
  1
Authority
  9
$CUSTOMPROPERTY
  1

  9
$CUSTOMPROPERTYTAG
  1
Cost Center
  9
$CUSTOMPROPERTY
  1

  9
$CUSTOMPROPERTYTAG
  1
Vendor
  9
$CUSTOMPROPERTY
  1

  9
$CUSTOMPROPERTYTAG
  1
User Status
  9
$CUSTOMPROPERTY
  1

  9
$CUSTOMPROPERTYTAG
  1
Design Status
  9
$CUSTOMPROPERTY
  1
WorkInProgress
  9
$CUSTOMPROPERTYTAG
  1
Checked by
  9
$CUSTOMPROPERTY
  1

  9
$CUSTOMPROPERTYTAG
  1
Engr Approved by
  9
$CUSTOMPROPERTY
  1

  9
$CUSTOMPROPERTYTAG
  1
Mfg Approved by
  9
$CUSTOMPROPERTY
  1

  9
$CUSTOMPROPERTYTAG
  1
Tolerance
  9
$CUSTOMPROPERTY
  1

  9
$CUSTOMPROPERTYTAG
  1
Scale
  9
$CUSTOMPROPERTY
  1
1:-
  9
$CUSTOMPROPERTYTAG
  1
Weld class
  9
$CUSTOMPROPERTY
  1

  9
$CUSTOMPROPERTYTAG
  1
Total weight
  9
$CUSTOMPROPERTY
  1

  9
$CUSTOMPROPERTYTAG
  1
Surface roughness
  9
$CUSTOMPROPERTY
  1

  9
$CUSTOMPROPERTYTAG
  1
Approved by
  9
$CUSTOMPROPERTY
  1

  9
$CUSTOMPROPERTYTAG
  1
Created by
  9
$CUSTOMPROPERTY
  1

  9
$CUSTOMPROPERTYTAG
  1
Created date
  9
$CUSTOMPROPERTY
  1

  9
$CUSTOMPROPERTYTAG
  1
Document number
  9
$CUSTOMPROPERTY
  1
 
  9
$CUSTOMPROPERTYTAG
  1
Format
  9
$CUSTOMPROPERTY
  1
 
  9
$CUSTOMPROPERTYTAG
  1
Reviewed by
  9
$CUSTOMPROPERTY
  1
 
  9
$CUSTOMPROPERTYTAG
  1
Revised by
  9
$CUSTOMPROPERTY
  1

  9
$CUSTOMPROPERTYTAG
  1
Revised date
  9
$CUSTOMPROPERTY
  1

  9
$CUSTOMPROPERTYTAG
  1
Revision note
  9
$CUSTOMPROPERTY
  1

  9
$CUSTOMPROPERTYTAG
  1
Status
  9
$CUSTOMPROPERTY
  1

  9
$CUSTOMPROPERTYTAG
  1
Title
  9
$CUSTOMPROPERTY
  1

  9
$CUSTOMPROPERTYTAG
  1
Title 2
  9
$CUSTOMPROPERTY
  1

  9
$CUSTOMPROPERTYTAG
  1
Type
  9
$CUSTOMPROPERTY
  1

  9
$CUSTOMPROPERTYTAG
  1
Version
  9
$CUSTOMPROPERTY
  1

  9
$CUSTOMPROPERTYTAG
  1
Approved date
  9
$CUSTOMPROPERTY
  1

  9
$REQUIREDVERSIONS
160
                 0
  9
$INSBASE
 10
0.0
 20
0.0
 30
0.0
  9
$EXTMIN
 10
-107.4999999999998
 20
-107.4999999999997
 30
0.0
  9
$EXTMAX
 10
107.4999999999997
 20
126.4617735525522
 30
0.0
  9
$LIMMIN
 10
0.0
 20
0.0
  9
$LIMMAX
 10
420.0
 20
297.0
  9
$ORTHOMODE
 70
     0
  9
$REGENMODE
 70
     1
  9
$FILLMODE
 70
     1
  9
$QTEXTMODE
 70
     0
  9
$MIRRTEXT
 70
     0
  9
$LTSCALE
 40
1.0
  9
$ATTMODE
 70
     1
  9
$TEXTSIZE
 40
0.2
  9
$TRACEWID
 40
0.05
  9
$TEXTSTYLE
  7
Standard
  9
$CLAYER
  8
0
  9
$CELTYPE
  6
ByLayer
  9
$CECOLOR
 62
   256
  9
$CELTSCALE
 40
1.0
  9
$DISPSILH
 70
     0
  9
$DIMSCALE
 40
1.0
  9
$DIMASZ
 40
1.799999999999999
  9
$DIMEXO
 40
0.0625
  9
$DIMDLI
 40
0.38
  9
$DIMRND
 40
0.0
  9
$DIMDLE
 40
0.0
  9
$DIMEXE
 40
0.18
  9
$DIMTP
 40
0.0
  9
$DIMTM
 40
0.0
  9
$DIMTXT
 40
0.4000000059604645
  9
$DIMCEN
 40
0.09
  9
$DIMTSZ
 40
0.0
  9
$DIMTOL
 70
     0
  9
$DIMLIM
 70
     0
  9
$DIMTIH
 70
     1
  9
$DIMTOH
 70
     1
  9
$DIMSE1
 70
     0
  9
$DIMSE2
 70
     0
  9
$DIMTAD
 70
     0
  9
$DIMZIN
 70
     0
  9
$DIMBLK
  1

  9
$DIMASO
 70
     1
  9
$DIMSHO
 70
     1
  9
$DIMPOST
  1

  9
$DIMAPOST
  1

  9
$DIMALT
 70
     0
  9
$DIMALTD
 70
     2
  9
$DIMALTF
 40
25.4
  9
$DIMLFAC
 40
1.0
  9
$DIMTOFL
 70
     0
  9
$DIMTVP
 40
0.0
  9
$DIMTIX
 70
     0
  9
$DIMSOXD
 70
     0
  9
$DIMSAH
 70
     0
  9
$DIMBLK1
  1

  9
$DIMBLK2
  1

  9
$DIMSTYLE
  2
Standard
  9
$DIMCLRD
 70
     0
  9
$DIMCLRE
 70
     0
  9
$DIMCLRT
 70
     0
  9
$DIMTFAC
 40
1.0
  9
$DIMGAP
 40
0.09
  9
$DIMJUST
 70
     0
  9
$DIMSD1
 70
     0
  9
$DIMSD2
 70
     0
  9
$DIMTOLJ
 70
     1
  9
$DIMTZIN
 70
     0
  9
$DIMALTZ
 70
     0
  9
$DIMALTTZ
 70
     0
  9
$DIMUPT
 70
     0
  9
$DIMDEC
 70
     4
  9
$DIMTDEC
 70
     4
  9
$DIMALTU
 70
     2
  9
$DIMALTTD
 70
     2
  9
$DIMTXSTY
  7
Standard
  9
$DIMAUNIT
 70
     0
  9
$DIMADEC
 70
     0
  9
$DIMALTRND
 40
0.0
  9
$DIMAZIN
 70
     0
  9
$DIMDSEP
 70
    46
  9
$DIMATFIT
 70
     3
  9
$DIMFRAC
 70
     0
  9
$DIMLDRBLK
  1

  9
$DIMLUNIT
 70
     2
  9
$DIMLWD
 70
    -2
  9
$DIMLWE
 70
    -2
  9
$DIMTMOVE
 70
     0
  9
$DIMFXL
 40
1.0
  9
$DIMFXLON
 70
     0
  9
$DIMJOGANG
 40
0.7853981633974483
  9
$DIMTFILL
 70
     0
  9
$DIMTFILLCLR
 70
     0
  9
$DIMARCSYM
 70
     0
  9
$DIMLTYPE
  6

  9
$DIMLTEX1
  6

  9
$DIMLTEX2
  6

  9
$DIMTXTDIRECTION
 70
     0
  9
$LUNITS
 70
     2
  9
$LUPREC
 70
     4
  9
$SKETCHINC
 40
0.1
  9
$FILLETRAD
 40
0.0
  9
$AUNITS
 70
     0
  9
$AUPREC
 70
     0
  9
$MENU
  1
.
  9
$ELEVATION
 40
0.0
  9
$PELEVATION
 40
0.0
  9
$THICKNESS
 40
0.0
  9
$LIMCHECK
 70
     0
  9
$CHAMFERA
 40
0.0
  9
$CHAMFERB
 40
0.0
  9
$CHAMFERC
 40
0.0
  9
$CHAMFERD
 40
0.0
  9
$SKPOLY
 70
     0
  9
$TDCREATE
 40
2456687.528643623
  9
$TDUCREATE
 40
2456687.486976956
  9
$TDUPDATE
 40
2457340.417814873
  9
$TDUUPDATE
 40
2457340.376148206
  9
$TDINDWG
 40
0.0059131134
  9
$TDUSRTIMER
 40
0.0059130440
  9
$USRTIMER
 70
     1
  9
$ANGBASE
 50
0.0
  9
$ANGDIR
 70
     0
  9
$PDMODE
 70
     0
  9
$PDSIZE
 40
0.0
  9
$PLINEWID
 40
0.0
  9
$SPLFRAME
 70
     0
  9
$SPLINETYPE
 70
     6
  9
$SPLINESEGS
 70
     8
  9
$HANDSEED
  5
992
  9
$SURFTAB1
 70
     6
  9
$SURFTAB2
 70
     6
  9
$SURFTYPE
 70
     6
  9
$SURFU
 70
     6
  9
$SURFV
 70
     6
  9
$UCSBASE
  2

  9
$UCSNAME
  2

  9
$UCSORG
 10
0.0
 20
0.0
 30
0.0
  9
$UCSXDIR
 10
1.0
 20
0.0
 30
0.0
  9
$UCSYDIR
 10
0.0
 20
1.0
 30
0.0
  9
$UCSORTHOREF
  2

  9
$UCSORTHOVIEW
 70
     0
  9
$UCSORGTOP
 10
0.0
 20
0.0
 30
0.0
  9
$UCSORGBOTTOM
 10
0.0
 20
0.0
 30
0.0
  9
$UCSORGLEFT
 10
0.0
 20
0.0
 30
0.0
  9
$UCSORGRIGHT
 10
0.0
 20
0.0
 30
0.0
  9
$UCSORGFRONT
 10
0.0
 20
0.0
 30
0.0
  9
$UCSORGBACK
 10
0.0
 20
0.0
 30
0.0
  9
$PUCSBASE
  2

  9
$PUCSNAME
  2

  9
$PUCSORG
 10
0.0
 20
0.0
 30
0.0
  9
$PUCSXDIR
 10
1.0
 20
0.0
 30
0.0
  9
$PUCSYDIR
 10
0.0
 20
1.0
 30
0.0
  9
$PUCSORTHOREF
  2

  9
$PUCSORTHOVIEW
 70
     0
  9
$PUCSORGTOP
 10
0.0
 20
0.0
 30
0.0
  9
$PUCSORGBOTTOM
 10
0.0
 20
0.0
 30
0.0
  9
$PUCSORGLEFT
 10
0.0
 20
0.0
 30
0.0
  9
$PUCSORGRIGHT
 10
0.0
 20
0.0
 30
0.0
  9
$PUCSORGFRONT
 10
0.0
 20
0.0
 30
0.0
  9
$PUCSORGBACK
 10
0.0
 20
0.0
 30
0.0
  9
$USERI1
 70
     0
  9
$USERI2
 70
     0
  9
$USERI3
 70
     0
  9
$USERI4
 70
     0
  9
$USERI5
 70
     0
  9
$USERR1
 40
0.0
  9
$USERR2
 40
0.0
  9
$USERR3
 40
0.0
  9
$USERR4
 40
0.0
  9
$USERR5
 40
0.0
  9
$WORLDVIEW
 70
     1
  9
$SHADEDGE
 70
     3
  9
$SHADEDIF
 70
    70
  9
$TILEMODE
 70
     1
  9
$MAXACTVP
 70
    64
  9
$PINSBASE
 10
0.0
 20
0.0
 30
0.0
  9
$PLIMCHECK
 70
     0
  9
$PEXTMIN
 10
0.0
 20
0.0
 30
0.0
  9
$PEXTMAX
 10
420.0
 20
297.0
 30
0.0
  9
$PLIMMIN
 10
0.0
 20
0.0
  9
$PLIMMAX
 10
420.0
 20
297.0
  9
$UNITMODE
 70
     0
  9
$VISRETAIN
 70
     1
  9
$PLINEGEN
 70
     0
  9
$PSLTSCALE
 70
     1
  9
$TREEDEPTH
 70
  3020
  9
$CMLSTYLE
  2
Standard
  9
$CMLJUST
 70
     0
  9
$CMLSCALE
 40
1.0
  9
$PROXYGRAPHICS
 70
     1
  9
$MEASUREMENT
 70
     1
  9
$CELWEIGHT
370
    -1
  9
$ENDCAPS
280
     0
  9
$JOINSTYLE
280
     0
  9
$LWDISPLAY
290
     0
  9
$INSUNITS
 70
     4
  9
$HYPERLINKBASE
  1

  9
$STYLESHEET
  1

  9
$XEDIT
290
     1
  9
$CEPSNTYPE
380
     0
  9
$PSTYLEMODE
290
     1
  9
$FINGERPRINTGUID
  2
{760FB031-FB39-4DE5-BE76-E401D10AC75E}
  9
$VERSIONGUID
  2
{C39195FB-9C76-4D1E-8636-A3BE09BF62EF}
  9
$EXTNAMES
290
     1
  9
$PSVPSCALE
 40
0.0
  9
$OLESTARTUP
290
     0
  9
$SORTENTS
280
   127
  9
$INDEXCTL
280
     0
  9
$HIDETEXT
280
     1
  9
$XCLIPFRAME
280
     2
  9
$HALOGAP
280
     0
  9
$OBSCOLOR
 70
   257
  9
$OBSLTYPE
280
     0
  9
$INTERSECTIONDISPLAY
280
     0
  9
$INTERSECTIONCOLOR
 70
   257
  9
$DIMASSOC
280
     1
  9
$PROJECTNAME
  1

  9
$CAMERADISPLAY
290
     0
  9
$LENSLENGTH
 40
50.0
  9
$CAMERAHEIGHT
 40
0.0
  9
$STEPSPERSEC
 40
2.0
  9
$STEPSIZE
 40
6.0
  9
$3DDWFPREC
 40
2.0
  9
$PSOLWIDTH
 40
0.25
  9
$PSOLHEIGHT
 40
4.0
  9
$LOFTANG1
 40
1.570796326794896
  9
$LOFTANG2
 40
1.570796326794896
  9
$LOFTMAG1
 40
0.0
  9
$LOFTMAG2
 40
0.0
  9
$LOFTPARAM
 70
     7
  9
$LOFTNORMALS
280
     1
  9
$LATITUDE
 40
37.795
  9
$LONGITUDE
 40
-122.394
  9
$NORTHDIRECTION
 40
0.0
  9
$TIMEZONE
 70
 -8000
  9
$LIGHTGLYPHDISPLAY
280
     1
  9
$TILEMODELIGHTSYNCH
280
     1
  9
$CMATERIAL
347
11
  9
$SOLIDHIST
280
     0
  9
$SHOWHIST
280
     1
  9
$DWFFRAME
280
     2
  9
$DGNFRAME
280
     0
  9
$REALWORLDSCALE
290
     1
  9
$INTERFERECOLOR
 62
     1
  9
$INTERFEREOBJVS
345
33
  9
$INTERFEREVPVS
346
30
  9
$CSHADOW
280
     0
  9
$SHADOWPLANELOCATION
 40
0.0
  0
ENDSEC
  0
SECTION
  2
CLASSES
  0
CLASS
  1
ACDBDICTIONARYWDFLT
  2
AcDbDictionaryWithDefault
  3
ObjectDBX Classes
 90
        0
 91
        1
280
     0
281
     0
  0
CLASS
  1
MATERIAL
  2
AcDbMaterial
  3
ObjectDBX Classes
 90
     1153
 91
        3
280
     0
281
     0
  0
CLASS
  1
VISUALSTYLE
  2
AcDbVisualStyle
  3
ObjectDBX Classes
 90
     4095
 91
       24
280
     0
281
     0
  0
CLASS
  1
SCALE
  2
AcDbScale
  3
ObjectDBX Classes
 90
     1153
 91
       17
280
     0
281
     0
  0
CLASS
  1
TABLESTYLE
  2
AcDbTableStyle
  3
ObjectDBX Classes
 90
     4095
 91
        1
280
     0
281
     0
  0
CLASS
  1
MLEADERSTYLE
  2
AcDbMLeaderStyle
  3
ACDB_MLEADERSTYLE_CLASS
 90
     4095
 91
        1
280
     0
281
     0
  0
CLASS
  1
ACDBSECTIONVIEWSTYLE
  2
AcDbSectionViewStyle
  3
ObjectDBX Classes
 90
     1025
 91
        2
280
     0
281
     0
  0
CLASS
  1
ACDBDETAILVIEWSTYLE
  2
AcDbDetailViewStyle
  3
ObjectDBX Classes
 90
     1025
 91
        2
280
     0
281
     0
  0
CLASS
  1
DICTIONARYVAR
  2
AcDbDictionaryVar
  3
ObjectDBX Classes
 90
        0
 91
       14
280
     0
281
     0
  0
CLASS
  1
CELLSTYLEMAP
  2
AcDbCellStyleMap
  3
ObjectDBX Classes
 90
     1152
 91
        2
280
     0
281
     0
  0
CLASS
  1
ACMESCOPE
  2
AcMeScope
  3
AcMeServices
 90
     1024
 91
        1
280
     0
281
     0
  0
CLASS
  1
ACMECOMMANDHISTORY
  2
AcMeCommandHistory
  3
AcMeServices
 90
     1024
 91
        1
280
     0
281
     0
  0
CLASS
  1
ACIMSYSVARMAN
  2
AcImSysVarManager
  3
AcMeServices
 90
     1024
 91
        3
280
     0
281
     0
  0
CLASS
  1
ACIMINTSYSVAR
  2
AcImIntSysVar
  3
AcMeServices
 90
     1024
 91
        3
280
     0
281
     0
  0
CLASS
  1
ACMESTATEMGR
  2
AcMeStateMgr
  3
AcMeServices
 90
     1024
 91
        1
280
     0
281
     0
  0
CLASS
  1
AMGSETTINGSOBJ
  2
AmgSettingsObj
  3
"AcadM|Product Description: AutoCAD Mechanical|Company: Autodesk, Inc."
 90
     1024
 91
        2
280
     0
281
     0
  0
CLASS
  1
ACGREFMASTER
  2
AcGrefMaster
  3
AcAttribServices
 90
     1024
 91
        1
280
     0
281
     0
  0
CLASS
  1
AMGOBJPROPCFG
  2
AmgObjPropCfg
  3
"AmgLay|Product Description: AutoCAD Mechanical|Company: Autodesk, Inc."
 90
     1024
 91
        2
280
     0
281
     0
  0
CLASS
  1
ACME_DOCUMENT
  2
AcMeDbDoc
  3
AcMeServices
 90
     1024
 91
        1
280
     0
281
     0
  0
CLASS
  1
ACDBENTITYCACHE
  2
AcMeEntityCache
  3
AcMeServices
 90
     1024
 91
        1
280
     0
281
     0
  0
CLASS
  1
ACME_DATABASE
  2
AcMeDbDatabase
  3
AcMeServices
 90
     1024
 91
        1
280
     0
281
     0
  0
CLASS
  1
ACRFINSADJUSTERMGR
  2
AcRfInsAdjusterMgr
  3
AcMeServices
 90
     1024
 91
        1
280
     0
281
     0
  0
CLASS
  1
ACGREFACADMASTER
  2
AcGrefacadMaster
  3
AcGrefServices
 90
     1024
 91
        1
280
     0
281
     0
  0
CLASS
  1
AMDTMENUSTATEMGR
  2
AmdtMenuStateMgr
  3
McadcomServices
 90
     1024
 91
        1
280
     0
281
     0
  0
CLASS
  1
AMDTMCOMMENUSTATE
  2
AmdtMcomMenuState
  3
McadcomServices
 90
     1024
 91
        1
280
     0
281
     0
  0
CLASS
  1
AMIMASTER
  2
AmiMaster
  3
AmiServices
 90
     1024
 91
        1
280
     0
281
     0
  0
CLASS
  1
MAPIAMMOUDLE
  2
MApiAmModule
  3
MApiAmServices
 90
     1024
 91
        1
280
     0
281
     0
  0
CLASS
  1
ACMSTANDARDANSI
  2
AcmStandardANSI
  3
"Amdt_StdImp|Product Description: AutoCAD Mechanical|Company: Autodesk, Inc."
 90
     1024
 91
        1
280
     0
281
     0
  0
CLASS
  1
ACMSURFSTANDARDANSI
  2
AcmSurfTextStdANSI
  3
"Amdt_StdImp|Product Description: AutoCAD Mechanical|Company: Autodesk, Inc."
 90
     1024
 91
        1
280
     0
281
     0
  0
CLASS
  1
ACMFCFSTANDARDANSI
  2
AcmFCFStdANSI
  3
"Amdt_StdImp|Product Description: AutoCAD Mechanical|Company: Autodesk, Inc."
 90
     1024
 91
        1
280
     0
281
     0
  0
CLASS
  1
ACMWELDSTANDARDANSI
  2
AcmWeldingStdANSI
  3
"Amdt_StdImp|Product Description: AutoCAD Mechanical|Company: Autodesk, Inc."
 90
     1024
 91
        1
280
     0
281
     0
  0
CLASS
  1
ACMIDSTANDARDANSI
  2
AcmIdStdANSI
  3
"Amdt_StdImp|Product Description: AutoCAD Mechanical|Company: Autodesk, Inc."
 90
     1024
 91
        1
280
     0
281
     0
  0
CLASS
  1
ACMDATUMSTANDARDANSI
  2
AcmDatumStdANSI
  3
"Amdt_StdImp|Product Description: AutoCAD Mechanical|Company: Autodesk, Inc."
 90
     1024
 91
        1
280
     0
281
     0
  0
CLASS
  1
ACMBOMSTANDARDANSI
  2
AcmBOMStdANSI
  3
"Amdt_StdImp|Product Description: AutoCAD Mechanical|Company: Autodesk, Inc."
 90
     1024
 91
        1
280
     0
281
     0
  0
CLASS
  1
ACMDETAILSTANDARDANSI
  2
AmdtDetailSymStdANSI
  3
"Amdt_StdImp|Product Description: AutoCAD Mechanical|Company: Autodesk, Inc."
 90
     1024
 91
        1
280
     0
281
     0
  0
CLASS
  1
ACMSECTIONSTANDARDANSI
  2
AmdtSectionSymStdANSI
  3
"Amdt_StdImp|Product Description: AutoCAD Mechanical|Company: Autodesk, Inc."
 90
     1024
 91
        1
280
     0
281
     0
  0
CLASS
  1
ACMCENTERLINESTANDARDANSI
  2
AmdtCenterLineStdANSI
  3
"Amdt_StdImp|Product Description: AutoCAD Mechanical|Company: Autodesk, Inc."
 90
     1024
 91
        1
280
     0
281
     0
  0
CLASS
  1
ACMTHREADLINESTANDARDANSI
  2
AmdtThreadLineStdANSI
  3
"Amdt_StdImp|Product Description: AutoCAD Mechanical|Company: Autodesk, Inc."
 90
     1024
 91
        1
280
     0
281
     0
  0
CLASS
  1
ACMNOTESTANDARDANSI
  2
AmdtNoteStdANSI
  3
"Amdt_StdImp|Product Description: AutoCAD Mechanical|Company: Autodesk, Inc."
 90
     1024
 91
        1
280
     0
281
     0
  0
CLASS
  1
AMDTNOTETEMPLATEDB
  2
AmdtNoteTemplateDB
  3
AcmSymBB|Product Description: AutoCAD Mechanical|Company: Autodesk, Inc.
 90
     1024
 91
        8
280
     0
281
     0
  0
CLASS
  1
ACAMGLAYSTD
  2
AcAmgLayStd
  3
"AmgLay|Product Description: AutoCAD Mechanical|Company: Autodesk, Inc."
 90
     1024
 91
        2
280
     0
281
     0
  0
CLASS
  1
ACAMGDIMSTD
  2
AcAmgDimStd
  3
"AmgDim|Product Description: AutoCAD Mechanical|Company: Autodesk, Inc."
 90
     1024
 91
        2
280
     0
281
     0
  0
CLASS
  1
ACAMGHOLECHARTSTDANSI
  2
AcAmgHoleChartStdANSI
  3
AmgDim|Product Description: AutoCAD Mechanical|Company: Autodesk, Inc.
 90
     1024
 91
        1
280
     0
281
     0
  0
CLASS
  1
ACAMGTITLESTD
  2
AcAmgTitleStd
  3
"AmgTitle|Product Description: AutoCAD Mechanical|Company: Autodesk, Inc."
 90
     1024
 91
        2
280
     0
281
     0
  0
CLASS
  1
ACMTAPERSTANDARDANSI
  2
AcmTaperStdANSI
  3
"Amdt_StdImp|Product Description: AutoCAD Mechanical|Company: Autodesk, Inc."
 90
     1024
 91
        1
280
     0
281
     0
  0
CLASS
  1
ACMANOOTATIONVIEWSTANDARDANSI
  2
AmdtAnViewStdANSI
  3
"Amdt_StdImp|Product Description: AutoCAD Mechanical|Company: Autodesk, Inc."
 90
     1024
 91
        1
280
     0
281
     0
  0
CLASS
  1
ACMSTANDARDISO
  2
AcmStandardISO
  3
"Amdt_StdImp|Product Description: AutoCAD Mechanical|Company: Autodesk, Inc."
 90
     1024
 91
        1
280
     0
281
     0
  0
CLASS
  1
AMDTEDGESTANDARDISO
  2
AmdtEdgeStdISO
  3
"Amdt_StdImp|Product Description: AutoCAD Mechanical|Company: Autodesk, Inc."
 90
     1024
 91
        1
280
     0
281
     0
  0
CLASS
  1
ACMSURFSTANDARDISO
  2
AcmSurfTextStdISO
  3
"Amdt_StdImp|Product Description: AutoCAD Mechanical|Company: Autodesk, Inc."
 90
     1024
 91
        1
280
     0
281
     0
  0
CLASS
  1
ACMFCFSTANDARDISO
  2
AcmFCFStdISO
  3
"Amdt_StdImp|Product Description: AutoCAD Mechanical|Company: Autodesk, Inc."
 90
     1024
 91
        1
280
     0
281
     0
  0
CLASS
  1
ACMWELDSTANDARDISO
  2
AcmWeldingStdISO
  3
"Amdt_StdImp|Product Description: AutoCAD Mechanical|Company: Autodesk, Inc."
 90
     1024
 91
        1
280
     0
281
     0
  0
CLASS
  1
ACMIDSTANDARDISO
  2
AcmIdStdISO
  3
"Amdt_StdImp|Product Description: AutoCAD Mechanical|Company: Autodesk, Inc."
 90
     1024
 91
        1
280
     0
281
     0
  0
CLASS
  1
ACMDATUMSTANDARDISO
  2
AcmDatumStdISO
  3
"Amdt_StdImp|Product Description: AutoCAD Mechanical|Company: Autodesk, Inc."
 90
     1024
 91
        1
280
     0
281
     0
  0
CLASS
  1
ACMBOMSTANDARDISO
  2
AcmBOMStdISO
  3
"Amdt_StdImp|Product Description: AutoCAD Mechanical|Company: Autodesk, Inc."
 90
     1024
 91
        1
280
     0
281
     0
  0
CLASS
  1
ACMDETAILSTANDARDISO
  2
AmdtDetailSymStdISO
  3
"Amdt_StdImp|Product Description: AutoCAD Mechanical|Company: Autodesk, Inc."
 90
     1024
 91
        1
280
     0
281
     0
  0
CLASS
  1
ACMSECTIONSTANDARDISO
  2
AmdtSectionSymStdISO
  3
"Amdt_StdImp|Product Description: AutoCAD Mechanical|Company: Autodesk, Inc."
 90
     1024
 91
        1
280
     0
281
     0
  0
CLASS
  1
ACMCENTERLINESTANDARDISO
  2
AmdtCenterLineStdISO
  3
"Amdt_StdImp|Product Description: AutoCAD Mechanical|Company: Autodesk, Inc."
 90
     1024
 91
        1
280
     0
281
     0
  0
CLASS
  1
ACMTHREADLINESTANDARDISO
  2
AmdtThreadLineStdISO
  3
"Amdt_StdImp|Product Description: AutoCAD Mechanical|Company: Autodesk, Inc."
 90
     1024
 91
        1
280
     0
281
     0
  0
CLASS
  1
ACMNOTESTANDARDISO
  2
AmdtNoteStdISO
  3
"Amdt_StdImp|Product Description: AutoCAD Mechanical|Company: Autodesk, Inc."
 90
     1024
 91
        1
280
     0
281
     0
  0
CLASS
  1
ACAMGHOLECHARTSTDISO
  2
AcAmgHoleChartStdISO
  3
AmgDim|Product Description: AutoCAD Mechanical|Company: Autodesk, Inc.
 90
     1024
 91
        1
280
     0
281
     0
  0
CLASS
  1
ACMTAPERSTANDARDISO
  2
AcmTaperStdISO
  3
"Amdt_StdImp|Product Description: AutoCAD Mechanical|Company: Autodesk, Inc."
 90
     1024
 91
        1
280
     0
281
     0
  0
CLASS
  1
ACMANOOTATIONVIEWSTANDARDISO
  2
AmdtAnViewStdISO
  3
"Amdt_StdImp|Product Description: AutoCAD Mechanical|Company: Autodesk, Inc."
 90
     1024
 91
        1
280
     0
281
     0
  0
CLASS
  1
ACIMSTRSYSVAR
  2
AcImStrSysVar
  3
AcMeServices
 90
     1024
 91
        5
280
     0
281
     0
  0
CLASS
  1
AMDTAMMENUSTATE
  2
AmdtAmMenuState
  3
DesignerAssemblies
 90
     1024
 91
        1
280
     0
281
     0
  0
CLASS
  1
ACAMPROJECT
  2
AcAmProject
  3
DesignerAssemblies
 90
     1024
 91
        1
280
     0
281
     0
  0
CLASS
  1
ACAMGRCOMPDEF
  2
AcAmGrCompDef
  3
DesignerAssemblies
 90
     1024
 91
        1
280
     0
281
     0
  0
CLASS
  1
ACAMCOMPDEF
  2
AcAmCompDef
  3
DesignerAssemblies
 90
     1024
 91
        1
280
     0
281
     0
  0
CLASS
  1
ACAMCOMPDEFMGR
  2
AcAmCompDefMgr
  3
DesignerAssemblies
 90
     1024
 91
        1
280
     0
281
     0
  0
CLASS
  1
AMCONTEXTMGR
  2
AcAmContextMgr
  3
DesignerAssemblies
 90
     1024
 91
        1
280
     0
281
     0
  0
CLASS
  1
ACAMCONTEXTMODELER
  2
AcAmContextModeler
  3
DesignerAssemblies
 90
     1024
 91
        1
280
     0
281
     0
  0
CLASS
  1
ACMDATADICTIONARY
  2
AcmDataDictionary
  3
"AcmSymBB|Product Description: AutoCAD Mechanical|Company: Autodesk, Inc."
 90
     1024
 91
        1
280
     0
281
     0
  0
CLASS
  1
ACAMGRCOMPDEFSET
  2
AcAmGrCompDefSet
  3
DesignerAssemblies
 90
     1024
 91
        1
280
     0
281
     0
  0
CLASS
  1
AMDTBROWSERDBTAB
  2
AmdtBrowserDbTab
  3
McadcomServices
 90
     1024
 91
        1
280
     0
281
     0
  0
CLASS
  1
CBROWSERAPPOBJECT
  2
CBrowserAppObject
  3
McadcomServices
 90
     1024
 91
        2
280
     0
281
     0
  0
CLASS
  1
DM_PLACEHOLDER
  2
AcDmSelsetPlaceholder
  3
McadcomServices
 90
     1024
 91
        1
280
     0
281
     0
  0
CLASS
  1
ACAMGFILTERDAT
  2
AcAmgFilterDat
  3
"AcadM|Product Description: AutoCAD Mechanical|Company: Autodesk, Inc."
 90
     1024
 91
        0
280
     0
281
     0
  0
CLASS
  1
ACAD_EVALUATION_GRAPH
  2
AcDbEvalGraph
  3
ObjectDBX Classes
 90
     1153
 91
        1
280
     0
281
     0
  0
CLASS
  1
ACAECUSTOBJ
  2
AcAeEditorObj
  3
AcAeEditorObj
 90
     1024
 91
        1
280
     0
281
     0
  0
ENDSEC
  0
SECTION
  2
TABLES
  0
TABLE
  2
VPORT
  5
8
330
0
100
AcDbSymbolTable
 70
     1
  0
VPORT
  5
57
330
8
100
AcDbSymbolTableRecord
100
AcDbViewportTableRecord
  2
*Active
 70
     0
 10
0.0
 20
0.0
 11
1.0
 21
1.0
 12
105.6880942507514
 22
-20.77880534996643
 13
0.0
 23
0.0
 14
1.0
 24
1.0
 15
0.0
 25
0.0
 16
0.0
 26
0.0
 36
1.0
 17
0.0
 27
0.0
 37
0.0
 40
535.702030791072
 41
1.508097165991902
 42
50.0
 43
0.0
 44
0.0
 50
0.0
 51
0.0
 71
     0
 72
   100
 73
     1
 74
     1
 75
     0
 76
     0
 77
     0
 78
     0
281
     0
 65
     1
110
0.0
120
0.0
130
0.0
111
1.0
121
0.0
131
0.0
112
0.0
122
1.0
132
0.0
 79
     0
146
0.0
348
2F
 60
     3
 61
     5
292
     1
282
     1
141
0.0
142
0.0
 63
   250
421
  3355443
1001
ACAD_NAV_VCDISPLAY
1070
     3
  0
ENDTAB
  0
TABLE
  2
LTYPE
  5
5
330
0
100
AcDbSymbolTable
 70
    73
  0
LTYPE
  5
5B
330
5
100
AcDbSymbolTableRecord
100
AcDbLinetypeTableRecord
  2
ByBlock
 70
     0
  3

 72
    65
 73
     0
 40
0.0
  0
LTYPE
  5
5C
330
5
100
AcDbSymbolTableRecord
100
AcDbLinetypeTableRecord
  2
ByLayer
 70
     0
  3

 72
    65
 73
     0
 40
0.0
  0
LTYPE
  5
5D
330
5
100
AcDbSymbolTableRecord
100
AcDbLinetypeTableRecord
  2
Continuous
 70
     0
  3
Solid line
 72
    65
 73
     0
 40
0.0
  0
LTYPE
  5
69
330
5
100
AcDbSymbolTableRecord
100
AcDbLinetypeTableRecord
  2
PHANTOM2
 70
     0
  3
___ _ _ ___ _ _ ___ _ _ ___ _ _ ___ _ _ ___ _ _
 72
    65
 73
     6
 40
1.25
 49
0.625
 74
     0
 49
-0.125
 74
     0
 49
0.125
 74
     0
 49
-0.125
 74
     0
 49
0.125
 74
     0
 49
-0.125
 74
     0
  0
LTYPE
  5
8B
330
5
100
AcDbSymbolTableRecord
100
AcDbLinetypeTableRecord
  2
CENTER
 70
     0
  3
____ _ ____ _ ____ _ ____ _ ____ _ ____ _ ____ 
 72
    65
 73
     4
 40
2.0
 49
1.25
 74
     0
 49
-0.25
 74
     0
 49
0.25
 74
     0
 49
-0.25
 74
     0
  0
LTYPE
  5
8C
330
5
100
AcDbSymbolTableRecord
100
AcDbLinetypeTableRecord
  2
CENTER2
 70
     0
  3
Center (.5x) ___ _ ___ _ ___ _ ___ _ ___ _ ___
 72
    65
 73
     4
 40
1.125
 49
0.75
 74
     0
 49
-0.125
 74
     0
 49
0.125
 74
     0
 49
-0.125
 74
     0
  0
LTYPE
  5
98
330
5
100
AcDbSymbolTableRecord
100
AcDbLinetypeTableRecord
  2
HIDDEN
 70
     0
  3
__ __ __ __ __ __ __ __ __ __ __ __ __ __ __ __
 72
    65
 73
     2
 40
0.375
 49
0.25
 74
     0
 49
-0.125
 74
     0
  0
LTYPE
  5
99
330
5
100
AcDbSymbolTableRecord
100
AcDbLinetypeTableRecord
  2
HIDDEN2
 70
     0
  3
Hidden (.5x) _ _ _ _ _ _ _ _ _ _ _ _ _ _ _ _ _
 72
    65
 73
     2
 40
0.1875
 49
0.125
 74
     0
 49
-0.0625
 74
     0
  0
LTYPE
  5
438
330
5
100
AcDbSymbolTableRecord
100
AcDbLinetypeTableRecord
  2
AM_ISO02W050
 70
     0
  3
__ __ __ __ __ __ __ __ __ __ __ __ __ __ __
 72
    65
 73
     2
 40
7.5
 49
6.0
 74
     0
 49
-1.5
 74
     0
  0
LTYPE
  5
439
330
5
100
AcDbSymbolTableRecord
100
AcDbLinetypeTableRecord
  2
AM_ISO08W050
 70
     0
  3
____ . ____ . ____ . ____ . ____ . ____ . ____
 72
    65
 73
     4
 40
18.0
 49
12.0
 74
     0
 49
-1.5
 74
     0
 49
3.0
 74
     0
 49
-1.5
 74
     0
  0
LTYPE
  5
43A
330
5
100
AcDbSymbolTableRecord
100
AcDbLinetypeTableRecord
  2
AM_ISO09W050
 70
     0
  3
_____ . . _____ . . _____ . . ____ .. ____
 72
    65
 73
     6
 40
22.5
 49
12.0
 74
     0
 49
-1.5
 74
     0
 49
3.0
 74
     0
 49
-1.5
 74
     0
 49
3.0
 74
     0
 49
-1.5
 74
     0
  0
LTYPE
  5
43B
330
5
100
AcDbSymbolTableRecord
100
AcDbLinetypeTableRecord
  2
Amconstr
 70
     0
  3
_______________________
 72
    65
 73
     2
 40
9999.0
 49
9999.0
 74
     0
 49
0.0
 74
     0
  0
LTYPE
  5
43C
330
5
100
AcDbSymbolTableRecord
100
AcDbLinetypeTableRecord
  2
AM_ISO08W050x2
 70
     0
  3
__ . __ . __ . __ . __ . __
 72
    65
 73
     4
 40
9.0
 49
6.0
 74
     0
 49
-0.75
 74
     0
 49
1.5
 74
     0
 49
-0.75
 74
     0
  0
LTYPE
  5
43D
330
5
100
AcDbSymbolTableRecord
100
AcDbLinetypeTableRecord
  2
AM_ISO02W050x2
 70
     0
  3
 _ _ _ _ _ _ _ _ _ _ _ _
 72
    65
 73
     2
 40
3.75
 49
3.0
 74
     0
 49
-0.75
 74
     0
  0
LTYPE
  5
43E
330
5
100
AcDbSymbolTableRecord
100
AcDbLinetypeTableRecord
  2
Amzigzag
 70
     0
  3
/\/-/\/-/\/-/\/-/\/-/\/
 72
    65
 73
     2
 40
11.0001
 49
0.0001
 74
     4
 75
   135
340
AD
 46
0.04
 50
0.0
 44
0.0
 45
0.0
 49
-11.0
 74
     0
  0
LTYPE
  5
454
330
5
100
AcDbSymbolTableRecord
100
AcDbLinetypeTableRecord
  2
ACANSTGB
 70
     0
  3
__ . . __ . .
 72
    65
 73
     6
 40
0.35433070866
 49
0.15748031496
 74
     0
 49
-0.03937007874
 74
     0
 49
0.03937007874
 74
     0
 49
-0.03937007874
 74
     0
 49
0.03937007874
 74
     0
 49
-0.03937007874
 74
     0
  0
LTYPE
  5
455
330
5
100
AcDbSymbolTableRecord
100
AcDbLinetypeTableRecord
  2
ACANSTGL
 70
     0
  3
_ _ _ _ _
 72
    65
 73
     2
 40
0.11811023622
 49
0.07874015748
 74
     0
 49
-0.03937007874
 74
     0
  0
LTYPE
  5
46E
330
5
100
AcDbSymbolTableRecord
100
AcDbLinetypeTableRecord
  2
Amzigzag2
 70
     0
  3
/\/-/\/-/\/-/\/-/\/-/\/
 72
    65
 73
     2
 40
0.4401
 49
0.0001
 74
     4
 75
   135
340
AD
 46
0.0016
 50
0.0
 44
0.0
 45
0.0
 49
-0.4400000000000001
 74
     0
  0
LTYPE
  5
485
330
5
100
AcDbSymbolTableRecord
100
AcDbLinetypeTableRecord
  2
ACISOWELD
 70
     0
  3
_ _ _ _ _
 72
    65
 73
     2
 40
2.0
 49
2.0
 74
     0
 49
-1.0
 74
     0
  0
LTYPE
  5
488
330
5
100
AcDbSymbolTableRecord
100
AcDbLinetypeTableRecord
  2
ACISOTGB
 70
     0
  3
__ . . __ . .
 72
    65
 73
     6
 40
9.0
 49
4.0
 74
     0
 49
-1.0
 74
     0
 49
1.0
 74
     0
 49
-1.0
 74
     0
 49
1.0
 74
     0
 49
-1.0
 74
     0
  0
LTYPE
  5
489
330
5
100
AcDbSymbolTableRecord
100
AcDbLinetypeTableRecord
  2
ACISOTGL
 70
     0
  3
_ _ _ _ _
 72
    65
 73
     2
 40
3.0
 49
2.0
 74
     0
 49
-1.0
 74
     0
  0
ENDTAB
  0
TABLE
  2
LAYER
  5
2
330
0
100
AcDbSymbolTable
 70
     5
  0
LAYER
  5
54
330
2
100
AcDbSymbolTableRecord
100
AcDbLayerTableRecord
  2
0
 70
     0
 62
     7
  6
Continuous
370
    -3
390
F
347
21
348
0
  0
LAYER
  5
BB
330
2
100
AcDbSymbolTableRecord
100
AcDbLayerTableRecord
  2
Dimensions(ISO)
 70
     0
 62
   136
  6
Continuous
370
    18
390
F
347
21
348
0
  0
LAYER
  5
C7
330
2
100
AcDbSymbolTableRecord
100
AcDbLayerTableRecord
  2
Visible Edges(ISO)
 70
     0
 62
     7
  6
Continuous
370
    18
390
F
347
21
348
0
  0
LAYER
  5
2D8
330
2
100
AcDbSymbolTableRecord
100
AcDbLayerTableRecord
  2
Defpoints
 70
     0
 62
     7
  6
Continuous
290
     0
370
    -3
390
F
347
21
348
0
  0
ENDTAB
  0
TABLE
  2
STYLE
  5
3
330
0
100
AcDbSymbolTable
 70
    18
  0
STYLE
  5
55
330
3
100
AcDbSymbolTableRecord
100
AcDbTextStyleTableRecord
  2
Standard
 70
     0
 40
0.0
 41
1.0
 50
0.0
 71
     0
 42
0.2
  3
isocp.shx
  4

  0
STYLE
  5
AD
330
3
100
AcDbSymbolTableRecord
100
AcDbTextStyleTableRecord
  2

 70
     1
 40
0.0
 41
1.0
 50
0.0
 71
     0
 42
0.2
  3
ltypeshp.shx
  4

  0
STYLE
  5
D2
330
3
100
AcDbSymbolTableRecord
100
AcDbTextStyleTableRecord
  2
Roxtec 2_5
 70
     0
 40
0.0
 41
1.0
 50
0.0
 71
     0
 42
0.2
  3
arial.ttf
  4

1001
ACAD
1000
Arial
1071
      256
  0
STYLE
  5
44D
330
3
100
AcDbSymbolTableRecord
100
AcDbTextStyleTableRecord
  2
ACANSTS
 70
     0
 40
1.0
 41
1.0
 50
0.0
 71
     0
 42
3.5
  3
romans.shx
  4

  0
STYLE
  5
450
330
3
100
AcDbSymbolTableRecord
100
AcDbTextStyleTableRecord
  2
ACANSGDT
 70
     0
 40
0.0
 41
1.0
 50
0.0
 71
     0
 42
3.5
  3
amgdt.shx
  4

  0
STYLE
  5
47F
330
3
100
AcDbSymbolTableRecord
100
AcDbTextStyleTableRecord
  2
ACISOTS
 70
     0
 40
1.0
 41
1.0
 50
0.0
 71
     0
 42
2.5
  3
isocp.shx
  4

  0
STYLE
  5
483
330
3
100
AcDbSymbolTableRecord
100
AcDbTextStyleTableRecord
  2
ACISOGDT
 70
     0
 40
0.0
 41
1.0
 50
0.0
 71
     0
 42
2.5
  3
amgdt.shx
  4

  0
ENDTAB
  0
TABLE
  2
VIEW
  5
6
330
0
100
AcDbSymbolTable
 70
     0
  0
ENDTAB
  0
TABLE
  2
UCS
  5
7
330
0
100
AcDbSymbolTable
 70
     0
  0
ENDTAB
  0
TABLE
  2
APPID
  5
9
330
0
100
AcDbSymbolTable
 70
    40
  0
APPID
  5
56
330
9
100
AcDbSymbolTableRecord
100
AcDbRegAppTableRecord
  2
ACAD
 70
     0
  0
APPID
  5
5E
330
9
100
AcDbSymbolTableRecord
100
AcDbRegAppTableRecord
  2
AcadAnnotative
 70
     0
  0
APPID
  5
3F9
330
9
100
AcDbSymbolTableRecord
100
AcDbRegAppTableRecord
  2
ACAD_MLEADERVER
 70
     0
  0
APPID
  5
40F
330
9
100
AcDbSymbolTableRecord
100
AcDbRegAppTableRecord
  2
MCAD_NO_VIS
 70
     0
  0
APPID
  5
410
330
9
100
AcDbSymbolTableRecord
100
AcDbRegAppTableRecord
  2
ACAD_TEMP_GRAPHIC
 70
     0
  0
APPID
  5
416
330
9
100
AcDbSymbolTableRecord
100
AcDbRegAppTableRecord
  2
AD_DRAW
 70
     0
  0
APPID
  5
417
330
9
100
AcDbSymbolTableRecord
100
AcDbRegAppTableRecord
  2
DESIGNERASSEMBLIES
 70
     0
  0
APPID
  5
418
330
9
100
AcDbSymbolTableRecord
100
AcDbRegAppTableRecord
  2
ASURF_PCURVE_APPNAME
 70
     0
  0
APPID
  5
419
330
9
100
AcDbSymbolTableRecord
100
AcDbRegAppTableRecord
  2
ACATTRIBSERVICES
 70
     0
  0
APPID
  5
41A
330
9
100
AcDbSymbolTableRecord
100
AcDbRegAppTableRecord
  2
ACADM_DIM_EDIT
 70
     0
  0
APPID
  5
41B
330
9
100
AcDbSymbolTableRecord
100
AcDbRegAppTableRecord
  2
GENIUS_GENDIM_13
 70
     0
  0
APPID
  5
41C
330
9
100
AcDbSymbolTableRecord
100
AcDbRegAppTableRecord
  2
GENIUS_GENDTOL_13
 70
     0
  0
APPID
  5
41D
330
9
100
AcDbSymbolTableRecord
100
AcDbRegAppTableRecord
  2
GENIUS_GE3DTOL_13
 70
     0
  0
APPID
  5
41E
330
9
100
AcDbSymbolTableRecord
100
AcDbRegAppTableRecord
  2
AMG_3D2D_5.0
 70
     0
  0
APPID
  5
41F
330
9
100
AcDbSymbolTableRecord
100
AcDbRegAppTableRecord
  2
AMDT_DM_ADJ
 70
     0
  0
APPID
  5
420
330
9
100
AcDbSymbolTableRecord
100
AcDbRegAppTableRecord
  2
ACAD_PSEXT
 70
     0
  0
APPID
  5
421
330
9
100
AcDbSymbolTableRecord
100
AcDbRegAppTableRecord
  2
DCO15
 70
     0
  0
APPID
  5
422
330
9
100
AcDbSymbolTableRecord
100
AcDbRegAppTableRecord
  2
ACAD_DSTYLE_DIMTEXT_FILL
 70
     0
  0
APPID
  5
423
330
9
100
AcDbSymbolTableRecord
100
AcDbRegAppTableRecord
  2
AcAecLayerStandard
 70
     0
  0
APPID
  5
424
330
9
100
AcDbSymbolTableRecord
100
AcDbRegAppTableRecord
  2
ACAD_NAV_VCDISPLAY
 70
     0
  0
APPID
  5
425
330
9
100
AcDbSymbolTableRecord
100
AcDbRegAppTableRecord
  2
ACAD_DSTYLE_DIMARC_LENGTH_SYMBOL
 70
     0
  0
APPID
  5
426
330
9
100
AcDbSymbolTableRecord
100
AcDbRegAppTableRecord
  2
ACAD_DSTYLE_DIMJOGGED_JOGANGLE_SYMBOL
 70
     0
  0
APPID
  5
427
330
9
100
AcDbSymbolTableRecord
100
AcDbRegAppTableRecord
  2
ACAD_EXEMPT_FROM_CAD_STANDARDS
 70
     0
  0
APPID
  5
428
330
9
100
AcDbSymbolTableRecord
100
AcDbRegAppTableRecord
  2
GENIUS_GENTRA_14
 70
     0
  0
APPID
  5
429
330
9
100
AcDbSymbolTableRecord
100
AcDbRegAppTableRecord
  2
ACAD_DSTYLE_DIMBREAK
 70
     0
  0
APPID
  5
42A
330
9
100
AcDbSymbolTableRecord
100
AcDbRegAppTableRecord
  2
ACAD_DSTYLE_DIMJAG
 70
     0
  0
APPID
  5
42B
330
9
100
AcDbSymbolTableRecord
100
AcDbRegAppTableRecord
  2
ACAD_DSTYLE_DIMTALN
 70
     0
  0
APPID
  5
42C
330
9
100
AcDbSymbolTableRecord
100
AcDbRegAppTableRecord
  2
GENIUS_GENOBJ-N-TIT_13
 70
     0
  0
APPID
  5
42D
330
9
100
AcDbSymbolTableRecord
100
AcDbRegAppTableRecord
  2
GENIUS_GENOLIS_13
 70
     0
  0
APPID
  5
42E
330
9
100
AcDbSymbolTableRecord
100
AcDbRegAppTableRecord
  2
GENIUS_GENODEF_13
 70
     0
  0
APPID
  5
42F
330
9
100
AcDbSymbolTableRecord
100
AcDbRegAppTableRecord
  2
GENIUS_GENOENT_13
 70
     0
  0
APPID
  5
430
330
9
100
AcDbSymbolTableRecord
100
AcDbRegAppTableRecord
  2
GENIUS_GENTITLE_13
 70
     0
  0
APPID
  5
431
330
9
100
AcDbSymbolTableRecord
100
AcDbRegAppTableRecord
  2
GENIUS_GENOREF_13
 70
     0
  0
APPID
  5
432
330
9
100
AcDbSymbolTableRecord
100
AcDbRegAppTableRecord
  2
GENIUS_GENSCREG_15
 70
     0
  0
APPID
  5
433
330
9
100
AcDbSymbolTableRecord
100
AcDbRegAppTableRecord
  2
GENIUS_GENOBJ-N-SDF_13
 70
     0
  0
APPID
  5
6E7
330
9
100
AcDbSymbolTableRecord
100
AcDbRegAppTableRecord
  2
ACAD_OBJECT_CHANGE_GUID
 70
     0
  0
APPID
  5
6E8
330
9
100
AcDbSymbolTableRecord
100
AcDbRegAppTableRecord
  2
ACAUTHENVIRON
 70
     0
  0
APPID
  5
6E9
330
9
100
AcDbSymbolTableRecord
100
AcDbRegAppTableRecord
  2
AcDbDynamicBlockTrueName
 70
     0
  0
APPID
  5
6EA
330
9
100
AcDbSymbolTableRecord
100
AcDbRegAppTableRecord
  2
AcDbDynamicBlockGUID
 70
     0
  0
APPID
  5
6EB
330
9
100
AcDbSymbolTableRecord
100
AcDbRegAppTableRecord
  2
PE_URL
 70
     0
  0
ENDTAB
  0
TABLE
  2
DIMSTYLE
  5
A
330
0
100
AcDbSymbolTable
 70
    29
100
AcDbDimStyleTable
 71
     2
340
D8
340
58
  0
DIMSTYLE
105
58
330
A
100
AcDbSymbolTableRecord
100
AcDbDimStyleTableRecord
  2
Standard
 70
     0
340
55
  0
DIMSTYLE
105
D8
102
{ACAD_REACTORS
330
694
330
942
102
}
330
A
100
AcDbSymbolTableRecord
100
AcDbDimStyleTableRecord
  2
Copy of ROXTEC
 70
     0
 41
5.0
 42
2.0
 43
10.0
 44
3.174999999999998
 45
0.00000001
 46
12.0
 73
     0
 77
     1
 78
     8
 79
     2
140
2.5
143
0.03937
146
1.600000023841857
147
0.5600000000000001
170
     1
171
     3
172
     1
176
     7
177
     7
178
     7
179
     1
271
     1
272
     1
274
     3
340
D2
371
    15
372
    15
  0
DIMSTYLE
105
470
330
A
100
AcDbSymbolTableRecord
100
AcDbDimStyleTableRecord
  2
AM_ANSI
 70
     0
  4
mm
 41
0.1
 42
0.05
 43
0.5
 44
0.1
 47
0.1
 48
0.1
 78
     7
 79
     2
140
0.12
141
0.0
146
0.71
147
0.06
176
   256
177
   256
178
     2
274
     4
284
     7
340
55
371
    -1
372
    -1
  0
DIMSTYLE
105
471
330
A
100
AcDbSymbolTableRecord
100
AcDbDimStyleTableRecord
  2
AM_ANSI$3
 70
     0
  4
mm
 41
0.1
 42
0.05
 43
0.5
 44
0.1
 47
0.1
 48
0.1
 78
     7
 79
     2
140
0.12
141
0.0
146
0.71
147
0.06
176
   256
177
   256
178
     2
274
     4
284
     7
288
     1
289
     0
340
55
371
    -1
372
    -1
  0
DIMSTYLE
105
472
330
A
100
AcDbSymbolTableRecord
100
AcDbDimStyleTableRecord
  2
AM_ANSI$4
 70
     0
  4
mm
 41
0.1
 42
0.05
 43
0.5
 44
0.1
 47
0.1
 48
0.1
 78
     7
 79
     2
140
0.12
141
0.0
146
0.71
147
0.06
176
   256
177
   256
178
     2
274
     4
284
     7
288
     1
289
     0
340
55
371
    -1
372
    -1
  0
DIMSTYLE
105
473
330
A
100
AcDbSymbolTableRecord
100
AcDbDimStyleTableRecord
  2
AM_ANSI$7
 70
     0
  4
mm
 41
0.1
 42
0.05
 43
0.5
 44
0.1
 47
0.1
 48
0.1
 78
     7
 79
     2
140
0.24
141
0.0
146
0.71
147
0.06
176
   256
177
   256
178
     2
274
     4
284
     7
340
55
371
    -1
372
    -1
  0
DIMSTYLE
105
474
330
A
100
AcDbSymbolTableRecord
100
AcDbDimStyleTableRecord
  2
AM_ANSI$SF
 70
     0
  4
mm
 41
0.1
 42
0.05
 43
0.5
 44
0.1
 47
0.1
 48
0.1
 75
     1
 76
     1
 78
     7
 79
     2
140
0.12
141
0.0
146
0.71
147
0.06
176
   256
177
   256
178
     2
274
     4
284
     7
340
55
371
    -1
372
    -1
  0
DIMSTYLE
105
475
330
A
100
AcDbSymbolTableRecord
100
AcDbDimStyleTableRecord
  2
AM_ANSI$SH
 70
     0
  4
mm
 41
0.1
 42
0.05
 43
0.5
 44
0.1
 47
0.1
 48
0.1
 75
     1
 76
     1
 78
     7
 79
     2
140
0.12
141
0.0
146
0.71
147
0.06
173
     1
176
   256
177
   256
178
     2
274
     4
284
     7
340
55
343
476
371
    -1
372
    -1
  0
DIMSTYLE
105
492
330
A
100
AcDbSymbolTableRecord
100
AcDbDimStyleTableRecord
  2
AM_ISO
 70
     0
  4
"
 41
2.5
 42
1.0
 43
10.0
 44
1.0
 47
0.1
 48
0.1
 73
     0
 74
     0
 77
     1
 78
     8
 79
     2
140
3.5
141
0.0
143
0.0393701
146
0.71
147
1.5
171
     3
172
     1
176
   256
177
   256
178
     2
271
     2
272
     2
274
     3
283
     0
284
     8
340
55
371
    -1
372
    -1
  0
DIMSTYLE
105
493
330
A
100
AcDbSymbolTableRecord
100
AcDbDimStyleTableRecord
  2
AM_ISO$3
 70
     0
  4
"
 41
2.5
 42
1.0
 43
10.0
 44
1.0
 47
0.1
 48
0.1
 73
     0
 77
     1
 78
     8
 79
     2
140
3.5
141
0.0
143
0.0393701
146
0.71
147
1.5
176
   256
177
   256
178
     2
271
     2
272
     3
274
     4
283
     0
284
     8
288
     1
289
     0
340
55
371
    -1
372
    -1
  0
DIMSTYLE
105
494
330
A
100
AcDbSymbolTableRecord
100
AcDbDimStyleTableRecord
  2
AM_ISO$4
 70
     0
  4
"
 41
2.5
 42
1.0
 43
10.0
 44
1.0
 47
0.1
 48
0.1
 73
     0
 77
     1
 78
     8
 79
     2
140
3.5
141
0.0
143
0.0393701
146
0.71
147
1.5
176
   256
177
   256
178
     2
271
     2
272
     3
274
     4
283
     0
284
     8
288
     1
289
     0
340
55
371
    -1
372
    -1
  0
DIMSTYLE
105
495
330
A
100
AcDbSymbolTableRecord
100
AcDbDimStyleTableRecord
  2
AM_ISO$6
 70
     0
  4
"
 41
2.5
 42
1.0
 43
10.0
 44
1.0
 47
0.1
 48
0.1
 73
     0
 74
     0
 78
     8
 79
     2
140
3.5
141
0.0
143
0.0393701
146
0.71
147
1.5
172
     1
176
   256
177
   256
178
     2
271
     2
272
     3
274
     4
283
     0
284
     8
340
55
371
    -1
372
    -1
  0
DIMSTYLE
105
496
330
A
100
AcDbSymbolTableRecord
100
AcDbDimStyleTableRecord
  2
AM_ISO$7
 70
     0
  4
"
 41
2.5
 42
1.0
 43
10.0
 44
1.0
 47
0.1
 48
0.1
 73
     0
 74
     0
 77
     1
 78
     8
 79
     2
140
5.0
141
0.0
143
0.0393701
146
0.71
147
1.5
172
     1
176
   256
177
   256
178
     2
271
     2
272
     3
274
     4
283
     0
284
     8
340
55
371
    -1
372
    -1
  0
DIMSTYLE
105
497
330
A
100
AcDbSymbolTableRecord
100
AcDbDimStyleTableRecord
  2
AM_ISO$SF
 70
     0
  4
"
 41
2.5
 42
1.0
 43
10.0
 44
1.0
 47
0.1
 48
0.1
 73
     0
 74
     0
 75
     1
 76
     1
 77
     1
 78
     8
 79
     2
140
3.5
141
0.0
143
0.0393701
146
0.71
147
1.5
172
     1
176
   256
177
   256
178
     2
271
     2
272
     3
274
     4
283
     0
284
     8
340
55
371
    -1
372
    -1
  0
DIMSTYLE
105
498
330
A
100
AcDbSymbolTableRecord
100
AcDbDimStyleTableRecord
  2
AM_ISO$SH
 70
     0
  4
"
 41
2.5
 42
1.0
 43
10.0
 44
1.0
 47
0.1
 48
0.1
 73
     0
 74
     0
 75
     1
 76
     1
 77
     1
 78
     8
 79
     2
140
3.5
141
0.0
143
0.0393701
144
2.0
146
0.71
147
1.5
172
     1
173
     1
176
   256
177
   256
178
     2
271
     2
272
     3
274
     4
283
     0
284
     8
340
55
343
476
371
    -1
372
    -1
  0
ENDTAB
  0
TABLE
  2
BLOCK_RECORD
  5
1
330
0
100
AcDbSymbolTable
 70
     9
  0
BLOCK_RECORD
  5
71
330
1
100
AcDbSymbolTableRecord
100
AcDbBlockTableRecord
  2
*Model_Space
340
74
 70
     0
280
     1
281
     0
  0
BLOCK_RECORD
  5
6D
330
1
100
AcDbSymbolTableRecord
100
AcDbBlockTableRecord
  2
*Paper_Space
340
70
 70
     0
280
     1
281
     0
  0
BLOCK_RECORD
  5
75
330
1
100
AcDbSymbolTableRecord
100
AcDbBlockTableRecord
  2
*Paper_Space0
340
78
 70
     0
280
     1
281
     0
  0
BLOCK_RECORD
  5
2D9
330
1
100
AcDbSymbolTableRecord
100
AcDbBlockTableRecord
  2
*D3
340
0
 70
     0
280
     1
281
     0
  0
BLOCK_RECORD
  5
476
330
1
100
AcDbSymbolTableRecord
100
AcDbBlockTableRecord
  2
GENAXEH
340
0
 70
     0
280
     1
281
     0
  0
BLOCK_RECORD
  5
4B9
102
{ACAD_XDICTIONARY
360
6D3
102
}
330
1
100
AcDbSymbolTableRecord
100
AcDbBlockTableRecord
  2
SLFORI43
340
0
310
2800000020000000200000000100080000000000000400000000000000000000000000000000000000000000000080000080000000808000800000008000800080800000C0C0C000C0DCC000F0CAA6000020400000206000002080000020A0000020C0000020E00000400000004020000040400000406000004080000040A0
310
000040C0000040E00000600000006020000060400000606000006080000060A0000060C0000060E00000800000008020000080400000806000008080000080A0000080C0000080E00000A0000000A0200000A0400000A0600000A0800000A0A00000A0C00000A0E00000C0000000C0200000C0400000C0600000C0800000C0
310
A00000C0C00000C0E00000E0000000E0200000E0400000E0600000E0800000E0A00000E0C00000E0E00040000000400020004000400040006000400080004000A0004000C0004000E00040200000402020004020400040206000402080004020A0004020C0004020E000404000004040200040404000404060004040800040
310
40A0004040C0004040E00040600000406020004060400040606000406080004060A0004060C0004060E00040800000408020004080400040806000408080004080A0004080C0004080E00040A0000040A0200040A0400040A0600040A0800040A0A00040A0C00040A0E00040C0000040C0200040C0400040C0600040C08000
310
40C0A00040C0C00040C0E00040E0000040E0200040E0400040E0600040E0800040E0A00040E0C00040E0E00080000000800020008000400080006000800080008000A0008000C0008000E00080200000802020008020400080206000802080008020A0008020C0008020E00080400000804020008040400080406000804080
310
008040A0008040C0008040E00080600000806020008060400080606000806080008060A0008060C0008060E00080800000808020008080400080806000808080008080A0008080C0008080E00080A0000080A0200080A0400080A0600080A0800080A0A00080A0C00080A0E00080C0000080C0200080C0400080C0600080C0
310
800080C0A00080C0C00080C0E00080E0000080E0200080E0400080E0600080E0800080E0A00080E0C00080E0E000C0000000C0002000C0004000C0006000C0008000C000A000C000C000C000E000C0200000C0202000C0204000C0206000C0208000C020A000C020C000C020E000C0400000C0402000C0404000C0406000C0
310
408000C040A000C040C000C040E000C0600000C0602000C0604000C0606000C0608000C060A000C060C000C060E000C0800000C0802000C0804000C0806000C0808000C080A000C080C000C080E000C0A00000C0A02000C0A04000C0A06000C0A08000C0A0A000C0A0C000C0A0E000C0C00000C0C02000C0C04000C0C06000
310
C0C08000C0C0A000F0FBFF00A4A0A000808080000000FF0000FF000000FFFF00FF000000FF00FF00FFFF0000FFFFFF0049494949494949494949494949494949494949494949494949494949494949494949494949494949494949494949494949494949494949494949494949494949494949494949494949494949494949
310
49494949494949494949494949494949494949494949494949494949494949494949494949494949494949494949494949494949494949494949494949494949494949494949494949494949494949494949494949494949494949494949494949494949494949494949494949494949494949494949494949494949494949
310
4949494949494949494949494949494949494949494949494949494949494949FFFFFFFF494949494949494949494949494949494949494949494949494949FF49FFFF49FF4949494949494949494949494949494949494949494949FFFFFF4949FFFF4949FFFFFF4949494949494949494949494949494949494949FF4949
310
494949494949494949FF494949494949494949494949494949494949FFFF49494949494949494949FFFF4949494949494949494949494949494949FFFFFF49494949494949494949FFFFFF49494949494949494949494949494949FFFF4949FFFFFFFFFFFFFFFF4949FFFF49494949494949494949494949494949FFFFFFFF
310
FFFFFF4949FFFFFFFFFFFFFF49494949494949494949494949494949FFFFFFFFFFFFFF4949FFFFFFFFFFFFFF49494949494949494949494949494949FFFFFF49FFFFFF4949FFFFFFFFFFFFFF49494949494949494949494949494949FF494949494949FFFF494949494949FF49494949494949494949494949494949FFFFFF
310
49494949494949494949FFFFFF49494949494949494949494949494949FFFFFF49494949494949494949FFFFFF49494949494949494949494949494949FF49FF49494949494949494949FF49FF49494949494949494949494949494949FF4949FF494949FFFF494949FF4949FF49494949494949494949494949494949FF49
310
4949FFFFFFFFFFFFFFFF494949FF49494949494949494949494949494949FFFFFFFFFFFFFFFFFFFFFFFFFFFFFFFF49494949494949494949494949494949FF494949494949FFFF494949494949FF49494949494949494949494949494949494949494949494949494949494949494949494949494949494949494949494949
310
49494949494949494949494949494949494949494949494949494949494949494949494949494949494949494949494949494949494949494949494949494949494949494949494949494949494949494949494949494949494949494949494949494949494949494949494949494949494949494949494949494949494949
310
4949494949494949494949494949494949494949494949494949494949494949494949494949494949494949494949494949494949494949
102
{BLKREFS
331
695
102
}
 70
     4
280
     1
281
     1
  0
ENDTAB
  0
ENDSEC
  0
SECTION
  2
BLOCKS
  0
BLOCK
  5
72
330
71
100
AcDbEntity
  8
0
100
AcDbBlockBegin
  2
*Model_Space
 70
     0
 10
0.0
 20
0.0
 30
0.0
  3
*Model_Space
  1

  0
ENDBLK
  5
73
330
71
100
AcDbEntity
  8
0
100
AcDbBlockEnd
  0
BLOCK
  5
6E
330
6D
100
AcDbEntity
 67
     1
  8
0
100
AcDbBlockBegin
  2
*Paper_Space
 70
     0
 10
0.0
 20
0.0
 30
0.0
  3
*Paper_Space
  1

  0
ENDBLK
  5
6F
330
6D
100
AcDbEntity
 67
     1
  8
0
100
AcDbBlockEnd
  0
BLOCK
  5
76
330
75
100
AcDbEntity
 67
     1
  8
0
100
AcDbBlockBegin
  2
*Paper_Space0
 70
     0
 10
0.0
 20
0.0
 30
0.0
  3
*Paper_Space0
  1

  0
ENDBLK
  5
77
330
75
100
AcDbEntity
 67
     1
  8
0
100
AcDbBlockEnd
  0
BLOCK
  5
2DA
330
2D9
100
AcDbEntity
  8
0
100
AcDbBlockBegin
  2
*D3
 70
     1
 10
0.0
 20
0.0
 30
0.0
  3
*D3
  1

  0
LINE
  5
3A8
330
2D9
100
AcDbEntity
  8
Dimensions(ISO)
  6
Continuous
 62
     7
440
 16777216
370
    15
100
AcDbLine
 10
-107.4999999999997
 20
1.999999999999818
 30
0.0
 11
-107.4999999999997
 21
125.175
 31
0.0
  0
LINE
  5
3A9
330
2D9
100
AcDbEntity
  8
Dimensions(ISO)
  6
Continuous
 62
     7
440
 16777216
370
    15
100
AcDbLine
 10
107.4999999999997
 20
2.000000000000027
 30
0.0
 11
107.4999999999998
 21
125.175
 31
0.0
  0
LINE
  5
3AA
330
2D9
100
AcDbEntity
  8
Dimensions(ISO)
  6
Continuous
 62
     7
440
 16777216
370
    15
100
AcDbLine
 10
-102.4999999999997
 20
122.0
 30
0.0
 11
102.4999999999998
 21
122.0
 31
0.0
  0
SOLID
  5
3AB
330
2D9
100
AcDbEntity
  8
Dimensions(ISO)
  6
Continuous
 62
     7
440
 16777216
100
AcDbTrace
 10
-102.4999999999997
 20
122.8333333333333
 30
0.0
 11
-102.4999999999997
 21
121.1666666666667
 31
0.0
 12
-107.4999999999997
 22
122.0
 32
0.0
 13
-107.4999999999997
 23
122.0
 33
0.0
  0
SOLID
  5
3AC
330
2D9
100
AcDbEntity
  8
Dimensions(ISO)
  6
Continuous
 62
     7
440
 16777216
100
AcDbTrace
 10
102.4999999999998
 20
122.8333333333333
 30
0.0
 11
102.4999999999998
 21
121.1666666666667
 31
0.0
 12
107.4999999999998
 22
122.0
 32
0.0
 13
107.4999999999998
 23
122.0
 33
0.0
  0
MTEXT
  5
3AD
330
2D9
100
AcDbEntity
  8
Dimensions(ISO)
  6
Continuous
 62
     7
440
 16777216
370
    18
100
AcDbMText
 10
-9.91302870708747
 20
125.8461528158537
 30
0.0
 40
2.5
 41
0.0
 46
0.0
 71
     1
 72
     1
  1
\A1;Ø215 [8.465]
  7
Roxtec 2_5
 73
     1
 44
1.0
1001
ACAD
1000
MTEXTBEGIN
1070
    73
1070
     1
1070
    44
1040
1.0
1070
    74
1070
     0
1000
MTEXTEND
  0
POINT
  5
3AE
330
2D9
100
AcDbEntity
  8
Defpoints
  6
Continuous
 62
     0
440
 16777216
100
AcDbPoint
 10
-107.4999999999997
 20
-0.0000000000001804
 30
0.0
  0
POINT
  5
3AF
330
2D9
100
AcDbEntity
  8
Defpoints
  6
Continuous
 62
     0
440
 16777216
100
AcDbPoint
 10
107.4999999999997
 20
0.0000000000000292
 30
0.0
  0
POINT
  5
3B0
330
2D9
100
AcDbEntity
  8
Defpoints
  6
Continuous
 62
     0
440
 16777216
100
AcDbPoint
 10
107.4999999999998
 20
122.0
 30
0.0
  0
ENDBLK
  5
2DB
330
2D9
100
AcDbEntity
  8
0
100
AcDbBlockEnd
  0
BLOCK
  5
726
330
476
100
AcDbEntity
  8
0
100
AcDbBlockBegin
  2
GENAXEH
 70
     0
 10
0.0
 20
0.0
 30
0.0
  3
GENAXEH
  1

  0
LINE
  5
727
330
476
100
AcDbEntity
  8
0
100
AcDbLine
 10
-1.0
 20
0.0
 30
0.0
 11
1.0
 21
0.0
 31
0.0
  0
ENDBLK
  5
728
330
476
100
AcDbEntity
  8
0
100
AcDbBlockEnd
  0
BLOCK
  5
4BA
330
4B9
100
AcDbEntity
  8
0
100
AcDbBlockBegin
  2
SLFORI43
 70
     0
 10
0.0
 20
0.0
 30
0.0
  3
SLFORI43
  1

  0
LINE
  5
4BC
330
4B9
100
AcDbEntity
  8
Visible Edges(ISO)
100
AcDbLine
 10
-105.9992307578511
 20
-0.2000000000000988
 30
0.0
 11
-107.4998139533271
 21
-0.2000000000001
 31
0.0
  0
LINE
  5
4BD
330
4B9
100
AcDbEntity
  8
Visible Edges(ISO)
100
AcDbLine
 10
107.4998139533271
 20
-0.199999999999933
 30
0.0
 11
105.9992307578511
 21
-0.1999999999999341
 31
0.0
  0
ARC
  5
4BE
330
4B9
100
AcDbEntity
  8
Visible Edges(ISO)
100
AcDbCircle
 10
-0.0000000000000158
 20
-0.0000000000000149
 30
0.0
 40
26.49999999999995
100
AcDbArc
 50
191.1562901719083
 51
348.8437098280915
  0
ARC
  5
4BF
330
4B9
100
AcDbEntity
  8
Visible Edges(ISO)
100
AcDbCircle
 10
-0.000000000000018
 20
-0.0000000000000348
 30
0.0
 40
107.4999999999997
100
AcDbArc
 50
180.1065968605849
 51
359.8934031394149
  0
LINE
  5
4C0
330
4B9
100
AcDbEntity
  8
Visible Edges(ISO)
100
AcDbLine
 10
105.9992307578511
 20
0.2000000000000166
 30
0.0
 11
107.4998139533271
 21
0.2000000000000169
 31
0.0
  0
LINE
  5
4C1
330
4B9
100
AcDbEntity
  8
Visible Edges(ISO)
100
AcDbLine
 10
-107.4998139533271
 20
0.199999999999981
 30
0.0
 11
-105.9992307578511
 21
0.1999999999999813
 31
0.0
  0
ARC
  5
4C2
330
4B9
100
AcDbEntity
  8
Visible Edges(ISO)
100
AcDbCircle
 10
-0.0000000000000016
 20
-0.0000000000000006
 30
0.0
 40
26.49999999999995
100
AcDbArc
 50
11.15629017190864
 51
168.8437098280918
  0
ARC
  5
4C3
330
4B9
100
AcDbEntity
  8
Visible Edges(ISO)
100
AcDbCircle
 10
-0.0000000000000016
 20
0.0000000000000171
 30
0.0
 40
107.4999999999997
100
AcDbArc
 50
0.1065968605850788
 51
179.8934031394149
  0
LINE
  5
4C4
330
4B9
100
AcDbEntity
  8
Visible Edges(ISO)
100
AcDbLine
 10
68.30641043482365
 20
13.80000000000006
 30
0.0
 11
63.73389364042645
 21
13.80000000000005
 31
0.0
  0
SPLINE
  5
4C5
330
4B9
100
AcDbEntity
  8
Visible Edges(ISO)
100
AcDbSpline
210
0.0
220
0.0
230
1.0
 70
    12
 71
     2
 72
     6
 73
     3
 74
     0
 42
0.000000001
 43
0.0000000001
 40
-2.233163792124897
 40
-2.233163792124897
 40
-2.233163792124897
 40
-1.923102883579049
 40
-1.923102883579049
 40
-1.923102883579049
 10
63.73389364038597
 20
13.79999999992451
 30
0.0
 41
1.131256639618736
 10
63.43725100414783
 20
13.27834220717809
 30
0.0
 41
1.188385101724557
 10
63.0515298948934
 20
12.59999999999879
 30
0.0
 41
1.227119387785561
  0
LINE
  5
4C6
330
4B9
100
AcDbEntity
  8
Visible Edges(ISO)
100
AcDbLine
 10
68.99923075785119
 20
12.60000000000006
 30
0.0
 11
63.0515298948913
 21
12.60000000000006
 31
0.0
  0
SPLINE
  5
4C7
330
4B9
100
AcDbEntity
  8
Visible Edges(ISO)
100
AcDbSpline
210
0.0
220
0.0
230
1.0
 70
    12
 71
     2
 72
     6
 73
     3
 74
     0
 42
0.000000001
 43
0.0000000001
 40
-0.6172561078563388
 40
-0.6172561078563388
 40
-0.6172561078563388
 40
-0.3071951845292825
 40
-0.3071951845292825
 40
-0.3071951845292825
 10
62.9994637836388
 20
12.60000000000062
 30
0.0
 41
1.227119448729945
 10
63.39113526402797
 20
13.27834220940814
 30
0.0
 41
1.188385152510589
 10
63.6923540898413
 20
13.80000000000055
 30
0.0
 41
1.13125667397011
  0
LINE
  5
4C8
330
4B9
100
AcDbEntity
  8
Visible Edges(ISO)
100
AcDbLine
 10
63.73389364042645
 20
13.80000000000005
 30
0.0
 11
63.69235408984217
 21
13.80000000000005
 31
0.0
  0
LINE
  5
4C9
330
4B9
100
AcDbEntity
  8
Visible Edges(ISO)
100
AcDbLine
 10
63.05152989489131
 20
6.199999999999993
 30
0.0
 11
63.05152989489131
 21
12.60000000000006
 31
0.0
  0
LINE
  5
4CA
330
4B9
100
AcDbEntity
  8
Visible Edges(ISO)
100
AcDbLine
 10
62.99946378363975
 20
12.60000000000006
 30
0.0
 11
62.99946378363975
 21
6.199999999999991
 31
0.0
  0
LINE
  5
4CB
330
4B9
100
AcDbEntity
  8
Visible Edges(ISO)
100
AcDbLine
 10
68.30641043482365
 20
13.80000000000006
 30
0.0
 11
68.99923075785119
 21
12.60000000000006
 31
0.0
  0
LINE
  5
4CC
330
4B9
100
AcDbEntity
  8
Visible Edges(ISO)
100
AcDbLine
 10
68.99923075785119
 20
6.200000000000001
 30
0.0
 11
68.99923075785119
 21
12.60000000000006
 31
0.0
  0
LINE
  5
4CD
330
4B9
100
AcDbEntity
  8
Visible Edges(ISO)
100
AcDbLine
 10
-68.30641043482367
 20
-13.80000000000004
 30
0.0
 11
-63.73389364042647
 21
-13.80000000000004
 31
0.0
  0
SPLINE
  5
4CE
330
4B9
100
AcDbEntity
  8
Visible Edges(ISO)
100
AcDbSpline
210
0.0
220
0.0
230
1.0
 70
    12
 71
     2
 72
     6
 73
     3
 74
     0
 42
0.000000001
 43
0.0000000001
 40
-2.233163792124897
 40
-2.233163792124897
 40
-2.233163792124897
 40
-1.923102883579049
 40
-1.923102883579049
 40
-1.923102883579049
 10
-63.73389364038601
 20
-13.7999999999245
 30
0.0
 41
1.131256639618736
 10
-63.43725100414785
 20
-13.27834220717808
 30
0.0
 41
1.188385101724557
 10
-63.05152989489343
 20
-12.59999999999878
 30
0.0
 41
1.227119387785561
  0
LINE
  5
4CF
330
4B9
100
AcDbEntity
  8
Visible Edges(ISO)
100
AcDbLine
 10
-68.99923075785122
 20
-12.60000000000005
 30
0.0
 11
-63.05152989489133
 21
-12.60000000000005
 31
0.0
  0
SPLINE
  5
4D0
330
4B9
100
AcDbEntity
  8
Visible Edges(ISO)
100
AcDbSpline
210
0.0
220
0.0
230
1.0
 70
    12
 71
     2
 72
     6
 73
     3
 74
     0
 42
0.000000001
 43
0.0000000001
 40
-0.6172561078563388
 40
-0.6172561078563388
 40
-0.6172561078563388
 40
-0.3071951845292825
 40
-0.3071951845292825
 40
-0.3071951845292825
 10
-62.9994637836388
 20
-12.60000000000061
 30
0.0
 41
1.227119448729945
 10
-63.39113526402798
 20
-13.27834220940813
 30
0.0
 41
1.188385152510589
 10
-63.69235408984133
 20
-13.80000000000054
 30
0.0
 41
1.13125667397011
  0
LINE
  5
4D1
330
4B9
100
AcDbEntity
  8
Visible Edges(ISO)
100
AcDbLine
 10
-63.73389364042647
 20
-13.80000000000004
 30
0.0
 11
-63.6923540898422
 21
-13.80000000000004
 31
0.0
  0
LINE
  5
4D2
330
4B9
100
AcDbEntity
  8
Visible Edges(ISO)
100
AcDbLine
 10
-63.05152989489133
 20
-6.200000000000055
 30
0.0
 11
-63.05152989489133
 21
-12.60000000000005
 31
0.0
  0
LINE
  5
4D3
330
4B9
100
AcDbEntity
  8
Visible Edges(ISO)
100
AcDbLine
 10
-62.99946378363978
 20
-12.60000000000005
 30
0.0
 11
-62.99946378363978
 21
-6.200000000000055
 31
0.0
  0
LINE
  5
4D4
330
4B9
100
AcDbEntity
  8
Visible Edges(ISO)
100
AcDbLine
 10
-68.30641043482367
 20
-13.80000000000004
 30
0.0
 11
-68.99923075785122
 21
-12.60000000000004
 31
0.0
  0
LINE
  5
4D5
330
4B9
100
AcDbEntity
  8
Visible Edges(ISO)
100
AcDbLine
 10
-68.99923075785124
 20
-6.200000000000057
 30
0.0
 11
-68.99923075785122
 21
-12.60000000000004
 31
0.0
  0
LINE
  5
4D6
330
4B9
100
AcDbEntity
  8
Visible Edges(ISO)
100
AcDbLine
 10
-45.99923075785131
 20
-6.200000000000031
 30
0.0
 11
-25.99923075785134
 21
-6.200000000000013
 31
0.0
  0
LINE
  5
4D7
330
4B9
100
AcDbEntity
  8
Visible Edges(ISO)
100
AcDbLine
 10
-105.9992307578512
 20
-6.200000000000081
 30
0.0
 11
-45.99923075785131
 21
-6.200000000000027
 31
0.0
  0
LINE
  5
4D8
330
4B9
100
AcDbEntity
  8
Visible Edges(ISO)
100
AcDbLine
 10
-25.99923075785133
 20
-0.2000000000000251
 30
0.0
 11
-45.99923075785128
 21
-0.2000000000000407
 31
0.0
  0
LINE
  5
4D9
330
4B9
100
AcDbEntity
  8
Visible Edges(ISO)
100
AcDbLine
 10
-45.99923075785131
 20
-0.2000000000000407
 30
0.0
 11
-45.99923075785131
 21
-6.200000000000027
 31
0.0
  0
LINE
  5
4DA
330
4B9
100
AcDbEntity
  8
Visible Edges(ISO)
100
AcDbLine
 10
-25.99923075785133
 20
-0.2000000000000251
 30
0.0
 11
-25.99923075785133
 21
-6.200000000000013
 31
0.0
  0
LINE
  5
4DB
330
4B9
100
AcDbEntity
  8
Visible Edges(ISO)
100
AcDbLine
 10
-45.99923075785131
 20
-0.2000000000000407
 30
0.0
 11
-105.9992307578512
 21
-0.2000000000000945
 31
0.0
  0
LINE
  5
4DC
330
4B9
100
AcDbEntity
  8
Visible Edges(ISO)
100
AcDbLine
 10
-105.9992307578512
 20
-0.200000000000094
 30
0.0
 11
-105.9992307578512
 21
-6.200000000000081
 31
0.0
  0
LINE
  5
4DD
330
4B9
100
AcDbEntity
  8
Visible Edges(ISO)
100
AcDbLine
 10
45.99923075785128
 20
-0.1999999999999702
 30
0.0
 11
25.99923075785131
 21
-0.1999999999999857
 31
0.0
  0
LINE
  5
4DE
330
4B9
100
AcDbEntity
  8
Visible Edges(ISO)
100
AcDbLine
 10
105.9992307578512
 20
-0.1999999999999302
 30
0.0
 11
45.99923075785127
 21
-0.1999999999999696
 31
0.0
  0
LINE
  5
4DF
330
4B9
100
AcDbEntity
  8
Visible Edges(ISO)
100
AcDbLine
 10
25.99923075785131
 20
-6.199999999999975
 30
0.0
 11
45.99923075785128
 21
-6.199999999999959
 31
0.0
  0
LINE
  5
4E0
330
4B9
100
AcDbEntity
  8
Visible Edges(ISO)
100
AcDbLine
 10
45.99923075785128
 20
-6.199999999999959
 30
0.0
 11
45.99923075785127
 21
-0.1999999999999702
 31
0.0
  0
LINE
  5
4E1
330
4B9
100
AcDbEntity
  8
Visible Edges(ISO)
100
AcDbLine
 10
25.99923075785131
 20
-6.199999999999975
 30
0.0
 11
25.99923075785131
 21
-0.1999999999999857
 31
0.0
  0
LINE
  5
4E2
330
4B9
100
AcDbEntity
  8
Visible Edges(ISO)
100
AcDbLine
 10
45.99923075785128
 20
-6.199999999999959
 30
0.0
 11
105.9992307578512
 21
-6.19999999999992
 31
0.0
  0
LINE
  5
4E3
330
4B9
100
AcDbEntity
  8
Visible Edges(ISO)
100
AcDbLine
 10
105.9992307578512
 20
-6.199999999999919
 30
0.0
 11
105.9992307578512
 21
-0.1999999999999291
 31
0.0
  0
LINE
  5
4E4
330
4B9
100
AcDbEntity
  8
Visible Edges(ISO)
100
AcDbLine
 10
45.99923075785127
 20
6.199999999999986
 30
0.0
 11
25.9992307578513
 21
6.199999999999982
 31
0.0
  0
LINE
  5
4E5
330
4B9
100
AcDbEntity
  8
Visible Edges(ISO)
100
AcDbLine
 10
105.9992307578512
 20
6.200000000000003
 30
0.0
 11
45.99923075785127
 21
6.199999999999986
 31
0.0
  0
LINE
  5
4E6
330
4B9
100
AcDbEntity
  8
Visible Edges(ISO)
100
AcDbLine
 10
25.99923075785131
 20
0.1999999999999913
 30
0.0
 11
45.99923075785127
 21
0.1999999999999946
 31
0.0
  0
LINE
  5
4E7
330
4B9
100
AcDbEntity
  8
Visible Edges(ISO)
100
AcDbLine
 10
45.99923075785127
 20
0.1999999999999946
 30
0.0
 11
45.99923075785127
 21
6.199999999999986
 31
0.0
  0
LINE
  5
4E8
330
4B9
100
AcDbEntity
  8
Visible Edges(ISO)
100
AcDbLine
 10
25.99923075785131
 20
0.1999999999999913
 30
0.0
 11
25.9992307578513
 21
6.199999999999982
 31
0.0
  0
LINE
  5
4E9
330
4B9
100
AcDbEntity
  8
Visible Edges(ISO)
100
AcDbLine
 10
45.99923075785127
 20
0.1999999999999946
 30
0.0
 11
105.9992307578512
 21
0.2000000000000135
 31
0.0
  0
LINE
  5
4EA
330
4B9
100
AcDbEntity
  8
Visible Edges(ISO)
100
AcDbLine
 10
105.9992307578512
 20
0.200000000000013
 30
0.0
 11
105.9992307578512
 21
6.200000000000003
 31
0.0
  0
LINE
  5
4EB
330
4B9
100
AcDbEntity
  8
Visible Edges(ISO)
100
AcDbLine
 10
-45.99923075785131
 20
0.1999999999999785
 30
0.0
 11
-25.99923075785133
 21
0.1999999999999818
 31
0.0
  0
LINE
  5
4EC
330
4B9
100
AcDbEntity
  8
Visible Edges(ISO)
100
AcDbLine
 10
-105.9992307578512
 20
0.1999999999999774
 30
0.0
 11
-45.99923075785132
 21
0.1999999999999785
 31
0.0
  0
LINE
  5
4ED
330
4B9
100
AcDbEntity
  8
Visible Edges(ISO)
100
AcDbLine
 10
-25.99923075785135
 20
6.199999999999972
 30
0.0
 11
-45.99923075785131
 21
6.199999999999972
 31
0.0
  0
LINE
  5
4EE
330
4B9
100
AcDbEntity
  8
Visible Edges(ISO)
100
AcDbLine
 10
-45.99923075785131
 20
6.199999999999972
 30
0.0
 11
-45.99923075785131
 21
0.1999999999999791
 31
0.0
  0
LINE
  5
4EF
330
4B9
100
AcDbEntity
  8
Visible Edges(ISO)
100
AcDbLine
 10
-25.99923075785135
 20
6.199999999999972
 30
0.0
 11
-25.99923075785134
 21
0.1999999999999813
 31
0.0
  0
LINE
  5
4F0
330
4B9
100
AcDbEntity
  8
Visible Edges(ISO)
100
AcDbLine
 10
-45.99923075785131
 20
6.199999999999972
 30
0.0
 11
-105.9992307578512
 21
6.199999999999969
 31
0.0
  0
LINE
  5
4F1
330
4B9
100
AcDbEntity
  8
Visible Edges(ISO)
100
AcDbLine
 10
-105.9992307578512
 20
6.199999999999969
 30
0.0
 11
-105.9992307578512
 21
0.199999999999978
 31
0.0
  0
LINE
  5
4F2
330
4B9
100
AcDbEntity
  8
Visible Edges(ISO)
100
AcDbLine
 10
-97.2419060779643
 20
-15.24787790674191
 30
0.0
 11
-97.61403075785118
 21
-15.24787790674191
 31
0.0
  0
SPLINE
  5
4F3
330
4B9
100
AcDbEntity
  8
Visible Edges(ISO)
100
AcDbSpline
210
0.0
220
0.0
230
1.0
 70
    12
 71
     2
 72
     6
 73
     3
 74
     0
 42
0.000000001
 43
0.0000000001
 40
-1.913048398263397
 40
-1.913048398263397
 40
-1.913048398263397
 40
-1.518848435052985
 40
-1.518848435052985
 40
-1.518848435052985
 10
-97.24190607794858
 20
-15.24787790674529
 30
0.0
 41
2.115697818543006
 10
-97.68428003712052
 20
-15.15312468523932
 30
0.0
 41
2.08954939079009
 10
-98.16512129709051
 20
-14.91578603190372
 30
0.0
 41
2.026804510636547
  0
LINE
  5
4F4
330
4B9
100
AcDbEntity
  8
Visible Edges(ISO)
100
AcDbLine
 10
-98.16512129708989
 20
-14.91578603190404
 30
0.0
 11
-98.18923075785116
 21
-14.91578603190404
 31
0.0
  0
LINE
  5
4F5
330
4B9
100
AcDbEntity
  8
Visible Edges(ISO)
100
AcDbLine
 10
-85.24614211687717
 20
-17.29999999999999
 30
0.0
 11
-96.75231939882515
 21
-17.3
 31
0.0
  0
SPLINE
  5
4F6
330
4B9
100
AcDbEntity
  8
Visible Edges(ISO)
100
AcDbSpline
210
0.0
220
0.0
230
1.0
 70
    12
 71
     2
 72
     6
 73
     3
 74
     0
 42
0.000000001
 43
0.0000000001
 40
-2.870565764230207
 40
-2.870565764230207
 40
-2.870565764230207
 40
-2.476365801019788
 40
-2.476365801019788
 40
-2.476365801019788
 10
-83.83334021861186
 20
-8.132091874838206
 30
0.0
 41
2.026804510636543
 10
-84.31418147858185
 20
-7.894753221502601
 30
0.0
 41
2.089549390790089
 10
-84.75655543775381
 20
-7.799999999996632
 30
0.0
 41
2.115697818543003
  0
LINE
  5
4F7
330
4B9
100
AcDbEntity
  8
Visible Edges(ISO)
100
AcDbLine
 10
-83.80923075785119
 20
-8.132091874837886
 30
0.0
 11
-83.8333402186125
 21
-8.132091874837886
 31
0.0
  0
LINE
  5
4F8
330
4B9
100
AcDbEntity
  8
Visible Edges(ISO)
100
AcDbLine
 10
-98.16512129708989
 20
-8.132091874837897
 30
0.0
 11
-98.16512129708989
 21
-14.91578603190404
 31
0.0
  0
LINE
  5
4F9
330
4B9
100
AcDbEntity
  8
Visible Edges(ISO)
100
AcDbLine
 10
-98.16512129708989
 20
-8.132091874837897
 30
0.0
 11
-98.18923075785122
 21
-8.132091874837897
 31
0.0
  0
LINE
  5
4FA
330
4B9
100
AcDbEntity
  8
Visible Edges(ISO)
100
AcDbLine
 10
-83.83334021861251
 20
-14.91578603190403
 30
0.0
 11
-83.83334021861251
 21
-8.132091874837886
 31
0.0
  0
LINE
  5
4FB
330
4B9
100
AcDbEntity
  8
Visible Edges(ISO)
100
AcDbLine
 10
-83.80923075785119
 20
-14.91578603190403
 30
0.0
 11
-83.8333402186125
 21
-14.91578603190403
 31
0.0
  0
LINE
  5
4FC
330
4B9
100
AcDbEntity
  8
Visible Edges(ISO)
100
AcDbLine
 10
-87.92577992857149
 20
-14.91578603190403
 30
0.0
 11
-87.92577992857152
 21
-8.132091874837891
 31
0.0
  0
LINE
  5
4FD
330
4B9
100
AcDbEntity
  8
Visible Edges(ISO)
100
AcDbLine
 10
-86.90679104789218
 20
-14.91578603190403
 30
0.0
 11
-87.92577992857149
 21
-14.91578603190403
 31
0.0
  0
LINE
  5
4FE
330
4B9
100
AcDbEntity
  8
Visible Edges(ISO)
100
AcDbLine
 10
-86.90679104789218
 20
-8.13209187483789
 30
0.0
 11
-86.90679104789216
 21
-14.91578603190403
 31
0.0
  0
LINE
  5
4FF
330
4B9
100
AcDbEntity
  8
Visible Edges(ISO)
100
AcDbLine
 10
-86.90679104789216
 20
-8.13209187483789
 30
0.0
 11
-87.92577992857149
 21
-8.132091874837891
 31
0.0
  0
LINE
  5
500
330
4B9
100
AcDbEntity
  8
Visible Edges(ISO)
100
AcDbLine
 10
-95.09167046781016
 20
-14.91578603190404
 30
0.0
 11
-95.09167046781021
 21
-8.132091874837891
 31
0.0
  0
LINE
  5
501
330
4B9
100
AcDbEntity
  8
Visible Edges(ISO)
100
AcDbLine
 10
-94.07268158713085
 20
-14.91578603190404
 30
0.0
 11
-95.09167046781016
 21
-14.91578603190404
 31
0.0
  0
LINE
  5
502
330
4B9
100
AcDbEntity
  8
Visible Edges(ISO)
100
AcDbLine
 10
-94.07268158713085
 20
-8.132091874837897
 30
0.0
 11
-94.07268158713085
 21
-14.91578603190404
 31
0.0
  0
LINE
  5
503
330
4B9
100
AcDbEntity
  8
Visible Edges(ISO)
100
AcDbLine
 10
-94.07268158713085
 20
-8.132091874837891
 30
0.0
 11
-95.09167046781016
 21
-8.132091874837891
 31
0.0
  0
SPLINE
  5
504
330
4B9
100
AcDbEntity
  8
Visible Edges(ISO)
100
AcDbSpline
210
0.0
220
0.0
230
1.0
 70
    12
 71
     2
 72
     6
 73
     3
 74
     0
 42
0.000000001
 43
0.0000000001
 40
-1.913048398264028
 40
-1.913048398264028
 40
-1.913048398264028
 40
-1.518848435053526
 40
-1.518848435053526
 40
-1.518848435053526
 10
-97.24190607794858
 20
-7.799999999996642
 30
0.0
 41
2.115697818543448
 10
-97.68428003712052
 20
-7.894753221502615
 30
0.0
 41
2.089549390790529
 10
-98.16512129709051
 20
-8.132091874838213
 30
0.0
 41
2.026804510636972
  0
SPLINE
  5
505
330
4B9
100
AcDbEntity
  8
Visible Edges(ISO)
100
AcDbSpline
210
0.0
220
0.0
230
1.0
 70
    12
 71
     2
 72
     6
 73
     3
 74
     0
 42
0.000000001
 43
0.0000000001
 40
-1.913048398263399
 40
-1.913048398263399
 40
-1.913048398263399
 40
-1.518848435052985
 40
-1.518848435052985
 40
-1.518848435052985
 10
-85.98357582875086
 20
-7.799999999996633
 30
0.0
 41
2.115697818543003
 10
-86.42594978792281
 20
-7.894753221502601
 30
0.0
 41
2.089549390790088
 10
-86.9067910478928
 20
-8.132091874838202
 30
0.0
 41
2.026804510636546
  0
SPLINE
  5
506
330
4B9
100
AcDbEntity
  8
Visible Edges(ISO)
100
AcDbSpline
210
0.0
220
0.0
230
1.0
 70
    12
 71
     2
 72
     6
 73
     3
 74
     0
 42
0.000000001
 43
0.0000000001
 40
-2.870565764230207
 40
-2.870565764230207
 40
-2.870565764230207
 40
-2.47636580101979
 40
-2.47636580101979
 40
-2.47636580101979
 10
-87.92577992857019
 20
-8.132091874838202
 30
0.0
 41
2.026804510636547
 10
-88.8874624485102
 20
-7.894753221502601
 30
0.0
 41
2.089549390790089
 10
-89.77221036685413
 20
-7.799999999996634
 30
0.0
 41
2.115697818543005
  0
SPLINE
  5
507
330
4B9
100
AcDbEntity
  8
Visible Edges(ISO)
100
AcDbSpline
210
0.0
220
0.0
230
1.0
 70
    12
 71
     2
 72
     6
 73
     3
 74
     0
 42
0.000000001
 43
0.0000000001
 40
-1.913048398263395
 40
-1.913048398263395
 40
-1.913048398263395
 40
-1.518848435052984
 40
-1.518848435052984
 40
-1.518848435052984
 10
-92.22625114884824
 20
-7.799999999996637
 30
0.0
 41
2.115697818543004
 10
-93.11099906719221
 20
-7.894753221502606
 30
0.0
 41
2.089549390790089
 10
-94.07268158713213
 20
-8.132091874838206
 30
0.0
 41
2.026804510636547
  0
SPLINE
  5
508
330
4B9
100
AcDbEntity
  8
Visible Edges(ISO)
100
AcDbSpline
210
0.0
220
0.0
230
1.0
 70
    12
 71
     2
 72
     6
 73
     3
 74
     0
 42
0.000000001
 43
0.0000000001
 40
-2.870565764231055
 40
-2.870565764231055
 40
-2.870565764231055
 40
-2.476365801020555
 40
-2.476365801020555
 40
-2.476365801020555
 10
-95.09167046780952
 20
-8.132091874838206
 30
0.0
 41
2.026804510636972
 10
-95.57251172777952
 20
-7.894753221502611
 30
0.0
 41
2.089549390790529
 10
-96.01488568695149
 20
-7.799999999996642
 30
0.0
 41
2.115697818543449
  0
SPLINE
  5
509
330
4B9
100
AcDbEntity
  8
Visible Edges(ISO)
100
AcDbSpline
210
0.0
220
0.0
230
1.0
 70
    12
 71
     2
 72
     6
 73
     3
 74
     0
 42
0.000000001
 43
0.0000000001
 40
-2.870565764231061
 40
-2.870565764231061
 40
-2.870565764231061
 40
-2.476365801020556
 40
-2.476365801020556
 40
-2.476365801020556
 10
-95.09167046780735
 20
-14.91578603190267
 30
0.0
 41
2.026804510636277
 10
-95.57251172777766
 20
-15.15312468523867
 30
0.0
 41
2.089549390789914
 10
-96.01488568694982
 20
-15.24787790674494
 30
0.0
 41
2.115697818542905
  0
LINE
  5
50A
330
4B9
100
AcDbEntity
  8
Visible Edges(ISO)
100
AcDbLine
 10
-96.01488568693572
 20
-15.24787790674191
 30
0.0
 11
-97.2419060779643
 21
-15.24787790674191
 31
0.0
  0
SPLINE
  5
50B
330
4B9
100
AcDbEntity
  8
Visible Edges(ISO)
100
AcDbSpline
210
0.0
220
0.0
230
1.0
 70
    12
 71
     2
 72
     6
 73
     3
 74
     0
 42
0.000000001
 43
0.0000000001
 40
-2.87056576423106
 40
-2.87056576423106
 40
-2.87056576423106
 40
-2.476365801020558
 40
-2.476365801020558
 40
-2.476365801020558
 10
-87.92577992857019
 20
-14.91578603190372
 30
0.0
 41
2.026804510636975
 10
-88.88746244851018
 20
-15.15312468523932
 30
0.0
 41
2.08954939079053
 10
-89.77221036685413
 20
-15.24787790674529
 30
0.0
 41
2.115697818543452
  0
SPLINE
  5
50C
330
4B9
100
AcDbEntity
  8
Visible Edges(ISO)
100
AcDbSpline
210
0.0
220
0.0
230
1.0
 70
    12
 71
     2
 72
     6
 73
     3
 74
     0
 42
0.000000001
 43
0.0000000001
 40
-1.913048398264039
 40
-1.913048398264039
 40
-1.913048398264039
 40
-1.518848435053534
 40
-1.518848435053534
 40
-1.518848435053534
 10
-92.2262511488482
 20
-15.24787790674529
 30
0.0
 41
2.115697818543453
 10
-93.11099906719212
 20
-15.15312468523933
 30
0.0
 41
2.08954939079053
 10
-94.07268158713213
 20
-14.91578603190373
 30
0.0
 41
2.026804510636975
  0
LINE
  5
50D
330
4B9
100
AcDbEntity
  8
Visible Edges(ISO)
100
AcDbLine
 10
-89.77221036682257
 20
-15.24787790674191
 30
0.0
 11
-92.22625114887978
 21
-15.24787790674191
 31
0.0
  0
SPLINE
  5
50E
330
4B9
100
AcDbEntity
  8
Visible Edges(ISO)
100
AcDbSpline
210
0.0
220
0.0
230
1.0
 70
    12
 71
     2
 72
     6
 73
     3
 74
     0
 42
0.000000001
 43
0.0000000001
 40
-2.87056576423106
 40
-2.87056576423106
 40
-2.87056576423106
 40
-2.476365801020556
 40
-2.476365801020556
 40
-2.476365801020556
 10
-83.83334021861186
 20
-14.91578603190372
 30
0.0
 41
2.026804510636975
 10
-84.31418147858185
 20
-15.15312468523932
 30
0.0
 41
2.089549390790534
 10
-84.75655543775381
 20
-15.24787790674529
 30
0.0
 41
2.115697818543456
  0
SPLINE
  5
50F
330
4B9
100
AcDbEntity
  8
Visible Edges(ISO)
100
AcDbSpline
210
0.0
220
0.0
230
1.0
 70
    12
 71
     2
 72
     6
 73
     3
 74
     0
 42
0.000000001
 43
0.0000000001
 40
-1.913048398264038
 40
-1.913048398264038
 40
-1.913048398264038
 40
-1.518848435053534
 40
-1.518848435053534
 40
-1.518848435053534
 10
-85.98357582875085
 20
-15.24787790674529
 30
0.0
 41
2.115697818543456
 10
-86.42594978792281
 20
-15.15312468523932
 30
0.0
 41
2.089549390790534
 10
-86.9067910478928
 20
-14.91578603190373
 30
0.0
 41
2.026804510636979
  0
LINE
  5
510
330
4B9
100
AcDbEntity
  8
Visible Edges(ISO)
100
AcDbLine
 10
-84.75655543773804
 20
-15.24787790674191
 30
0.0
 11
-85.98357582876664
 21
-15.24787790674191
 31
0.0
  0
LINE
  5
511
330
4B9
100
AcDbEntity
  8
Visible Edges(ISO)
100
AcDbLine
 10
-92.22625114887978
 20
-15.24787790674191
 30
0.0
 11
-96.01488568693572
 21
-15.24787790674191
 31
0.0
  0
LINE
  5
512
330
4B9
100
AcDbEntity
  8
Visible Edges(ISO)
100
AcDbLine
 10
-85.98357582876664
 20
-15.24787790674191
 30
0.0
 11
-89.77221036682255
 21
-15.24787790674191
 31
0.0
  0
LINE
  5
513
330
4B9
100
AcDbEntity
  8
Visible Edges(ISO)
100
AcDbLine
 10
-84.38443075785119
 20
-15.24787790674191
 30
0.0
 11
-84.75655543773802
 21
-15.24787790674191
 31
0.0
  0
LINE
  5
514
330
4B9
100
AcDbEntity
  8
Visible Edges(ISO)
100
AcDbLine
 10
-97.6140307578512
 20
-15.24787790674191
 30
0.0
 11
-98.18923075785122
 21
-14.91578603190404
 31
0.0
  0
LINE
  5
515
330
4B9
100
AcDbEntity
  8
Visible Edges(ISO)
100
AcDbLine
 10
-96.75231939882515
 20
-17.3
 30
0.0
 11
-96.75231939882522
 21
-15.24787790674191
 31
0.0
  0
LINE
  5
516
330
4B9
100
AcDbEntity
  8
Visible Edges(ISO)
100
AcDbLine
 10
-85.24614211687721
 20
-17.29999999999999
 30
0.0
 11
-85.24614211687721
 21
-15.24787790674191
 31
0.0
  0
LINE
  5
517
330
4B9
100
AcDbEntity
  8
Visible Edges(ISO)
100
AcDbLine
 10
-84.38443075785119
 20
-7.800000000000017
 30
0.0
 11
-83.80923075785119
 21
-8.132091874837886
 31
0.0
  0
LINE
  5
518
330
4B9
100
AcDbEntity
  8
Visible Edges(ISO)
100
AcDbLine
 10
-98.18923075785122
 20
-14.91578603190404
 30
0.0
 11
-98.18923075785122
 21
-8.132091874837897
 31
0.0
  0
LINE
  5
519
330
4B9
100
AcDbEntity
  8
Visible Edges(ISO)
100
AcDbLine
 10
-83.80923075785119
 20
-14.91578603190403
 30
0.0
 11
-83.80923075785124
 21
-8.132091874837886
 31
0.0
  0
LINE
  5
51A
330
4B9
100
AcDbEntity
  8
Visible Edges(ISO)
100
AcDbLine
 10
-97.61403075785118
 20
-7.800000000000027
 30
0.0
 11
-98.18923075785116
 21
-8.132091874837897
 31
0.0
  0
LINE
  5
51B
330
4B9
100
AcDbEntity
  8
Visible Edges(ISO)
100
AcDbLine
 10
-84.38443075785119
 20
-15.24787790674191
 30
0.0
 11
-83.80923075785119
 21
-14.91578603190404
 31
0.0
  0
LINE
  5
51C
330
4B9
100
AcDbEntity
  8
Visible Edges(ISO)
100
AcDbLine
 10
97.61403075785125
 20
-15.24787790674188
 30
0.0
 11
97.24190607796437
 21
-15.24787790674188
 31
0.0
  0
LINE
  5
51D
330
4B9
100
AcDbEntity
  8
Visible Edges(ISO)
100
AcDbLine
 10
98.18923075785122
 20
-14.915786031904
 30
0.0
 11
98.16512129708993
 21
-14.915786031904
 31
0.0
  0
SPLINE
  5
51E
330
4B9
100
AcDbEntity
  8
Visible Edges(ISO)
100
AcDbSpline
210
0.0
220
0.0
230
1.0
 70
    12
 71
     2
 72
     6
 73
     3
 74
     0
 42
0.000000001
 43
0.0000000001
 40
1.518848435052985
 40
1.518848435052985
 40
1.518848435052985
 40
1.913048398263399
 40
1.913048398263399
 40
1.913048398263399
 10
98.16512129709057
 20
-14.91578603190369
 30
0.0
 41
2.026804510636551
 10
97.68428003712058
 20
-15.15312468523929
 30
0.0
 41
2.089549390790093
 10
97.24190607794859
 20
-15.24787790674525
 30
0.0
 41
2.11569781854301
  0
LINE
  5
51F
330
4B9
100
AcDbEntity
  8
Visible Edges(ISO)
100
AcDbLine
 10
96.75231939882522
 20
-17.29999999999997
 30
0.0
 11
85.24614211687726
 21
-17.29999999999997
 31
0.0
  0
LINE
  5
520
330
4B9
100
AcDbEntity
  8
Visible Edges(ISO)
100
AcDbLine
 10
83.83334021861257
 20
-8.132091874837861
 30
0.0
 11
83.80923075785126
 21
-8.132091874837861
 31
0.0
  0
SPLINE
  5
521
330
4B9
100
AcDbEntity
  8
Visible Edges(ISO)
100
AcDbSpline
210
0.0
220
0.0
230
1.0
 70
    12
 71
     2
 72
     6
 73
     3
 74
     0
 42
0.000000001
 43
0.0000000001
 40
-1.913048398263399
 40
-1.913048398263399
 40
-1.913048398263399
 40
-1.518848435052985
 40
-1.518848435052985
 40
-1.518848435052985
 10
84.75655543775387
 20
-7.799999999996605
 30
0.0
 41
2.115697818543003
 10
84.31418147858193
 20
-7.894753221502575
 30
0.0
 41
2.089549390790085
 10
83.83334021861193
 20
-8.132091874838176
 30
0.0
 41
2.026804510636543
  0
LINE
  5
522
330
4B9
100
AcDbEntity
  8
Visible Edges(ISO)
100
AcDbLine
 10
98.18923075785123
 20
-8.132091874837861
 30
0.0
 11
98.16512129708996
 21
-8.132091874837861
 31
0.0
  0
LINE
  5
523
330
4B9
100
AcDbEntity
  8
Visible Edges(ISO)
100
AcDbLine
 10
98.16512129708993
 20
-14.915786031904
 30
0.0
 11
98.16512129708996
 21
-8.132091874837861
 31
0.0
  0
LINE
  5
524
330
4B9
100
AcDbEntity
  8
Visible Edges(ISO)
100
AcDbLine
 10
94.07268158713092
 20
-14.91578603190401
 30
0.0
 11
94.07268158713092
 21
-8.132091874837865
 31
0.0
  0
LINE
  5
525
330
4B9
100
AcDbEntity
  8
Visible Edges(ISO)
100
AcDbLine
 10
95.09167046781023
 20
-14.915786031904
 30
0.0
 11
94.07268158713092
 21
-14.915786031904
 31
0.0
  0
LINE
  5
526
330
4B9
100
AcDbEntity
  8
Visible Edges(ISO)
100
AcDbLine
 10
95.09167046781023
 20
-8.132091874837861
 30
0.0
 11
95.09167046781023
 21
-14.915786031904
 31
0.0
  0
LINE
  5
527
330
4B9
100
AcDbEntity
  8
Visible Edges(ISO)
100
AcDbLine
 10
95.09167046781023
 20
-8.132091874837861
 30
0.0
 11
94.07268158713092
 21
-8.132091874837861
 31
0.0
  0
LINE
  5
528
330
4B9
100
AcDbEntity
  8
Visible Edges(ISO)
100
AcDbLine
 10
86.90679104789223
 20
-14.91578603190401
 30
0.0
 11
86.90679104789223
 21
-8.132091874837861
 31
0.0
  0
LINE
  5
529
330
4B9
100
AcDbEntity
  8
Visible Edges(ISO)
100
AcDbLine
 10
87.92577992857159
 20
-14.915786031904
 30
0.0
 11
86.90679104789223
 21
-14.915786031904
 31
0.0
  0
LINE
  5
52A
330
4B9
100
AcDbEntity
  8
Visible Edges(ISO)
100
AcDbLine
 10
87.92577992857159
 20
-8.132091874837861
 30
0.0
 11
87.92577992857159
 21
-14.91578603190401
 31
0.0
  0
LINE
  5
52B
330
4B9
100
AcDbEntity
  8
Visible Edges(ISO)
100
AcDbLine
 10
87.92577992857157
 20
-8.132091874837861
 30
0.0
 11
86.90679104789223
 21
-8.132091874837861
 31
0.0
  0
LINE
  5
52C
330
4B9
100
AcDbEntity
  8
Visible Edges(ISO)
100
AcDbLine
 10
83.83334021861257
 20
-14.915786031904
 30
0.0
 11
83.80923075785126
 21
-14.915786031904
 31
0.0
  0
LINE
  5
52D
330
4B9
100
AcDbEntity
  8
Visible Edges(ISO)
100
AcDbLine
 10
83.83334021861257
 20
-8.132091874837861
 30
0.0
 11
83.83334021861257
 21
-14.915786031904
 31
0.0
  0
SPLINE
  5
52E
330
4B9
100
AcDbEntity
  8
Visible Edges(ISO)
100
AcDbSpline
210
0.0
220
0.0
230
1.0
 70
    12
 71
     2
 72
     6
 73
     3
 74
     0
 42
0.000000001
 43
0.0000000001
 40
-2.870565764231055
 40
-2.870565764231055
 40
-2.870565764231055
 40
-2.47636580102055
 40
-2.47636580102055
 40
-2.47636580102055
 10
98.16512129709057
 20
-8.132091874838172
 30
0.0
 41
2.026804510636975
 10
97.68428003712058
 20
-7.894753221502567
 30
0.0
 41
2.08954939079053
 10
97.24190607794859
 20
-7.799999999996602
 30
0.0
 41
2.115697818543453
  0
SPLINE
  5
52F
330
4B9
100
AcDbEntity
  8
Visible Edges(ISO)
100
AcDbSpline
210
0.0
220
0.0
230
1.0
 70
    12
 71
     2
 72
     6
 73
     3
 74
     0
 42
0.000000001
 43
0.0000000001
 40
-1.913048398264028
 40
-1.913048398264028
 40
-1.913048398264028
 40
-1.518848435053529
 40
-1.518848435053529
 40
-1.518848435053529
 10
96.01488568695154
 20
-7.799999999996606
 30
0.0
 41
2.115697818543452
 10
95.57251172777959
 20
-7.894753221502574
 30
0.0
 41
2.08954939079053
 10
95.09167046780961
 20
-8.132091874838172
 30
0.0
 41
2.026804510636975
  0
SPLINE
  5
530
330
4B9
100
AcDbEntity
  8
Visible Edges(ISO)
100
AcDbSpline
210
0.0
220
0.0
230
1.0
 70
    12
 71
     2
 72
     6
 73
     3
 74
     0
 42
0.000000001
 43
0.0000000001
 40
-2.870565764230207
 40
-2.870565764230207
 40
-2.870565764230207
 40
-2.476365801019792
 40
-2.476365801019792
 40
-2.476365801019792
 10
94.0726815871322
 20
-8.132091874838176
 30
0.0
 41
2.026804510636547
 10
93.11099906719221
 20
-7.894753221502577
 30
0.0
 41
2.089549390790089
 10
92.22625114884831
 20
-7.799999999996605
 30
0.0
 41
2.115697818543003
  0
SPLINE
  5
531
330
4B9
100
AcDbEntity
  8
Visible Edges(ISO)
100
AcDbSpline
210
0.0
220
0.0
230
1.0
 70
    12
 71
     2
 72
     6
 73
     3
 74
     0
 42
0.000000001
 43
0.0000000001
 40
-1.913048398263395
 40
-1.913048398263395
 40
-1.913048398263395
 40
-1.518848435052984
 40
-1.518848435052984
 40
-1.518848435052984
 10
89.77221036685419
 20
-7.799999999996605
 30
0.0
 41
2.115697818543003
 10
88.88746244851025
 20
-7.894753221502579
 30
0.0
 41
2.089549390790089
 10
87.92577992857031
 20
-8.132091874838176
 30
0.0
 41
2.026804510636547
  0
SPLINE
  5
532
330
4B9
100
AcDbEntity
  8
Visible Edges(ISO)
100
AcDbSpline
210
0.0
220
0.0
230
1.0
 70
    12
 71
     2
 72
     6
 73
     3
 74
     0
 42
0.000000001
 43
0.0000000001
 40
-2.870565764230207
 40
-2.870565764230207
 40
-2.870565764230207
 40
-2.476365801019785
 40
-2.476365801019785
 40
-2.476365801019785
 10
86.90679104789287
 20
-8.132091874838177
 30
0.0
 41
2.026804510636543
 10
86.42594978792287
 20
-7.894753221502575
 30
0.0
 41
2.089549390790088
 10
85.98357582875093
 20
-7.799999999996605
 30
0.0
 41
2.115697818543003
  0
SPLINE
  5
533
330
4B9
100
AcDbEntity
  8
Visible Edges(ISO)
100
AcDbSpline
210
0.0
220
0.0
230
1.0
 70
    12
 71
     2
 72
     6
 73
     3
 74
     0
 42
0.000000001
 43
0.0000000001
 40
-2.870565764231058
 40
-2.870565764231058
 40
-2.870565764231058
 40
-2.47636580102055
 40
-2.47636580102055
 40
-2.47636580102055
 10
86.90679104789287
 20
-14.91578603190369
 30
0.0
 41
2.026804510636979
 10
86.42594978792287
 20
-15.1531246852393
 30
0.0
 41
2.089549390790534
 10
85.98357582875093
 20
-15.24787790674526
 30
0.0
 41
2.115697818543456
  0
SPLINE
  5
534
330
4B9
100
AcDbEntity
  8
Visible Edges(ISO)
100
AcDbSpline
210
0.0
220
0.0
230
1.0
 70
    12
 71
     2
 72
     6
 73
     3
 74
     0
 42
0.000000001
 43
0.0000000001
 40
-1.913048398264039
 40
-1.913048398264039
 40
-1.913048398264039
 40
-1.518848435053534
 40
-1.518848435053534
 40
-1.518848435053534
 10
84.75655543775387
 20
-15.24787790674526
 30
0.0
 41
2.115697818543456
 10
84.31418147858193
 20
-15.15312468523929
 30
0.0
 41
2.089549390790534
 10
83.83334021861193
 20
-14.9157860319037
 30
0.0
 41
2.026804510636979
  0
LINE
  5
535
330
4B9
100
AcDbEntity
  8
Visible Edges(ISO)
100
AcDbLine
 10
85.98357582876671
 20
-15.24787790674188
 30
0.0
 11
84.75655543773811
 21
-15.24787790674188
 31
0.0
  0
SPLINE
  5
536
330
4B9
100
AcDbEntity
  8
Visible Edges(ISO)
100
AcDbSpline
210
0.0
220
0.0
230
1.0
 70
    12
 71
     2
 72
     6
 73
     3
 74
     0
 42
0.000000001
 43
0.0000000001
 40
-2.870565764231058
 40
-2.870565764231058
 40
-2.870565764231058
 40
-2.476365801020556
 40
-2.476365801020556
 40
-2.476365801020556
 10
94.0726815871322
 20
-14.91578603190369
 30
0.0
 41
2.026804510636972
 10
93.11099906719221
 20
-15.15312468523929
 30
0.0
 41
2.08954939079053
 10
92.22625114884829
 20
-15.24787790674526
 30
0.0
 41
2.115697818543449
  0
SPLINE
  5
537
330
4B9
100
AcDbEntity
  8
Visible Edges(ISO)
100
AcDbSpline
210
0.0
220
0.0
230
1.0
 70
    12
 71
     2
 72
     6
 73
     3
 74
     0
 42
0.000000001
 43
0.0000000001
 40
-1.913048398264035
 40
-1.913048398264035
 40
-1.913048398264035
 40
-1.518848435053534
 40
-1.518848435053534
 40
-1.518848435053534
 10
89.77221036685419
 20
-15.24787790674526
 30
0.0
 41
2.115697818543449
 10
88.88746244851025
 20
-15.15312468523929
 30
0.0
 41
2.08954939079053
 10
87.92577992857031
 20
-14.91578603190369
 30
0.0
 41
2.026804510636972
  0
LINE
  5
538
330
4B9
100
AcDbEntity
  8
Visible Edges(ISO)
100
AcDbLine
 10
92.22625114887987
 20
-15.24787790674189
 30
0.0
 11
89.77221036682264
 21
-15.24787790674189
 31
0.0
  0
SPLINE
  5
539
330
4B9
100
AcDbEntity
  8
Visible Edges(ISO)
100
AcDbSpline
210
0.0
220
0.0
230
1.0
 70
    12
 71
     2
 72
     6
 73
     3
 74
     0
 42
0.000000001
 43
0.0000000001
 40
-1.913048398264033
 40
-1.913048398264033
 40
-1.913048398264033
 40
-1.518848435053534
 40
-1.518848435053534
 40
-1.518848435053534
 10
96.01488568695154
 20
-15.24787790674525
 30
0.0
 41
2.115697818543454
 10
95.57251172777958
 20
-15.15312468523929
 30
0.0
 41
2.089549390790533
 10
95.09167046780961
 20
-14.91578603190369
 30
0.0
 41
2.026804510636978
  0
LINE
  5
53A
330
4B9
100
AcDbEntity
  8
Visible Edges(ISO)
100
AcDbLine
 10
97.2419060779644
 20
-15.24787790674188
 30
0.0
 11
96.01488568693577
 21
-15.24787790674188
 31
0.0
  0
LINE
  5
53B
330
4B9
100
AcDbEntity
  8
Visible Edges(ISO)
100
AcDbLine
 10
84.75655543773811
 20
-15.24787790674188
 30
0.0
 11
84.38443075785125
 21
-15.24787790674188
 31
0.0
  0
LINE
  5
53C
330
4B9
100
AcDbEntity
  8
Visible Edges(ISO)
100
AcDbLine
 10
89.77221036682264
 20
-15.24787790674188
 30
0.0
 11
85.98357582876671
 21
-15.24787790674188
 31
0.0
  0
LINE
  5
53D
330
4B9
100
AcDbEntity
  8
Visible Edges(ISO)
100
AcDbLine
 10
96.01488568693577
 20
-15.24787790674188
 30
0.0
 11
92.22625114887986
 21
-15.24787790674188
 31
0.0
  0
LINE
  5
53E
330
4B9
100
AcDbEntity
  8
Visible Edges(ISO)
100
AcDbLine
 10
97.61403075785125
 20
-15.24787790674188
 30
0.0
 11
98.18923075785122
 21
-14.915786031904
 31
0.0
  0
LINE
  5
53F
330
4B9
100
AcDbEntity
  8
Visible Edges(ISO)
100
AcDbLine
 10
85.24614211687726
 20
-17.29999999999997
 30
0.0
 11
85.24614211687726
 21
-15.24787790674188
 31
0.0
  0
LINE
  5
540
330
4B9
100
AcDbEntity
  8
Visible Edges(ISO)
100
AcDbLine
 10
96.75231939882522
 20
-17.29999999999997
 30
0.0
 11
96.75231939882522
 21
-15.24787790674188
 31
0.0
  0
LINE
  5
541
330
4B9
100
AcDbEntity
  8
Visible Edges(ISO)
100
AcDbLine
 10
84.38443075785125
 20
-7.799999999999991
 30
0.0
 11
83.80923075785126
 21
-8.132091874837861
 31
0.0
  0
LINE
  5
542
330
4B9
100
AcDbEntity
  8
Visible Edges(ISO)
100
AcDbLine
 10
98.18923075785122
 20
-14.915786031904
 30
0.0
 11
98.18923075785122
 21
-8.132091874837861
 31
0.0
  0
LINE
  5
543
330
4B9
100
AcDbEntity
  8
Visible Edges(ISO)
100
AcDbLine
 10
83.80923075785126
 20
-14.915786031904
 30
0.0
 11
83.80923075785126
 21
-8.132091874837861
 31
0.0
  0
LINE
  5
544
330
4B9
100
AcDbEntity
  8
Visible Edges(ISO)
100
AcDbLine
 10
97.61403075785125
 20
-7.799999999999991
 30
0.0
 11
98.18923075785122
 21
-8.132091874837861
 31
0.0
  0
LINE
  5
545
330
4B9
100
AcDbEntity
  8
Visible Edges(ISO)
100
AcDbLine
 10
84.38443075785128
 20
-15.24787790674188
 30
0.0
 11
83.80923075785126
 21
-14.915786031904
 31
0.0
  0
LINE
  5
546
330
4B9
100
AcDbEntity
  8
Visible Edges(ISO)
100
AcDbLine
 10
-34.38443075785131
 20
-15.24787790674203
 30
0.0
 11
-34.75655543773817
 21
-15.24787790674203
 31
0.0
  0
LINE
  5
547
330
4B9
100
AcDbEntity
  8
Visible Edges(ISO)
100
AcDbLine
 10
-33.80923075785132
 20
-14.91578603190415
 30
0.0
 11
-33.83334021861263
 21
-14.91578603190415
 31
0.0
  0
SPLINE
  5
548
330
4B9
100
AcDbEntity
  8
Visible Edges(ISO)
100
AcDbSpline
210
0.0
220
0.0
230
1.0
 70
    12
 71
     2
 72
     6
 73
     3
 74
     0
 42
0.000000001
 43
0.0000000001
 40
1.518848435052985
 40
1.518848435052985
 40
1.518848435052985
 40
1.913048398263399
 40
1.913048398263399
 40
1.913048398263399
 10
-33.83334021861199
 20
-14.91578603190384
 30
0.0
 41
2.026804510636551
 10
-34.31418147858197
 20
-15.15312468523944
 30
0.0
 41
2.089549390790093
 10
-34.75655543775393
 20
-15.24787790674541
 30
0.0
 41
2.11569781854301
  0
LINE
  5
549
330
4B9
100
AcDbEntity
  8
Visible Edges(ISO)
100
AcDbLine
 10
-35.24614211687732
 20
-17.30000000000013
 30
0.0
 11
-46.75231939882535
 21
-17.30000000000013
 31
0.0
  0
LINE
  5
54A
330
4B9
100
AcDbEntity
  8
Visible Edges(ISO)
100
AcDbLine
 10
-48.16512129709003
 20
-8.132091874837973
 30
0.0
 11
-48.18923075785136
 21
-8.132091874837973
 31
0.0
  0
SPLINE
  5
54B
330
4B9
100
AcDbEntity
  8
Visible Edges(ISO)
100
AcDbSpline
210
0.0
220
0.0
230
1.0
 70
    12
 71
     2
 72
     6
 73
     3
 74
     0
 42
0.000000001
 43
0.0000000001
 40
-1.913048398263399
 40
-1.913048398263399
 40
-1.913048398263399
 40
-1.518848435052985
 40
-1.518848435052985
 40
-1.518848435052985
 10
-47.24190607794871
 20
-7.799999999996718
 30
0.0
 41
2.115697818543003
 10
-47.68428003712068
 20
-7.894753221502686
 30
0.0
 41
2.089549390790085
 10
-48.16512129709067
 20
-8.132091874838286
 30
0.0
 41
2.026804510636543
  0
LINE
  5
54C
330
4B9
100
AcDbEntity
  8
Visible Edges(ISO)
100
AcDbLine
 10
-33.80923075785131
 20
-8.13209187483797
 30
0.0
 11
-33.83334021861263
 21
-8.13209187483797
 31
0.0
  0
LINE
  5
54D
330
4B9
100
AcDbEntity
  8
Visible Edges(ISO)
100
AcDbLine
 10
-33.83334021861263
 20
-14.91578603190415
 30
0.0
 11
-33.83334021861261
 21
-8.132091874837971
 31
0.0
  0
LINE
  5
54E
330
4B9
100
AcDbEntity
  8
Visible Edges(ISO)
100
AcDbLine
 10
-37.92577992857165
 20
-14.91578603190415
 30
0.0
 11
-37.92577992857164
 21
-8.132091874837973
 31
0.0
  0
LINE
  5
54F
330
4B9
100
AcDbEntity
  8
Visible Edges(ISO)
100
AcDbLine
 10
-36.90679104789232
 20
-14.91578603190415
 30
0.0
 11
-37.92577992857164
 21
-14.91578603190415
 31
0.0
  0
LINE
  5
550
330
4B9
100
AcDbEntity
  8
Visible Edges(ISO)
100
AcDbLine
 10
-36.90679104789232
 20
-8.132091874837971
 30
0.0
 11
-36.90679104789233
 21
-14.91578603190415
 31
0.0
  0
LINE
  5
551
330
4B9
100
AcDbEntity
  8
Visible Edges(ISO)
100
AcDbLine
 10
-36.90679104789231
 20
-8.132091874837971
 30
0.0
 11
-37.92577992857164
 21
-8.132091874837971
 31
0.0
  0
LINE
  5
552
330
4B9
100
AcDbEntity
  8
Visible Edges(ISO)
100
AcDbLine
 10
-45.09167046781034
 20
-14.91578603190415
 30
0.0
 11
-45.09167046781032
 21
-8.132091874837973
 31
0.0
  0
LINE
  5
553
330
4B9
100
AcDbEntity
  8
Visible Edges(ISO)
100
AcDbLine
 10
-44.07268158713102
 20
-14.91578603190415
 30
0.0
 11
-45.09167046781034
 21
-14.91578603190415
 31
0.0
  0
LINE
  5
554
330
4B9
100
AcDbEntity
  8
Visible Edges(ISO)
100
AcDbLine
 10
-44.072681587131
 20
-8.132091874837973
 30
0.0
 11
-44.07268158713102
 21
-14.91578603190415
 31
0.0
  0
LINE
  5
555
330
4B9
100
AcDbEntity
  8
Visible Edges(ISO)
100
AcDbLine
 10
-44.072681587131
 20
-8.132091874837973
 30
0.0
 11
-45.09167046781032
 21
-8.132091874837973
 31
0.0
  0
LINE
  5
556
330
4B9
100
AcDbEntity
  8
Visible Edges(ISO)
100
AcDbLine
 10
-48.16512129709003
 20
-14.91578603190415
 30
0.0
 11
-48.18923075785136
 21
-14.91578603190415
 31
0.0
  0
LINE
  5
557
330
4B9
100
AcDbEntity
  8
Visible Edges(ISO)
100
AcDbLine
 10
-48.16512129709003
 20
-8.132091874837973
 30
0.0
 11
-48.16512129709003
 21
-14.91578603190415
 31
0.0
  0
SPLINE
  5
558
330
4B9
100
AcDbEntity
  8
Visible Edges(ISO)
100
AcDbSpline
210
0.0
220
0.0
230
1.0
 70
    12
 71
     2
 72
     6
 73
     3
 74
     0
 42
0.000000001
 43
0.0000000001
 40
-2.870565764231055
 40
-2.870565764231055
 40
-2.870565764231055
 40
-2.47636580102055
 40
-2.47636580102055
 40
-2.47636580102055
 10
-33.83334021861198
 20
-8.13209187483828
 30
0.0
 41
2.026804510636975
 10
-34.31418147858197
 20
-7.894753221502678
 30
0.0
 41
2.08954939079053
 10
-34.75655543775394
 20
-7.79999999999671
 30
0.0
 41
2.115697818543453
  0
SPLINE
  5
559
330
4B9
100
AcDbEntity
  8
Visible Edges(ISO)
100
AcDbSpline
210
0.0
220
0.0
230
1.0
 70
    12
 71
     2
 72
     6
 73
     3
 74
     0
 42
0.000000001
 43
0.0000000001
 40
-1.913048398264028
 40
-1.913048398264028
 40
-1.913048398264028
 40
-1.518848435053529
 40
-1.518848435053529
 40
-1.518848435053529
 10
-35.983575828751
 20
-7.799999999996715
 30
0.0
 41
2.115697818543452
 10
-36.42594978792296
 20
-7.894753221502685
 30
0.0
 41
2.08954939079053
 10
-36.90679104789295
 20
-8.132091874838284
 30
0.0
 41
2.026804510636975
  0
SPLINE
  5
55A
330
4B9
100
AcDbEntity
  8
Visible Edges(ISO)
100
AcDbSpline
210
0.0
220
0.0
230
1.0
 70
    12
 71
     2
 72
     6
 73
     3
 74
     0
 42
0.000000001
 43
0.0000000001
 40
-2.870565764230207
 40
-2.870565764230207
 40
-2.870565764230207
 40
-2.476365801019792
 40
-2.476365801019792
 40
-2.476365801019792
 10
-37.92577992857037
 20
-8.132091874838286
 30
0.0
 41
2.026804510636547
 10
-38.88746244851033
 20
-7.894753221502686
 30
0.0
 41
2.089549390790089
 10
-39.77221036685426
 20
-7.799999999996716
 30
0.0
 41
2.115697818543003
  0
SPLINE
  5
55B
330
4B9
100
AcDbEntity
  8
Visible Edges(ISO)
100
AcDbSpline
210
0.0
220
0.0
230
1.0
 70
    12
 71
     2
 72
     6
 73
     3
 74
     0
 42
0.000000001
 43
0.0000000001
 40
-1.913048398263395
 40
-1.913048398263395
 40
-1.913048398263395
 40
-1.518848435052984
 40
-1.518848435052984
 40
-1.518848435052984
 10
-42.22625114884839
 20
-7.799999999996718
 30
0.0
 41
2.115697818543003
 10
-43.11099906719231
 20
-7.894753221502687
 30
0.0
 41
2.089549390790089
 10
-44.07268158713228
 20
-8.132091874838286
 30
0.0
 41
2.026804510636547
  0
SPLINE
  5
55C
330
4B9
100
AcDbEntity
  8
Visible Edges(ISO)
100
AcDbSpline
210
0.0
220
0.0
230
1.0
 70
    12
 71
     2
 72
     6
 73
     3
 74
     0
 42
0.000000001
 43
0.0000000001
 40
-2.870565764230207
 40
-2.870565764230207
 40
-2.870565764230207
 40
-2.476365801019785
 40
-2.476365801019785
 40
-2.476365801019785
 10
-45.09167046780969
 20
-8.132091874838291
 30
0.0
 41
2.026804510636543
 10
-45.5725117277797
 20
-7.894753221502682
 30
0.0
 41
2.089549390790088
 10
-46.01488568695167
 20
-7.799999999996712
 30
0.0
 41
2.115697818543003
  0
SPLINE
  5
55D
330
4B9
100
AcDbEntity
  8
Visible Edges(ISO)
100
AcDbSpline
210
0.0
220
0.0
230
1.0
 70
    12
 71
     2
 72
     6
 73
     3
 74
     0
 42
0.000000001
 43
0.0000000001
 40
-2.870565764231058
 40
-2.870565764231058
 40
-2.870565764231058
 40
-2.47636580102055
 40
-2.47636580102055
 40
-2.47636580102055
 10
-45.09167046780971
 20
-14.91578603190385
 30
0.0
 41
2.026804510636979
 10
-45.5725117277797
 20
-15.15312468523944
 30
0.0
 41
2.089549390790534
 10
-46.01488568695167
 20
-15.24787790674541
 30
0.0
 41
2.115697818543456
  0
SPLINE
  5
55E
330
4B9
100
AcDbEntity
  8
Visible Edges(ISO)
100
AcDbSpline
210
0.0
220
0.0
230
1.0
 70
    12
 71
     2
 72
     6
 73
     3
 74
     0
 42
0.000000001
 43
0.0000000001
 40
-1.913048398264039
 40
-1.913048398264039
 40
-1.913048398264039
 40
-1.518848435053534
 40
-1.518848435053534
 40
-1.518848435053534
 10
-47.24190607794871
 20
-15.24787790674541
 30
0.0
 41
2.115697818543456
 10
-47.68428003712068
 20
-15.15312468523944
 30
0.0
 41
2.089549390790534
 10
-48.16512129709067
 20
-14.91578603190385
 30
0.0
 41
2.026804510636979
  0
LINE
  5
55F
330
4B9
100
AcDbEntity
  8
Visible Edges(ISO)
100
AcDbLine
 10
-46.01488568693588
 20
-15.24787790674203
 30
0.0
 11
-47.24190607796447
 21
-15.24787790674203
 31
0.0
  0
SPLINE
  5
560
330
4B9
100
AcDbEntity
  8
Visible Edges(ISO)
100
AcDbSpline
210
0.0
220
0.0
230
1.0
 70
    12
 71
     2
 72
     6
 73
     3
 74
     0
 42
0.000000001
 43
0.0000000001
 40
-2.870565764231058
 40
-2.870565764231058
 40
-2.870565764231058
 40
-2.476365801020556
 40
-2.476365801020556
 40
-2.476365801020556
 10
-37.92577992857037
 20
-14.91578603190384
 30
0.0
 41
2.026804510636972
 10
-38.88746244851035
 20
-15.15312468523944
 30
0.0
 41
2.08954939079053
 10
-39.77221036685428
 20
-15.24787790674541
 30
0.0
 41
2.115697818543449
  0
SPLINE
  5
561
330
4B9
100
AcDbEntity
  8
Visible Edges(ISO)
100
AcDbSpline
210
0.0
220
0.0
230
1.0
 70
    12
 71
     2
 72
     6
 73
     3
 74
     0
 42
0.000000001
 43
0.0000000001
 40
-1.913048398264035
 40
-1.913048398264035
 40
-1.913048398264035
 40
-1.518848435053534
 40
-1.518848435053534
 40
-1.518848435053534
 10
-42.22625114884838
 20
-15.24787790674541
 30
0.0
 41
2.115697818543449
 10
-43.11099906719229
 20
-15.15312468523944
 30
0.0
 41
2.08954939079053
 10
-44.07268158713228
 20
-14.91578603190384
 30
0.0
 41
2.026804510636972
  0
LINE
  5
562
330
4B9
100
AcDbEntity
  8
Visible Edges(ISO)
100
AcDbLine
 10
-39.77221036682272
 20
-15.24787790674203
 30
0.0
 11
-42.22625114887995
 21
-15.24787790674203
 31
0.0
  0
SPLINE
  5
563
330
4B9
100
AcDbEntity
  8
Visible Edges(ISO)
100
AcDbSpline
210
0.0
220
0.0
230
1.0
 70
    12
 71
     2
 72
     6
 73
     3
 74
     0
 42
0.000000001
 43
0.0000000001
 40
-1.913048398264033
 40
-1.913048398264033
 40
-1.913048398264033
 40
-1.518848435053534
 40
-1.518848435053534
 40
-1.518848435053534
 10
-35.98357582875101
 20
-15.24787790674541
 30
0.0
 41
2.115697818543454
 10
-36.42594978792297
 20
-15.15312468523944
 30
0.0
 41
2.089549390790533
 10
-36.90679104789295
 20
-14.91578603190384
 30
0.0
 41
2.026804510636978
  0
LINE
  5
564
330
4B9
100
AcDbEntity
  8
Visible Edges(ISO)
100
AcDbLine
 10
-34.75655543773817
 20
-15.24787790674203
 30
0.0
 11
-35.98357582876678
 21
-15.24787790674203
 31
0.0
  0
LINE
  5
565
330
4B9
100
AcDbEntity
  8
Visible Edges(ISO)
100
AcDbLine
 10
-47.24190607796449
 20
-15.24787790674203
 30
0.0
 11
-47.61403075785135
 21
-15.24787790674203
 31
0.0
  0
LINE
  5
566
330
4B9
100
AcDbEntity
  8
Visible Edges(ISO)
100
AcDbLine
 10
-42.22625114887995
 20
-15.24787790674203
 30
0.0
 11
-46.01488568693588
 21
-15.24787790674203
 31
0.0
  0
LINE
  5
567
330
4B9
100
AcDbEntity
  8
Visible Edges(ISO)
100
AcDbLine
 10
-35.98357582876678
 20
-15.24787790674203
 30
0.0
 11
-39.77221036682272
 21
-15.24787790674203
 31
0.0
  0
LINE
  5
568
330
4B9
100
AcDbEntity
  8
Visible Edges(ISO)
100
AcDbLine
 10
-34.38443075785132
 20
-15.24787790674203
 30
0.0
 11
-33.80923075785132
 21
-14.91578603190415
 31
0.0
  0
LINE
  5
569
330
4B9
100
AcDbEntity
  8
Visible Edges(ISO)
100
AcDbLine
 10
-46.75231939882531
 20
-17.30000000000013
 30
0.0
 11
-46.75231939882531
 21
-15.24787790674203
 31
0.0
  0
LINE
  5
56A
330
4B9
100
AcDbEntity
  8
Visible Edges(ISO)
100
AcDbLine
 10
-35.24614211687732
 20
-17.30000000000013
 30
0.0
 11
-35.24614211687732
 21
-15.24787790674203
 31
0.0
  0
LINE
  5
56B
330
4B9
100
AcDbEntity
  8
Visible Edges(ISO)
100
AcDbLine
 10
-47.61403075785135
 20
-7.800000000000102
 30
0.0
 11
-48.18923075785132
 21
-8.132091874837973
 31
0.0
  0
LINE
  5
56C
330
4B9
100
AcDbEntity
  8
Visible Edges(ISO)
100
AcDbLine
 10
-33.80923075785132
 20
-14.91578603190415
 30
0.0
 11
-33.80923075785131
 21
-8.132091874837971
 31
0.0
  0
LINE
  5
56D
330
4B9
100
AcDbEntity
  8
Visible Edges(ISO)
100
AcDbLine
 10
-48.18923075785132
 20
-14.91578603190415
 30
0.0
 11
-48.18923075785132
 21
-8.132091874837973
 31
0.0
  0
LINE
  5
56E
330
4B9
100
AcDbEntity
  8
Visible Edges(ISO)
100
AcDbLine
 10
-34.3844307578513
 20
-7.8000000000001
 30
0.0
 11
-33.80923075785131
 21
-8.132091874837971
 31
0.0
  0
LINE
  5
56F
330
4B9
100
AcDbEntity
  8
Visible Edges(ISO)
100
AcDbLine
 10
-47.61403075785132
 20
-15.24787790674203
 30
0.0
 11
-48.18923075785132
 21
-14.91578603190415
 31
0.0
  0
LINE
  5
570
330
4B9
100
AcDbEntity
  8
Visible Edges(ISO)
100
AcDbLine
 10
47.61403075785131
 20
-15.24787790674195
 30
0.0
 11
47.24190607796447
 21
-15.24787790674195
 31
0.0
  0
LINE
  5
571
330
4B9
100
AcDbEntity
  8
Visible Edges(ISO)
100
AcDbLine
 10
48.18923075785132
 20
-14.91578603190407
 30
0.0
 11
48.16512129709
 21
-14.91578603190407
 31
0.0
  0
SPLINE
  5
572
330
4B9
100
AcDbEntity
  8
Visible Edges(ISO)
100
AcDbSpline
210
0.0
220
0.0
230
1.0
 70
    12
 71
     2
 72
     6
 73
     3
 74
     0
 42
0.000000001
 43
0.0000000001
 40
1.518848435052985
 40
1.518848435052985
 40
1.518848435052985
 40
1.913048398263399
 40
1.913048398263399
 40
1.913048398263399
 10
48.16512129709064
 20
-14.91578603190376
 30
0.0
 41
2.026804510636551
 10
47.68428003712066
 20
-15.15312468523936
 30
0.0
 41
2.089549390790093
 10
47.24190607794867
 20
-15.24787790674533
 30
0.0
 41
2.11569781854301
  0
LINE
  5
573
330
4B9
100
AcDbEntity
  8
Visible Edges(ISO)
100
AcDbLine
 10
46.75231939882531
 20
-17.30000000000004
 30
0.0
 11
35.24614211687727
 21
-17.30000000000004
 31
0.0
  0
LINE
  5
574
330
4B9
100
AcDbEntity
  8
Visible Edges(ISO)
100
AcDbLine
 10
33.83334021861255
 20
-8.132091874837913
 30
0.0
 11
33.80923075785126
 21
-8.132091874837913
 31
0.0
  0
SPLINE
  5
575
330
4B9
100
AcDbEntity
  8
Visible Edges(ISO)
100
AcDbSpline
210
0.0
220
0.0
230
1.0
 70
    12
 71
     2
 72
     6
 73
     3
 74
     0
 42
0.000000001
 43
0.0000000001
 40
-1.913048398263399
 40
-1.913048398263399
 40
-1.913048398263399
 40
-1.518848435052985
 40
-1.518848435052985
 40
-1.518848435052985
 10
34.75655543775387
 20
-7.799999999996659
 30
0.0
 41
2.115697818543003
 10
34.31418147858192
 20
-7.894753221502628
 30
0.0
 41
2.089549390790085
 10
33.83334021861192
 20
-8.132091874838227
 30
0.0
 41
2.026804510636543
  0
LINE
  5
576
330
4B9
100
AcDbEntity
  8
Visible Edges(ISO)
100
AcDbLine
 10
48.18923075785132
 20
-8.132091874837911
 30
0.0
 11
48.16512129709
 21
-8.132091874837911
 31
0.0
  0
LINE
  5
577
330
4B9
100
AcDbEntity
  8
Visible Edges(ISO)
100
AcDbLine
 10
48.16512129709
 20
-14.91578603190407
 30
0.0
 11
48.16512129709
 21
-8.132091874837913
 31
0.0
  0
LINE
  5
578
330
4B9
100
AcDbEntity
  8
Visible Edges(ISO)
100
AcDbLine
 10
44.07268158713097
 20
-14.91578603190407
 30
0.0
 11
44.07268158713097
 21
-8.132091874837913
 31
0.0
  0
LINE
  5
579
330
4B9
100
AcDbEntity
  8
Visible Edges(ISO)
100
AcDbLine
 10
45.09167046781032
 20
-14.91578603190407
 30
0.0
 11
44.07268158713097
 21
-14.91578603190407
 31
0.0
  0
LINE
  5
57A
330
4B9
100
AcDbEntity
  8
Visible Edges(ISO)
100
AcDbLine
 10
45.09167046781029
 20
-8.132091874837913
 30
0.0
 11
45.09167046781029
 21
-14.91578603190407
 31
0.0
  0
LINE
  5
57B
330
4B9
100
AcDbEntity
  8
Visible Edges(ISO)
100
AcDbLine
 10
45.09167046781029
 20
-8.132091874837913
 30
0.0
 11
44.07268158713097
 21
-8.132091874837913
 31
0.0
  0
LINE
  5
57C
330
4B9
100
AcDbEntity
  8
Visible Edges(ISO)
100
AcDbLine
 10
36.90679104789226
 20
-14.91578603190407
 30
0.0
 11
36.90679104789226
 21
-8.132091874837913
 31
0.0
  0
LINE
  5
57D
330
4B9
100
AcDbEntity
  8
Visible Edges(ISO)
100
AcDbLine
 10
37.9257799285716
 20
-14.91578603190407
 30
0.0
 11
36.90679104789226
 21
-14.91578603190407
 31
0.0
  0
LINE
  5
57E
330
4B9
100
AcDbEntity
  8
Visible Edges(ISO)
100
AcDbLine
 10
37.9257799285716
 20
-8.132091874837913
 30
0.0
 11
37.9257799285716
 21
-14.91578603190407
 31
0.0
  0
LINE
  5
57F
330
4B9
100
AcDbEntity
  8
Visible Edges(ISO)
100
AcDbLine
 10
37.9257799285716
 20
-8.132091874837913
 30
0.0
 11
36.90679104789226
 21
-8.132091874837913
 31
0.0
  0
LINE
  5
580
330
4B9
100
AcDbEntity
  8
Visible Edges(ISO)
100
AcDbLine
 10
33.83334021861255
 20
-14.91578603190407
 30
0.0
 11
33.80923075785126
 21
-14.91578603190407
 31
0.0
  0
LINE
  5
581
330
4B9
100
AcDbEntity
  8
Visible Edges(ISO)
100
AcDbLine
 10
33.83334021861255
 20
-8.132091874837913
 30
0.0
 11
33.83334021861255
 21
-14.91578603190407
 31
0.0
  0
SPLINE
  5
582
330
4B9
100
AcDbEntity
  8
Visible Edges(ISO)
100
AcDbSpline
210
0.0
220
0.0
230
1.0
 70
    12
 71
     2
 72
     6
 73
     3
 74
     0
 42
0.000000001
 43
0.0000000001
 40
-2.870565764231055
 40
-2.870565764231055
 40
-2.870565764231055
 40
-2.47636580102055
 40
-2.47636580102055
 40
-2.47636580102055
 10
48.16512129709064
 20
-8.132091874838224
 30
0.0
 41
2.026804510636975
 10
47.68428003712066
 20
-7.894753221502622
 30
0.0
 41
2.08954939079053
 10
47.24190607794867
 20
-7.799999999996654
 30
0.0
 41
2.115697818543453
  0
SPLINE
  5
583
330
4B9
100
AcDbEntity
  8
Visible Edges(ISO)
100
AcDbSpline
210
0.0
220
0.0
230
1.0
 70
    12
 71
     2
 72
     6
 73
     3
 74
     0
 42
0.000000001
 43
0.0000000001
 40
-1.913048398264028
 40
-1.913048398264028
 40
-1.913048398264028
 40
-1.518848435053529
 40
-1.518848435053529
 40
-1.518848435053529
 10
46.0148856869516
 20
-7.799999999996657
 30
0.0
 41
2.115697818543452
 10
45.57251172777966
 20
-7.894753221502628
 30
0.0
 41
2.08954939079053
 10
45.09167046780968
 20
-8.132091874838224
 30
0.0
 41
2.026804510636975
  0
SPLINE
  5
584
330
4B9
100
AcDbEntity
  8
Visible Edges(ISO)
100
AcDbSpline
210
0.0
220
0.0
230
1.0
 70
    12
 71
     2
 72
     6
 73
     3
 74
     0
 42
0.000000001
 43
0.0000000001
 40
-2.870565764230207
 40
-2.870565764230207
 40
-2.870565764230207
 40
-2.476365801019792
 40
-2.476365801019792
 40
-2.476365801019792
 10
44.07268158713224
 20
-8.132091874838227
 30
0.0
 41
2.026804510636547
 10
43.11099906719227
 20
-7.894753221502628
 30
0.0
 41
2.089549390790089
 10
42.22625114884835
 20
-7.799999999996657
 30
0.0
 41
2.115697818543003
  0
SPLINE
  5
585
330
4B9
100
AcDbEntity
  8
Visible Edges(ISO)
100
AcDbSpline
210
0.0
220
0.0
230
1.0
 70
    12
 71
     2
 72
     6
 73
     3
 74
     0
 42
0.000000001
 43
0.0000000001
 40
-1.913048398263395
 40
-1.913048398263395
 40
-1.913048398263395
 40
-1.518848435052984
 40
-1.518848435052984
 40
-1.518848435052984
 10
39.77221036685422
 20
-7.799999999996659
 30
0.0
 41
2.115697818543003
 10
38.88746244851029
 20
-7.894753221502628
 30
0.0
 41
2.089549390790089
 10
37.92577992857032
 20
-8.132091874838227
 30
0.0
 41
2.026804510636547
  0
SPLINE
  5
586
330
4B9
100
AcDbEntity
  8
Visible Edges(ISO)
100
AcDbSpline
210
0.0
220
0.0
230
1.0
 70
    12
 71
     2
 72
     6
 73
     3
 74
     0
 42
0.000000001
 43
0.0000000001
 40
-2.870565764230207
 40
-2.870565764230207
 40
-2.870565764230207
 40
-2.476365801019785
 40
-2.476365801019785
 40
-2.476365801019785
 10
36.9067910478929
 20
-8.132091874838231
 30
0.0
 41
2.026804510636543
 10
36.42594978792291
 20
-7.894753221502622
 30
0.0
 41
2.089549390790088
 10
35.98357582875092
 20
-7.799999999996654
 30
0.0
 41
2.115697818543003
  0
SPLINE
  5
587
330
4B9
100
AcDbEntity
  8
Visible Edges(ISO)
100
AcDbSpline
210
0.0
220
0.0
230
1.0
 70
    12
 71
     2
 72
     6
 73
     3
 74
     0
 42
0.000000001
 43
0.0000000001
 40
-2.870565764231058
 40
-2.870565764231058
 40
-2.870565764231058
 40
-2.47636580102055
 40
-2.47636580102055
 40
-2.47636580102055
 10
36.90679104789289
 20
-14.91578603190376
 30
0.0
 41
2.026804510636979
 10
36.42594978792291
 20
-15.15312468523936
 30
0.0
 41
2.089549390790534
 10
35.98357582875094
 20
-15.24787790674533
 30
0.0
 41
2.115697818543456
  0
SPLINE
  5
588
330
4B9
100
AcDbEntity
  8
Visible Edges(ISO)
100
AcDbSpline
210
0.0
220
0.0
230
1.0
 70
    12
 71
     2
 72
     6
 73
     3
 74
     0
 42
0.000000001
 43
0.0000000001
 40
-1.913048398264039
 40
-1.913048398264039
 40
-1.913048398264039
 40
-1.518848435053534
 40
-1.518848435053534
 40
-1.518848435053534
 10
34.75655543775389
 20
-15.24787790674533
 30
0.0
 41
2.115697818543456
 10
34.31418147858193
 20
-15.15312468523936
 30
0.0
 41
2.089549390790534
 10
33.83334021861195
 20
-14.91578603190377
 30
0.0
 41
2.026804510636979
  0
LINE
  5
589
330
4B9
100
AcDbEntity
  8
Visible Edges(ISO)
100
AcDbLine
 10
35.98357582876671
 20
-15.24787790674195
 30
0.0
 11
34.75655543773811
 21
-15.24787790674195
 31
0.0
  0
SPLINE
  5
58A
330
4B9
100
AcDbEntity
  8
Visible Edges(ISO)
100
AcDbSpline
210
0.0
220
0.0
230
1.0
 70
    12
 71
     2
 72
     6
 73
     3
 74
     0
 42
0.000000001
 43
0.0000000001
 40
-2.870565764231058
 40
-2.870565764231058
 40
-2.870565764231058
 40
-2.476365801020556
 40
-2.476365801020556
 40
-2.476365801020556
 10
44.07268158713224
 20
-14.91578603190376
 30
0.0
 41
2.026804510636972
 10
43.11099906719227
 20
-15.15312468523936
 30
0.0
 41
2.08954939079053
 10
42.22625114884835
 20
-15.24787790674533
 30
0.0
 41
2.115697818543449
  0
SPLINE
  5
58B
330
4B9
100
AcDbEntity
  8
Visible Edges(ISO)
100
AcDbSpline
210
0.0
220
0.0
230
1.0
 70
    12
 71
     2
 72
     6
 73
     3
 74
     0
 42
0.000000001
 43
0.0000000001
 40
-1.913048398264035
 40
-1.913048398264035
 40
-1.913048398264035
 40
-1.518848435053534
 40
-1.518848435053534
 40
-1.518848435053534
 10
39.77221036685424
 20
-15.24787790674533
 30
0.0
 41
2.115697818543449
 10
38.88746244851031
 20
-15.15312468523936
 30
0.0
 41
2.08954939079053
 10
37.92577992857033
 20
-14.91578603190376
 30
0.0
 41
2.026804510636972
  0
LINE
  5
58C
330
4B9
100
AcDbEntity
  8
Visible Edges(ISO)
100
AcDbLine
 10
42.2262511488799
 20
-15.24787790674195
 30
0.0
 11
39.77221036682267
 21
-15.24787790674195
 31
0.0
  0
SPLINE
  5
58D
330
4B9
100
AcDbEntity
  8
Visible Edges(ISO)
100
AcDbSpline
210
0.0
220
0.0
230
1.0
 70
    12
 71
     2
 72
     6
 73
     3
 74
     0
 42
0.000000001
 43
0.0000000001
 40
-1.913048398264033
 40
-1.913048398264033
 40
-1.913048398264033
 40
-1.518848435053534
 40
-1.518848435053534
 40
-1.518848435053534
 10
46.0148856869516
 20
-15.24787790674533
 30
0.0
 41
2.115697818543454
 10
45.57251172777966
 20
-15.15312468523936
 30
0.0
 41
2.089549390790533
 10
45.09167046780968
 20
-14.91578603190376
 30
0.0
 41
2.026804510636978
  0
LINE
  5
58E
330
4B9
100
AcDbEntity
  8
Visible Edges(ISO)
100
AcDbLine
 10
47.24190607796447
 20
-15.24787790674195
 30
0.0
 11
46.01488568693585
 21
-15.24787790674195
 31
0.0
  0
LINE
  5
58F
330
4B9
100
AcDbEntity
  8
Visible Edges(ISO)
100
AcDbLine
 10
34.75655543773811
 20
-15.24787790674195
 30
0.0
 11
34.38443075785126
 21
-15.24787790674195
 31
0.0
  0
LINE
  5
590
330
4B9
100
AcDbEntity
  8
Visible Edges(ISO)
100
AcDbLine
 10
39.77221036682267
 20
-15.24787790674195
 30
0.0
 11
35.98357582876671
 21
-15.24787790674195
 31
0.0
  0
LINE
  5
591
330
4B9
100
AcDbEntity
  8
Visible Edges(ISO)
100
AcDbLine
 10
46.01488568693585
 20
-15.24787790674195
 30
0.0
 11
42.2262511488799
 21
-15.24787790674195
 31
0.0
  0
LINE
  5
592
330
4B9
100
AcDbEntity
  8
Visible Edges(ISO)
100
AcDbLine
 10
47.61403075785131
 20
-15.24787790674195
 30
0.0
 11
48.1892307578513
 21
-14.91578603190407
 31
0.0
  0
LINE
  5
593
330
4B9
100
AcDbEntity
  8
Visible Edges(ISO)
100
AcDbLine
 10
35.24614211687727
 20
-17.30000000000004
 30
0.0
 11
35.24614211687727
 21
-15.24787790674195
 31
0.0
  0
LINE
  5
594
330
4B9
100
AcDbEntity
  8
Visible Edges(ISO)
100
AcDbLine
 10
46.75231939882531
 20
-17.30000000000004
 30
0.0
 11
46.75231939882531
 21
-15.24787790674195
 31
0.0
  0
LINE
  5
595
330
4B9
100
AcDbEntity
  8
Visible Edges(ISO)
100
AcDbLine
 10
34.38443075785125
 20
-7.800000000000046
 30
0.0
 11
33.80923075785126
 21
-8.132091874837913
 31
0.0
  0
LINE
  5
596
330
4B9
100
AcDbEntity
  8
Visible Edges(ISO)
100
AcDbLine
 10
48.1892307578513
 20
-14.91578603190407
 30
0.0
 11
48.1892307578513
 21
-8.132091874837913
 31
0.0
  0
LINE
  5
597
330
4B9
100
AcDbEntity
  8
Visible Edges(ISO)
100
AcDbLine
 10
33.80923075785126
 20
-14.91578603190407
 30
0.0
 11
33.80923075785126
 21
-8.132091874837913
 31
0.0
  0
LINE
  5
598
330
4B9
100
AcDbEntity
  8
Visible Edges(ISO)
100
AcDbLine
 10
47.61403075785132
 20
-7.800000000000043
 30
0.0
 11
48.1892307578513
 21
-8.132091874837913
 31
0.0
  0
LINE
  5
599
330
4B9
100
AcDbEntity
  8
Visible Edges(ISO)
100
AcDbLine
 10
34.38443075785126
 20
-15.24787790674195
 30
0.0
 11
33.80923075785126
 21
-14.91578603190407
 31
0.0
  0
LINE
  5
59A
330
4B9
100
AcDbEntity
  8
Visible Edges(ISO)
100
AcDbLine
 10
-98.99923075785119
 20
7.799999999999967
 30
0.0
 11
-82.9992307578512
 21
7.799999999999977
 31
0.0
  0
LINE
  5
59B
330
4B9
100
AcDbEntity
  8
Visible Edges(ISO)
100
AcDbLine
 10
-98.99923075785119
 20
6.199999999999969
 30
0.0
 11
-98.99923075785119
 21
7.799999999999965
 31
0.0
  0
LINE
  5
59C
330
4B9
100
AcDbEntity
  8
Visible Edges(ISO)
100
AcDbLine
 10
-82.9992307578512
 20
6.19999999999998
 30
0.0
 11
-82.9992307578512
 21
7.799999999999977
 31
0.0
  0
LINE
  5
59D
330
4B9
100
AcDbEntity
  8
Visible Edges(ISO)
100
AcDbLine
 10
-82.9992307578512
 20
-7.800000000000006
 30
0.0
 11
-98.99923075785117
 21
-7.800000000000016
 31
0.0
  0
LINE
  5
59E
330
4B9
100
AcDbEntity
  8
Visible Edges(ISO)
100
AcDbLine
 10
-82.9992307578512
 20
-6.200000000000008
 30
0.0
 11
-82.9992307578512
 21
-7.800000000000006
 31
0.0
  0
LINE
  5
59F
330
4B9
100
AcDbEntity
  8
Visible Edges(ISO)
100
AcDbLine
 10
-98.99923075785117
 20
-6.200000000000017
 30
0.0
 11
-98.99923075785117
 21
-7.800000000000016
 31
0.0
  0
LINE
  5
5A0
330
4B9
100
AcDbEntity
  8
Visible Edges(ISO)
100
AcDbLine
 10
82.99923075785129
 20
7.800000000000006
 30
0.0
 11
98.99923075785125
 21
7.800000000000006
 31
0.0
  0
LINE
  5
5A1
330
4B9
100
AcDbEntity
  8
Visible Edges(ISO)
100
AcDbLine
 10
82.99923075785125
 20
6.200000000000008
 30
0.0
 11
82.99923075785125
 21
7.800000000000006
 31
0.0
  0
LINE
  5
5A2
330
4B9
100
AcDbEntity
  8
Visible Edges(ISO)
100
AcDbLine
 10
98.99923075785125
 20
6.200000000000008
 30
0.0
 11
98.99923075785125
 21
7.800000000000008
 31
0.0
  0
LINE
  5
5A3
330
4B9
100
AcDbEntity
  8
Visible Edges(ISO)
100
AcDbLine
 10
98.99923075785125
 20
-7.799999999999982
 30
0.0
 11
82.99923075785125
 21
-7.799999999999982
 31
0.0
  0
LINE
  5
5A4
330
4B9
100
AcDbEntity
  8
Visible Edges(ISO)
100
AcDbLine
 10
98.99923075785125
 20
-6.199999999999982
 30
0.0
 11
98.99923075785125
 21
-7.799999999999982
 31
0.0
  0
LINE
  5
5A5
330
4B9
100
AcDbEntity
  8
Visible Edges(ISO)
100
AcDbLine
 10
82.99923075785125
 20
-6.199999999999982
 30
0.0
 11
82.99923075785125
 21
-7.799999999999982
 31
0.0
  0
LINE
  5
5A6
330
4B9
100
AcDbEntity
  8
Visible Edges(ISO)
100
AcDbLine
 10
-48.99923075785132
 20
7.799999999999982
 30
0.0
 11
-32.9992307578513
 21
7.799999999999986
 31
0.0
  0
LINE
  5
5A7
330
4B9
100
AcDbEntity
  8
Visible Edges(ISO)
100
AcDbLine
 10
-48.99923075785132
 20
6.199999999999975
 30
0.0
 11
-48.99923075785132
 21
7.799999999999982
 31
0.0
  0
LINE
  5
5A8
330
4B9
100
AcDbEntity
  8
Visible Edges(ISO)
100
AcDbLine
 10
-32.9992307578513
 20
6.19999999999998
 30
0.0
 11
-32.9992307578513
 21
7.799999999999986
 31
0.0
  0
LINE
  5
5A9
330
4B9
100
AcDbEntity
  8
Visible Edges(ISO)
100
AcDbLine
 10
-32.9992307578513
 20
-7.800000000000088
 30
0.0
 11
-48.99923075785135
 21
-7.800000000000093
 31
0.0
  0
LINE
  5
5AA
330
4B9
100
AcDbEntity
  8
Visible Edges(ISO)
100
AcDbLine
 10
-32.99923075785131
 20
-6.20000000000008
 30
0.0
 11
-32.99923075785131
 21
-7.800000000000088
 31
0.0
  0
LINE
  5
5AB
330
4B9
100
AcDbEntity
  8
Visible Edges(ISO)
100
AcDbLine
 10
-48.99923075785132
 20
-6.200000000000081
 30
0.0
 11
-48.99923075785132
 21
-7.800000000000093
 31
0.0
  0
LINE
  5
5AC
330
4B9
100
AcDbEntity
  8
Visible Edges(ISO)
100
AcDbLine
 10
32.99923075785125
 20
7.799999999999986
 30
0.0
 11
48.99923075785132
 21
7.799999999999991
 31
0.0
  0
LINE
  5
5AD
330
4B9
100
AcDbEntity
  8
Visible Edges(ISO)
100
AcDbLine
 10
32.99923075785125
 20
6.199999999999986
 30
0.0
 11
32.99923075785125
 21
7.79999999999999
 31
0.0
  0
LINE
  5
5AE
330
4B9
100
AcDbEntity
  8
Visible Edges(ISO)
100
AcDbLine
 10
48.99923075785132
 20
6.199999999999991
 30
0.0
 11
48.99923075785132
 21
7.799999999999991
 31
0.0
  0
LINE
  5
5AF
330
4B9
100
AcDbEntity
  8
Visible Edges(ISO)
100
AcDbLine
 10
48.99923075785132
 20
-7.80000000000003
 30
0.0
 11
32.99923075785125
 21
-7.80000000000003
 31
0.0
  0
LINE
  5
5B0
330
4B9
100
AcDbEntity
  8
Visible Edges(ISO)
100
AcDbLine
 10
48.99923075785132
 20
-6.200000000000027
 30
0.0
 11
48.99923075785132
 21
-7.80000000000003
 31
0.0
  0
LINE
  5
5B1
330
4B9
100
AcDbEntity
  8
Visible Edges(ISO)
100
AcDbLine
 10
32.99923075785125
 20
-6.200000000000027
 30
0.0
 11
32.99923075785125
 21
-7.80000000000003
 31
0.0
  0
LINE
  5
5B2
330
4B9
100
AcDbEntity
  8
Visible Edges(ISO)
100
AcDbLine
 10
-94.99923075785112
 20
-26.43308749999996
 30
0.0
 11
-86.99923075785116
 21
-26.43308749999996
 31
0.0
  0
LINE
  5
5B3
330
4B9
100
AcDbEntity
  8
Visible Edges(ISO)
100
AcDbLine
 10
-87.76604325785116
 20
-27.19999999999995
 30
0.0
 11
-94.23241825785112
 21
-27.19999999999996
 31
0.0
  0
LINE
  5
5B4
330
4B9
100
AcDbEntity
  8
Visible Edges(ISO)
100
AcDbLine
 10
-94.23241825785114
 20
-27.19999999999996
 30
0.0
 11
-94.99923075785114
 21
-26.43308749999996
 31
0.0
  0
LINE
  5
5B5
330
4B9
100
AcDbEntity
  8
Visible Edges(ISO)
100
AcDbLine
 10
-87.76604325785116
 20
-27.19999999999995
 30
0.0
 11
-86.99923075785116
 21
-26.43308749999995
 31
0.0
  0
SPLINE
  5
5B6
330
4B9
100
AcDbEntity
  8
Visible Edges(ISO)
100
AcDbSpline
210
0.0
220
0.0
230
1.0
 70
    12
 71
     2
 72
     6
 73
     3
 74
     0
 42
0.000000001
 43
0.0000000001
 40
0.3807113172039051
 40
0.3807113172039051
 40
0.3807113172039051
 40
0.7614226344078103
 40
0.7614226344078103
 40
0.7614226344078103
 10
-85.37006563325236
 20
13.10009999999998
 30
0.0
 41
1.0
 10
-86.24090050865351
 20
13.10009999999998
 30
0.0
 41
1.037954849302032
 10
-87.24645400811864
 20
12.51954341639923
 30
0.0
 41
1.0
  0
LINE
  5
5B7
330
4B9
100
AcDbEntity
  8
Visible Edges(ISO)
100
AcDbLine
 10
-85.37006563325236
 20
13.10009999999996
 30
0.0
 11
-90.99923075785122
 21
13.10009999999996
 31
0.0
  0
SPLINE
  5
5B8
330
4B9
100
AcDbEntity
  8
Visible Edges(ISO)
100
AcDbSpline
210
0.0
220
0.0
230
1.0
 70
    12
 71
     2
 72
     6
 73
     3
 74
     0
 42
0.000000001
 43
0.0000000001
 40
0.0
 40
0.0
 40
0.0
 40
0.3807113172039049
 40
0.3807113172039049
 40
0.3807113172039049
 10
-87.24645400811869
 20
12.51954341639923
 30
0.0
 41
1.0
 10
-89.25756100704893
 20
13.10009999999998
 30
0.0
 41
1.037954849302044
 10
-90.99923075785119
 20
13.10009999999997
 30
0.0
 41
1.0
  0
SPLINE
  5
5B9
330
4B9
100
AcDbEntity
  8
Visible Edges(ISO)
100
AcDbSpline
210
0.0
220
0.0
230
1.0
 70
    12
 71
     2
 72
     6
 73
     3
 74
     0
 42
0.000000001
 43
0.0000000001
 40
0.0
 40
0.0
 40
0.0
 40
0.380711317203904
 40
0.380711317203904
 40
0.380711317203904
 10
-94.75200750758379
 20
12.51954341639922
 30
0.0
 41
1.0
 10
-95.75756100704893
 20
13.10009999999997
 30
0.0
 41
1.037954849302052
 10
-96.62839588245006
 20
13.10009999999997
 30
0.0
 41
1.0
  0
SPLINE
  5
5BA
330
4B9
100
AcDbEntity
  8
Visible Edges(ISO)
100
AcDbSpline
210
0.0
220
0.0
230
1.0
 70
    12
 71
     2
 72
     6
 73
     3
 74
     0
 42
0.000000001
 43
0.0000000001
 40
0.3807113172039049
 40
0.3807113172039049
 40
0.3807113172039049
 40
0.7614226344078097
 40
0.7614226344078097
 40
0.7614226344078097
 10
-90.99923075785119
 20
13.10009999999997
 30
0.0
 41
1.0
 10
-92.74090050865348
 20
13.10009999999998
 30
0.0
 41
1.037954849302014
 10
-94.75200750758371
 20
12.51954341639922
 30
0.0
 41
1.0
  0
LINE
  5
5BB
330
4B9
100
AcDbEntity
  8
Visible Edges(ISO)
100
AcDbLine
 10
-90.99923075785119
 20
13.10009999999996
 30
0.0
 11
-96.62839588245006
 21
13.10009999999995
 31
0.0
  0
LINE
  5
5BC
330
4B9
100
AcDbEntity
  8
Visible Edges(ISO)
100
AcDbLine
 10
-84.4992307578512
 20
13.10009999999996
 30
0.0
 11
-85.37006563325233
 21
13.10009999999996
 31
0.0
  0
SPLINE
  5
5BD
330
4B9
100
AcDbEntity
  8
Visible Edges(ISO)
100
AcDbSpline
210
0.0
220
0.0
230
1.0
 70
    12
 71
     2
 72
     6
 73
     3
 74
     0
 42
0.000000001
 43
0.0000000001
 40
0.0
 40
0.0
 40
0.0
 40
0.3807113172039051
 40
0.3807113172039051
 40
0.3807113172039051
 10
-83.49367725838613
 20
12.51954341639923
 30
0.0
 41
1.0
 10
-84.49923075785125
 20
13.10009999999998
 30
0.0
 41
1.037954849302045
 10
-85.37006563325236
 20
13.10009999999998
 30
0.0
 41
1.0
  0
SPLINE
  5
5BE
330
4B9
100
AcDbEntity
  8
Visible Edges(ISO)
100
AcDbSpline
210
0.0
220
0.0
230
1.0
 70
    12
 71
     2
 72
     6
 73
     3
 74
     0
 42
0.000000001
 43
0.0000000001
 40
0.380711317203904
 40
0.380711317203904
 40
0.380711317203904
 40
0.7614226344078081
 40
0.7614226344078081
 40
0.7614226344078081
 10
-96.62839588245006
 20
13.10009999999997
 30
0.0
 41
1.0
 10
-97.49923075785119
 20
13.10009999999997
 30
0.0
 41
1.037954849302052
 10
-98.5047842573163
 20
12.51954341639922
 30
0.0
 41
1.0
  0
LINE
  5
5BF
330
4B9
100
AcDbEntity
  8
Visible Edges(ISO)
100
AcDbLine
 10
-96.62839588245008
 20
13.10009999999995
 30
0.0
 11
-97.49923075785122
 21
13.10009999999995
 31
0.0
  0
LINE
  5
5C0
330
4B9
100
AcDbEntity
  8
Visible Edges(ISO)
100
AcDbLine
 10
-84.49923075785124
 20
13.10009999999997
 30
0.0
 11
-83.49367725838613
 21
12.51954341639923
 31
0.0
  0
LINE
  5
5C1
330
4B9
100
AcDbEntity
  8
Visible Edges(ISO)
100
AcDbLine
 10
-97.49923075785122
 20
13.10009999999995
 30
0.0
 11
-98.5047842573163
 21
12.51954341639922
 31
0.0
  0
LINE
  5
5C2
330
4B9
100
AcDbEntity
  8
Visible Edges(ISO)
100
AcDbLine
 10
-83.49367725838609
 20
8.400099999999975
 30
0.0
 11
-83.49367725838613
 21
12.51954341639923
 31
0.0
  0
LINE
  5
5C3
330
4B9
100
AcDbEntity
  8
Visible Edges(ISO)
100
AcDbLine
 10
-87.24645400811864
 20
8.400099999999971
 30
0.0
 11
-87.24645400811864
 21
12.51954341639923
 31
0.0
  0
LINE
  5
5C4
330
4B9
100
AcDbEntity
  8
Visible Edges(ISO)
100
AcDbLine
 10
-83.49367725838609
 20
8.400099999999975
 30
0.0
 11
-87.24645400811864
 21
8.400099999999971
 31
0.0
  0
LINE
  5
5C5
330
4B9
100
AcDbEntity
  8
Visible Edges(ISO)
100
AcDbLine
 10
-87.24645400811864
 20
8.400099999999971
 30
0.0
 11
-94.75200750758377
 21
8.400099999999964
 31
0.0
  0
LINE
  5
5C6
330
4B9
100
AcDbEntity
  8
Visible Edges(ISO)
100
AcDbLine
 10
-94.75200750758377
 20
8.400099999999964
 30
0.0
 11
-98.5047842573163
 21
8.400099999999962
 31
0.0
  0
LINE
  5
5C7
330
4B9
100
AcDbEntity
  8
Visible Edges(ISO)
100
AcDbLine
 10
-94.75200750758377
 20
8.400099999999964
 30
0.0
 11
-94.75200750758371
 21
12.51954341639922
 31
0.0
  0
LINE
  5
5C8
330
4B9
100
AcDbEntity
  8
Visible Edges(ISO)
100
AcDbLine
 10
-98.5047842573163
 20
8.400099999999962
 30
0.0
 11
-98.5047842573163
 21
12.51954341639922
 31
0.0
  0
LINE
  5
5C9
330
4B9
100
AcDbEntity
  8
Visible Edges(ISO)
100
AcDbLine
 10
-86.99923075785116
 20
-17.29999999999996
 30
0.0
 11
-86.99923075785116
 21
-26.43308749999995
 31
0.0
  0
LINE
  5
5CA
330
4B9
100
AcDbEntity
  8
Visible Edges(ISO)
100
AcDbLine
 10
-94.99923075785117
 20
-17.29999999999996
 30
0.0
 11
-94.99923075785114
 21
-26.43308749999996
 31
0.0
  0
LINE
  5
5CB
330
4B9
100
AcDbEntity
  8
Visible Edges(ISO)
100
AcDbLine
 10
-85.18423075785122
 20
8.400099999999975
 30
0.0
 11
-85.18423075785122
 21
7.799999999999977
 31
0.0
  0
LINE
  5
5CC
330
4B9
100
AcDbEntity
  8
Visible Edges(ISO)
100
AcDbLine
 10
-96.8142307578512
 20
8.400099999999968
 30
0.0
 11
-96.8142307578512
 21
7.799999999999967
 31
0.0
  0
LINE
  5
5CD
330
4B9
100
AcDbEntity
  8
Visible Edges(ISO)
100
AcDbLine
 10
86.99923075785125
 20
-26.43308749999992
 30
0.0
 11
94.99923075785122
 21
-26.43308749999992
 31
0.0
  0
LINE
  5
5CE
330
4B9
100
AcDbEntity
  8
Visible Edges(ISO)
100
AcDbLine
 10
94.23241825785124
 20
-27.19999999999993
 30
0.0
 11
87.76604325785125
 21
-27.19999999999993
 31
0.0
  0
LINE
  5
5CF
330
4B9
100
AcDbEntity
  8
Visible Edges(ISO)
100
AcDbLine
 10
87.76604325785125
 20
-27.19999999999993
 30
0.0
 11
86.99923075785125
 21
-26.43308749999992
 31
0.0
  0
LINE
  5
5D0
330
4B9
100
AcDbEntity
  8
Visible Edges(ISO)
100
AcDbLine
 10
94.23241825785124
 20
-27.19999999999993
 30
0.0
 11
94.99923075785122
 21
-26.43308749999992
 31
0.0
  0
SPLINE
  5
5D1
330
4B9
100
AcDbEntity
  8
Visible Edges(ISO)
100
AcDbSpline
210
0.0
220
0.0
230
1.0
 70
    12
 71
     2
 72
     6
 73
     3
 74
     0
 42
0.000000001
 43
0.0000000001
 40
0.3807113172039051
 40
0.3807113172039051
 40
0.3807113172039051
 40
0.7614226344078104
 40
0.7614226344078104
 40
0.7614226344078104
 10
85.37006563325242
 20
13.10010000000001
 30
0.0
 41
1.0
 10
84.49923075785127
 20
13.10010000000001
 30
0.0
 41
1.037954849302055
 10
83.49367725838616
 20
12.51954341639926
 30
0.0
 41
1.0
  0
LINE
  5
5D2
330
4B9
100
AcDbEntity
  8
Visible Edges(ISO)
100
AcDbLine
 10
85.37006563325236
 20
13.1001
 30
0.0
 11
84.49923075785125
 21
13.1001
 31
0.0
  0
SPLINE
  5
5D3
330
4B9
100
AcDbEntity
  8
Visible Edges(ISO)
100
AcDbSpline
210
0.0
220
0.0
230
1.0
 70
    12
 71
     2
 72
     6
 73
     3
 74
     0
 42
0.000000001
 43
0.0000000001
 40
0.0
 40
0.0
 40
0.0
 40
0.3807113172039045
 40
0.3807113172039045
 40
0.3807113172039045
 10
98.5047842573163
 20
12.51954341639926
 30
0.0
 41
1.0
 10
97.49923075785119
 20
13.10010000000001
 30
0.0
 41
1.037954849302052
 10
96.62839588245006
 20
13.10010000000001
 30
0.0
 41
1.0
  0
LINE
  5
5D4
330
4B9
100
AcDbEntity
  8
Visible Edges(ISO)
100
AcDbLine
 10
97.49923075785126
 20
13.1001
 30
0.0
 11
96.62839588245008
 21
13.1001
 31
0.0
  0
SPLINE
  5
5D5
330
4B9
100
AcDbEntity
  8
Visible Edges(ISO)
100
AcDbSpline
210
0.0
220
0.0
230
1.0
 70
    12
 71
     2
 72
     6
 73
     3
 74
     0
 42
0.000000001
 43
0.0000000001
 40
0.3807113172039045
 40
0.3807113172039045
 40
0.3807113172039045
 40
0.7614226344078091
 40
0.7614226344078091
 40
0.7614226344078091
 10
90.99923075785126
 20
13.10010000000001
 30
0.0
 41
1.0
 10
89.25756100704893
 20
13.10010000000001
 30
0.0
 41
1.037954849302044
 10
87.24645400811875
 20
12.51954341639926
 30
0.0
 41
1.0
  0
LINE
  5
5D6
330
4B9
100
AcDbEntity
  8
Visible Edges(ISO)
100
AcDbLine
 10
90.99923075785126
 20
13.1001
 30
0.0
 11
85.37006563325236
 21
13.1001
 31
0.0
  0
SPLINE
  5
5D7
330
4B9
100
AcDbEntity
  8
Visible Edges(ISO)
100
AcDbSpline
210
0.0
220
0.0
230
1.0
 70
    12
 71
     2
 72
     6
 73
     3
 74
     0
 42
0.000000001
 43
0.0000000001
 40
0.0
 40
0.0
 40
0.0
 40
0.3807113172039051
 40
0.3807113172039051
 40
0.3807113172039051
 10
87.24645400811864
 20
12.51954341639926
 30
0.0
 41
1.0
 10
86.24090050865357
 20
13.10010000000001
 30
0.0
 41
1.037954849302045
 10
85.37006563325242
 20
13.10010000000001
 30
0.0
 41
1.0
  0
SPLINE
  5
5D8
330
4B9
100
AcDbEntity
  8
Visible Edges(ISO)
100
AcDbSpline
210
0.0
220
0.0
230
1.0
 70
    12
 71
     2
 72
     6
 73
     3
 74
     0
 42
0.000000001
 43
0.0000000001
 40
0.0
 40
0.0
 40
0.0
 40
0.3807113172039045
 40
0.3807113172039045
 40
0.3807113172039045
 10
94.75200750758377
 20
12.51954341639926
 30
0.0
 41
1.0
 10
92.74090050865352
 20
13.10010000000001
 30
0.0
 41
1.037954849302042
 10
90.99923075785126
 20
13.10010000000001
 30
0.0
 41
1.0
  0
SPLINE
  5
5D9
330
4B9
100
AcDbEntity
  8
Visible Edges(ISO)
100
AcDbSpline
210
0.0
220
0.0
230
1.0
 70
    12
 71
     2
 72
     6
 73
     3
 74
     0
 42
0.000000001
 43
0.0000000001
 40
0.3807113172039045
 40
0.3807113172039045
 40
0.3807113172039045
 40
0.7614226344078091
 40
0.7614226344078091
 40
0.7614226344078091
 10
96.62839588245006
 20
13.10010000000001
 30
0.0
 41
1.0
 10
95.75756100704893
 20
13.10010000000001
 30
0.0
 41
1.037954849302034
 10
94.75200750758379
 20
12.51954341639926
 30
0.0
 41
1.0
  0
LINE
  5
5DA
330
4B9
100
AcDbEntity
  8
Visible Edges(ISO)
100
AcDbLine
 10
96.62839588245008
 20
13.1001
 30
0.0
 11
90.99923075785126
 21
13.1001
 31
0.0
  0
LINE
  5
5DB
330
4B9
100
AcDbEntity
  8
Visible Edges(ISO)
100
AcDbLine
 10
84.49923075785125
 20
13.1001
 30
0.0
 11
83.49367725838616
 21
12.51954341639926
 31
0.0
  0
LINE
  5
5DC
330
4B9
100
AcDbEntity
  8
Visible Edges(ISO)
100
AcDbLine
 10
97.49923075785122
 20
13.1001
 30
0.0
 11
98.5047842573163
 21
12.51954341639926
 31
0.0
  0
LINE
  5
5DD
330
4B9
100
AcDbEntity
  8
Visible Edges(ISO)
100
AcDbLine
 10
87.24645400811869
 20
8.400100000000001
 30
0.0
 11
87.24645400811875
 21
12.51954341639926
 31
0.0
  0
LINE
  5
5DE
330
4B9
100
AcDbEntity
  8
Visible Edges(ISO)
100
AcDbLine
 10
94.75200750758379
 20
8.400100000000001
 30
0.0
 11
87.24645400811869
 21
8.400100000000001
 31
0.0
  0
LINE
  5
5DF
330
4B9
100
AcDbEntity
  8
Visible Edges(ISO)
100
AcDbLine
 10
94.75200750758379
 20
8.400100000000001
 30
0.0
 11
94.75200750758379
 21
12.51954341639926
 31
0.0
  0
LINE
  5
5E0
330
4B9
100
AcDbEntity
  8
Visible Edges(ISO)
100
AcDbLine
 10
83.49367725838616
 20
8.400100000000005
 30
0.0
 11
83.49367725838616
 21
12.51954341639926
 31
0.0
  0
LINE
  5
5E1
330
4B9
100
AcDbEntity
  8
Visible Edges(ISO)
100
AcDbLine
 10
87.24645400811869
 20
8.400100000000001
 30
0.0
 11
83.49367725838616
 21
8.400100000000005
 31
0.0
  0
LINE
  5
5E2
330
4B9
100
AcDbEntity
  8
Visible Edges(ISO)
100
AcDbLine
 10
98.50478425731637
 20
8.400100000000001
 30
0.0
 11
94.75200750758379
 21
8.400100000000001
 31
0.0
  0
LINE
  5
5E3
330
4B9
100
AcDbEntity
  8
Visible Edges(ISO)
100
AcDbLine
 10
98.50478425731637
 20
8.400100000000001
 30
0.0
 11
98.5047842573163
 21
12.51954341639926
 31
0.0
  0
LINE
  5
5E4
330
4B9
100
AcDbEntity
  8
Visible Edges(ISO)
100
AcDbLine
 10
94.99923075785122
 20
-17.29999999999994
 30
0.0
 11
94.99923075785122
 21
-26.43308749999992
 31
0.0
  0
LINE
  5
5E5
330
4B9
100
AcDbEntity
  8
Visible Edges(ISO)
100
AcDbLine
 10
86.99923075785125
 20
-17.29999999999994
 30
0.0
 11
86.99923075785125
 21
-26.43308749999992
 31
0.0
  0
LINE
  5
5E6
330
4B9
100
AcDbEntity
  8
Visible Edges(ISO)
100
AcDbLine
 10
96.81423075785122
 20
8.400100000000009
 30
0.0
 11
96.81423075785122
 21
7.800000000000006
 31
0.0
  0
LINE
  5
5E7
330
4B9
100
AcDbEntity
  8
Visible Edges(ISO)
100
AcDbLine
 10
85.18423075785127
 20
8.400100000000005
 30
0.0
 11
85.18423075785127
 21
7.800000000000008
 31
0.0
  0
LINE
  5
5E8
330
4B9
100
AcDbEntity
  8
Visible Edges(ISO)
100
AcDbLine
 10
-44.99923075785135
 20
-26.43308750000013
 30
0.0
 11
-36.99923075785135
 21
-26.43308750000013
 31
0.0
  0
LINE
  5
5E9
330
4B9
100
AcDbEntity
  8
Visible Edges(ISO)
100
AcDbLine
 10
-37.76604325785135
 20
-27.20000000000013
 30
0.0
 11
-44.23241825785135
 21
-27.20000000000013
 31
0.0
  0
LINE
  5
5EA
330
4B9
100
AcDbEntity
  8
Visible Edges(ISO)
100
AcDbLine
 10
-44.23241825785135
 20
-27.20000000000013
 30
0.0
 11
-44.99923075785135
 21
-26.43308750000013
 31
0.0
  0
LINE
  5
5EB
330
4B9
100
AcDbEntity
  8
Visible Edges(ISO)
100
AcDbLine
 10
-37.76604325785135
 20
-27.20000000000013
 30
0.0
 11
-36.99923075785135
 21
-26.43308750000013
 31
0.0
  0
SPLINE
  5
5EC
330
4B9
100
AcDbEntity
  8
Visible Edges(ISO)
100
AcDbSpline
210
0.0
220
0.0
230
1.0
 70
    12
 71
     2
 72
     6
 73
     3
 74
     0
 42
0.000000001
 43
0.0000000001
 40
0.3807113172039051
 40
0.3807113172039051
 40
0.3807113172039051
 40
0.7614226344078104
 40
0.7614226344078104
 40
0.7614226344078104
 10
-46.62839588245015
 20
13.10010000000002
 30
0.0
 41
1.0
 10
-47.49923075785129
 20
13.10010000000002
 30
0.0
 41
1.037954849302055
 10
-48.50478425731643
 20
12.51954341639926
 30
0.0
 41
1.0
  0
LINE
  5
5ED
330
4B9
100
AcDbEntity
  8
Visible Edges(ISO)
100
AcDbLine
 10
-46.62839588245019
 20
13.1001
 30
0.0
 11
-47.49923075785132
 21
13.1001
 31
0.0
  0
SPLINE
  5
5EE
330
4B9
100
AcDbEntity
  8
Visible Edges(ISO)
100
AcDbSpline
210
0.0
220
0.0
230
1.0
 70
    12
 71
     2
 72
     6
 73
     3
 74
     0
 42
0.000000001
 43
0.0000000001
 40
0.0
 40
0.0
 40
0.0
 40
0.3807113172039045
 40
0.3807113172039045
 40
0.3807113172039045
 10
-33.49367725838619
 20
12.51954341639926
 30
0.0
 41
1.0
 10
-34.49923075785132
 20
13.10010000000002
 30
0.0
 41
1.037954849302052
 10
-35.37006563325246
 20
13.10010000000002
 30
0.0
 41
1.0
  0
LINE
  5
5EF
330
4B9
100
AcDbEntity
  8
Visible Edges(ISO)
100
AcDbLine
 10
-34.49923075785128
 20
13.1001
 30
0.0
 11
-35.37006563325243
 21
13.1001
 31
0.0
  0
SPLINE
  5
5F0
330
4B9
100
AcDbEntity
  8
Visible Edges(ISO)
100
AcDbSpline
210
0.0
220
0.0
230
1.0
 70
    12
 71
     2
 72
     6
 73
     3
 74
     0
 42
0.000000001
 43
0.0000000001
 40
0.3807113172039045
 40
0.3807113172039045
 40
0.3807113172039045
 40
0.7614226344078091
 40
0.7614226344078091
 40
0.7614226344078091
 10
-40.99923075785131
 20
13.10010000000002
 30
0.0
 41
1.0
 10
-42.7409005086536
 20
13.10010000000002
 30
0.0
 41
1.037954849302044
 10
-44.75200750758385
 20
12.51954341639926
 30
0.0
 41
1.0
  0
LINE
  5
5F1
330
4B9
100
AcDbEntity
  8
Visible Edges(ISO)
100
AcDbLine
 10
-40.99923075785129
 20
13.1001
 30
0.0
 11
-46.62839588245019
 21
13.1001
 31
0.0
  0
SPLINE
  5
5F2
330
4B9
100
AcDbEntity
  8
Visible Edges(ISO)
100
AcDbSpline
210
0.0
220
0.0
230
1.0
 70
    12
 71
     2
 72
     6
 73
     3
 74
     0
 42
0.000000001
 43
0.0000000001
 40
0.0
 40
0.0
 40
0.0
 40
0.3807113172039051
 40
0.3807113172039051
 40
0.3807113172039051
 10
-44.75200750758388
 20
12.51954341639926
 30
0.0
 41
1.0
 10
-45.75756100704899
 20
13.10010000000002
 30
0.0
 41
1.037954849302045
 10
-46.62839588245015
 20
13.10010000000002
 30
0.0
 41
1.0
  0
SPLINE
  5
5F3
330
4B9
100
AcDbEntity
  8
Visible Edges(ISO)
100
AcDbSpline
210
0.0
220
0.0
230
1.0
 70
    12
 71
     2
 72
     6
 73
     3
 74
     0
 42
0.000000001
 43
0.0000000001
 40
0.0
 40
0.0
 40
0.0
 40
0.3807113172039045
 40
0.3807113172039045
 40
0.3807113172039045
 10
-37.24645400811879
 20
12.51954341639926
 30
0.0
 41
1.0
 10
-39.25756100704902
 20
13.10010000000002
 30
0.0
 41
1.037954849302042
 10
-40.99923075785131
 20
13.10010000000002
 30
0.0
 41
1.0
  0
SPLINE
  5
5F4
330
4B9
100
AcDbEntity
  8
Visible Edges(ISO)
100
AcDbSpline
210
0.0
220
0.0
230
1.0
 70
    12
 71
     2
 72
     6
 73
     3
 74
     0
 42
0.000000001
 43
0.0000000001
 40
0.3807113172039045
 40
0.3807113172039045
 40
0.3807113172039045
 40
0.7614226344078091
 40
0.7614226344078091
 40
0.7614226344078091
 10
-35.37006563325246
 20
13.10010000000002
 30
0.0
 41
1.0
 10
-36.24090050865361
 20
13.10010000000002
 30
0.0
 41
1.037954849302034
 10
-37.24645400811873
 20
12.51954341639926
 30
0.0
 41
1.0
  0
LINE
  5
5F5
330
4B9
100
AcDbEntity
  8
Visible Edges(ISO)
100
AcDbLine
 10
-35.37006563325243
 20
13.1001
 30
0.0
 11
-40.99923075785129
 21
13.1001
 31
0.0
  0
LINE
  5
5F6
330
4B9
100
AcDbEntity
  8
Visible Edges(ISO)
100
AcDbLine
 10
-47.49923075785132
 20
13.1001
 30
0.0
 11
-48.50478425731643
 21
12.51954341639925
 31
0.0
  0
LINE
  5
5F7
330
4B9
100
AcDbEntity
  8
Visible Edges(ISO)
100
AcDbLine
 10
-34.49923075785128
 20
13.1001
 30
0.0
 11
-33.49367725838619
 21
12.51954341639926
 31
0.0
  0
LINE
  5
5F8
330
4B9
100
AcDbEntity
  8
Visible Edges(ISO)
100
AcDbLine
 10
-44.75200750758388
 20
8.400099999999984
 30
0.0
 11
-44.75200750758385
 21
12.51954341639926
 31
0.0
  0
LINE
  5
5F9
330
4B9
100
AcDbEntity
  8
Visible Edges(ISO)
100
AcDbLine
 10
-37.24645400811875
 20
8.400099999999984
 30
0.0
 11
-44.75200750758388
 21
8.400099999999984
 31
0.0
  0
LINE
  5
5FA
330
4B9
100
AcDbEntity
  8
Visible Edges(ISO)
100
AcDbLine
 10
-37.24645400811875
 20
8.400099999999984
 30
0.0
 11
-37.24645400811873
 21
12.51954341639926
 31
0.0
  0
LINE
  5
5FB
330
4B9
100
AcDbEntity
  8
Visible Edges(ISO)
100
AcDbLine
 10
-48.50478425731644
 20
8.400099999999984
 30
0.0
 11
-48.50478425731643
 21
12.51954341639926
 31
0.0
  0
LINE
  5
5FC
330
4B9
100
AcDbEntity
  8
Visible Edges(ISO)
100
AcDbLine
 10
-44.75200750758388
 20
8.400099999999984
 30
0.0
 11
-48.50478425731644
 21
8.400099999999984
 31
0.0
  0
LINE
  5
5FD
330
4B9
100
AcDbEntity
  8
Visible Edges(ISO)
100
AcDbLine
 10
-33.49367725838618
 20
8.400099999999985
 30
0.0
 11
-37.24645400811875
 21
8.400099999999984
 31
0.0
  0
LINE
  5
5FE
330
4B9
100
AcDbEntity
  8
Visible Edges(ISO)
100
AcDbLine
 10
-33.49367725838618
 20
8.400099999999985
 30
0.0
 11
-33.49367725838619
 21
12.51954341639926
 31
0.0
  0
LINE
  5
5FF
330
4B9
100
AcDbEntity
  8
Visible Edges(ISO)
100
AcDbLine
 10
-36.99923075785135
 20
-17.30000000000018
 30
0.0
 11
-36.99923075785135
 21
-26.43308750000013
 31
0.0
  0
LINE
  5
600
330
4B9
100
AcDbEntity
  8
Visible Edges(ISO)
100
AcDbLine
 10
-44.99923075785134
 20
-17.30000000000019
 30
0.0
 11
-44.99923075785135
 21
-26.43308750000013
 31
0.0
  0
LINE
  5
601
330
4B9
100
AcDbEntity
  8
Visible Edges(ISO)
100
AcDbLine
 10
-35.18423075785131
 20
8.400099999999987
 30
0.0
 11
-35.18423075785131
 21
7.799999999999985
 31
0.0
  0
LINE
  5
602
330
4B9
100
AcDbEntity
  8
Visible Edges(ISO)
100
AcDbLine
 10
-46.81423075785132
 20
8.400099999999984
 30
0.0
 11
-46.81423075785132
 21
7.799999999999982
 31
0.0
  0
LINE
  5
603
330
4B9
100
AcDbEntity
  8
Visible Edges(ISO)
100
AcDbLine
 10
36.99923075785128
 20
-26.43308750000001
 30
0.0
 11
44.99923075785129
 21
-26.43308750000001
 31
0.0
  0
LINE
  5
604
330
4B9
100
AcDbEntity
  8
Visible Edges(ISO)
100
AcDbLine
 10
44.23241825785129
 20
-27.20000000000002
 30
0.0
 11
37.76604325785128
 21
-27.20000000000002
 31
0.0
  0
LINE
  5
605
330
4B9
100
AcDbEntity
  8
Visible Edges(ISO)
100
AcDbLine
 10
37.76604325785128
 20
-27.20000000000002
 30
0.0
 11
36.99923075785128
 21
-26.43308750000001
 31
0.0
  0
LINE
  5
606
330
4B9
100
AcDbEntity
  8
Visible Edges(ISO)
100
AcDbLine
 10
44.23241825785129
 20
-27.20000000000002
 30
0.0
 11
44.99923075785129
 21
-26.43308750000002
 31
0.0
  0
SPLINE
  5
607
330
4B9
100
AcDbEntity
  8
Visible Edges(ISO)
100
AcDbSpline
210
0.0
220
0.0
230
1.0
 70
    12
 71
     2
 72
     6
 73
     3
 74
     0
 42
0.000000001
 43
0.0000000001
 40
0.3807113172039051
 40
0.3807113172039051
 40
0.3807113172039051
 40
0.7614226344078104
 40
0.7614226344078104
 40
0.7614226344078104
 10
35.37006563325243
 20
13.1001
 30
0.0
 41
1.0
 10
34.49923075785129
 20
13.10010000000001
 30
0.0
 41
1.037954849302055
 10
33.49367725838616
 20
12.51954341639925
 30
0.0
 41
1.0
  0
LINE
  5
608
330
4B9
100
AcDbEntity
  8
Visible Edges(ISO)
100
AcDbLine
 10
35.3700656332524
 20
13.10009999999999
 30
0.0
 11
34.49923075785124
 21
13.10009999999999
 31
0.0
  0
SPLINE
  5
609
330
4B9
100
AcDbEntity
  8
Visible Edges(ISO)
100
AcDbSpline
210
0.0
220
0.0
230
1.0
 70
    12
 71
     2
 72
     6
 73
     3
 74
     0
 42
0.000000001
 43
0.0000000001
 40
0.0
 40
0.0
 40
0.0
 40
0.3807113172039045
 40
0.3807113172039045
 40
0.3807113172039045
 10
48.5047842573164
 20
12.51954341639925
 30
0.0
 41
1.0
 10
47.49923075785129
 20
13.10010000000001
 30
0.0
 41
1.037954849302052
 10
46.62839588245015
 20
13.1001
 30
0.0
 41
1.0
  0
LINE
  5
60A
330
4B9
100
AcDbEntity
  8
Visible Edges(ISO)
100
AcDbLine
 10
47.49923075785132
 20
13.10009999999999
 30
0.0
 11
46.62839588245017
 21
13.10009999999999
 31
0.0
  0
SPLINE
  5
60B
330
4B9
100
AcDbEntity
  8
Visible Edges(ISO)
100
AcDbSpline
210
0.0
220
0.0
230
1.0
 70
    12
 71
     2
 72
     6
 73
     3
 74
     0
 42
0.000000001
 43
0.0000000001
 40
0.3807113172039045
 40
0.3807113172039045
 40
0.3807113172039045
 40
0.7614226344078091
 40
0.7614226344078091
 40
0.7614226344078091
 10
40.99923075785127
 20
13.1001
 30
0.0
 41
1.0
 10
39.25756100704899
 20
13.1001
 30
0.0
 41
1.037954849302044
 10
37.24645400811875
 20
12.51954341639925
 30
0.0
 41
1.0
  0
LINE
  5
60C
330
4B9
100
AcDbEntity
  8
Visible Edges(ISO)
100
AcDbLine
 10
40.99923075785127
 20
13.10009999999999
 30
0.0
 11
35.3700656332524
 21
13.10009999999999
 31
0.0
  0
SPLINE
  5
60D
330
4B9
100
AcDbEntity
  8
Visible Edges(ISO)
100
AcDbSpline
210
0.0
220
0.0
230
1.0
 70
    12
 71
     2
 72
     6
 73
     3
 74
     0
 42
0.000000001
 43
0.0000000001
 40
0.0
 40
0.0
 40
0.0
 40
0.3807113172039051
 40
0.3807113172039051
 40
0.3807113172039051
 10
37.24645400811871
 20
12.51954341639925
 30
0.0
 41
1.0
 10
36.24090050865358
 20
13.10010000000001
 30
0.0
 41
1.037954849302045
 10
35.37006563325243
 20
13.1001
 30
0.0
 41
1.0
  0
SPLINE
  5
60E
330
4B9
100
AcDbEntity
  8
Visible Edges(ISO)
100
AcDbSpline
210
0.0
220
0.0
230
1.0
 70
    12
 71
     2
 72
     6
 73
     3
 74
     0
 42
0.000000001
 43
0.0000000001
 40
0.0
 40
0.0
 40
0.0
 40
0.3807113172039045
 40
0.3807113172039045
 40
0.3807113172039045
 10
44.75200750758381
 20
12.51954341639925
 30
0.0
 41
1.0
 10
42.74090050865358
 20
13.1001
 30
0.0
 41
1.037954849302042
 10
40.99923075785127
 20
13.1001
 30
0.0
 41
1.0
  0
SPLINE
  5
60F
330
4B9
100
AcDbEntity
  8
Visible Edges(ISO)
100
AcDbSpline
210
0.0
220
0.0
230
1.0
 70
    12
 71
     2
 72
     6
 73
     3
 74
     0
 42
0.000000001
 43
0.0000000001
 40
0.3807113172039045
 40
0.3807113172039045
 40
0.3807113172039045
 40
0.7614226344078091
 40
0.7614226344078091
 40
0.7614226344078091
 10
46.62839588245015
 20
13.1001
 30
0.0
 41
1.0
 10
45.75756100704899
 20
13.10010000000001
 30
0.0
 41
1.037954849302034
 10
44.75200750758388
 20
12.51954341639925
 30
0.0
 41
1.0
  0
LINE
  5
610
330
4B9
100
AcDbEntity
  8
Visible Edges(ISO)
100
AcDbLine
 10
46.62839588245017
 20
13.10009999999999
 30
0.0
 11
40.99923075785127
 21
13.10009999999999
 31
0.0
  0
LINE
  5
611
330
4B9
100
AcDbEntity
  8
Visible Edges(ISO)
100
AcDbLine
 10
34.49923075785125
 20
13.10009999999999
 30
0.0
 11
33.49367725838616
 21
12.51954341639925
 31
0.0
  0
LINE
  5
612
330
4B9
100
AcDbEntity
  8
Visible Edges(ISO)
100
AcDbLine
 10
47.49923075785132
 20
13.10009999999999
 30
0.0
 11
48.5047842573164
 21
12.51954341639925
 31
0.0
  0
LINE
  5
613
330
4B9
100
AcDbEntity
  8
Visible Edges(ISO)
100
AcDbLine
 10
37.24645400811872
 20
8.400099999999987
 30
0.0
 11
37.24645400811875
 21
12.51954341639925
 31
0.0
  0
LINE
  5
614
330
4B9
100
AcDbEntity
  8
Visible Edges(ISO)
100
AcDbLine
 10
44.75200750758385
 20
8.400099999999987
 30
0.0
 11
37.24645400811871
 21
8.400099999999987
 31
0.0
  0
LINE
  5
615
330
4B9
100
AcDbEntity
  8
Visible Edges(ISO)
100
AcDbLine
 10
44.75200750758385
 20
8.400099999999987
 30
0.0
 11
44.75200750758387
 21
12.51954341639925
 31
0.0
  0
LINE
  5
616
330
4B9
100
AcDbEntity
  8
Visible Edges(ISO)
100
AcDbLine
 10
33.49367725838614
 20
8.400099999999987
 30
0.0
 11
33.49367725838616
 21
12.51954341639925
 31
0.0
  0
LINE
  5
617
330
4B9
100
AcDbEntity
  8
Visible Edges(ISO)
100
AcDbLine
 10
37.24645400811872
 20
8.400099999999987
 30
0.0
 11
33.49367725838614
 21
8.400099999999987
 31
0.0
  0
LINE
  5
618
330
4B9
100
AcDbEntity
  8
Visible Edges(ISO)
100
AcDbLine
 10
48.50478425731644
 20
8.400099999999987
 30
0.0
 11
44.75200750758385
 21
8.400099999999987
 31
0.0
  0
LINE
  5
619
330
4B9
100
AcDbEntity
  8
Visible Edges(ISO)
100
AcDbLine
 10
48.50478425731644
 20
8.400099999999987
 30
0.0
 11
48.5047842573164
 21
12.51954341639925
 31
0.0
  0
LINE
  5
61A
330
4B9
100
AcDbEntity
  8
Visible Edges(ISO)
100
AcDbLine
 10
44.99923075785129
 20
-17.30000000000004
 30
0.0
 11
44.99923075785129
 21
-26.43308750000002
 31
0.0
  0
LINE
  5
61B
330
4B9
100
AcDbEntity
  8
Visible Edges(ISO)
100
AcDbLine
 10
36.99923075785128
 20
-17.30000000000004
 30
0.0
 11
36.99923075785128
 21
-26.43308750000001
 31
0.0
  0
LINE
  5
61C
330
4B9
100
AcDbEntity
  8
Visible Edges(ISO)
100
AcDbLine
 10
46.81423075785128
 20
8.400099999999991
 30
0.0
 11
46.81423075785128
 21
7.799999999999991
 31
0.0
  0
LINE
  5
61D
330
4B9
100
AcDbEntity
  8
Visible Edges(ISO)
100
AcDbLine
 10
35.18423075785128
 20
8.400099999999991
 30
0.0
 11
35.18423075785128
 21
7.799999999999991
 31
0.0
  0
LINE
  5
61E
330
4B9
100
AcDbEntity
  8
Visible Edges(ISO)
100
AcDbLine
 10
105.9992307578512
 20
-0.1999999999999864
 30
0.0
 11
105.9992307578512
 21
0.2000000000000128
 31
0.0
  0
LINE
  5
61F
330
4B9
100
AcDbEntity
  8
Visible Edges(ISO)
100
AcDbLine
 10
105.9992307578512
 20
0.2000000000000128
 30
0.0
 11
45.99923075785131
 21
0.1999999999999949
 31
0.0
  0
LINE
  5
620
330
4B9
100
AcDbEntity
  8
Visible Edges(ISO)
100
AcDbLine
 10
45.99923075785131
 20
-0.2000000000000043
 30
0.0
 11
45.99923075785131
 21
0.1999999999999949
 31
0.0
  0
LINE
  5
621
330
4B9
100
AcDbEntity
  8
Visible Edges(ISO)
100
AcDbLine
 10
105.9992307578512
 20
-0.1999999999999864
 30
0.0
 11
45.99923075785131
 21
-0.2000000000000043
 31
0.0
  0
LINE
  5
622
330
4B9
100
AcDbEntity
  8
Visible Edges(ISO)
100
AcDbLine
 10
-105.9992307578512
 20
0.1999999999999055
 30
0.0
 11
-105.9992307578512
 21
-0.2000000000000941
 31
0.0
  0
LINE
  5
623
330
4B9
100
AcDbEntity
  8
Visible Edges(ISO)
100
AcDbLine
 10
-105.9992307578512
 20
-0.2000000000000941
 30
0.0
 11
-45.99923075785134
 21
-0.2000000000000401
 31
0.0
  0
LINE
  5
624
330
4B9
100
AcDbEntity
  8
Visible Edges(ISO)
100
AcDbLine
 10
-45.99923075785134
 20
0.1999999999999595
 30
0.0
 11
-45.99923075785134
 21
-0.2000000000000401
 31
0.0
  0
LINE
  5
625
330
4B9
100
AcDbEntity
  8
Visible Edges(ISO)
100
AcDbLine
 10
-105.9992307578512
 20
0.1999999999999055
 30
0.0
 11
-45.99923075785134
 21
0.1999999999999595
 31
0.0
  0
SPLINE
  5
626
330
4B9
100
AcDbEntity
  8
Visible Edges(ISO)
100
AcDbSpline
210
0.0
220
0.0
230
1.0
 70
    28
 71
     2
 72
     6
 73
     3
 74
     0
 42
0.000000001
 43
0.0000000001
 40
0.4685677750201906
 40
0.4685677750201906
 40
0.4685677750201906
 40
0.9371355500403808
 40
0.9371355500403808
 40
0.9371355500403808
 10
-73.17914661978488
 20
42.24999999999988
 30
0.0
 41
1.0
 10
-74.25094338950936
 20
40.39359353944885
 30
0.0
 41
1.037954849302026
 10
-75.48854769654337
 20
38.24999999999992
 30
0.0
 41
1.0
  0
ARC
  5
627
330
4B9
100
AcDbEntity
  8
Visible Edges(ISO)
100
AcDbCircle
 10
-80.10734985006036
 20
46.24999999999985
 30
0.0
 40
8.000000000000017
100
AcDbArc
 50
270.0
 51
330.0000000000001
  0
SPLINE
  5
628
330
4B9
100
AcDbEntity
  8
Visible Edges(ISO)
100
AcDbSpline
210
0.0
220
0.0
230
1.0
 70
    28
 71
     2
 72
     6
 73
     3
 74
     0
 42
0.000000001
 43
0.0000000001
 40
0.0
 40
0.0
 40
0.0
 40
0.4685677750201912
 40
0.4685677750201912
 40
0.4685677750201912
 10
-75.48854769654342
 20
38.24999999999988
 30
0.0
 41
1.0
 10
-77.96375631061142
 20
38.24999999999988
 30
0.0
 41
1.037954849302042
 10
-80.10734985006036
 20
38.24999999999988
 30
0.0
 41
1.0
  0
SPLINE
  5
629
330
4B9
100
AcDbEntity
  8
Visible Edges(ISO)
100
AcDbSpline
210
0.0
220
0.0
230
1.0
 70
    28
 71
     2
 72
     6
 73
     3
 74
     0
 42
0.000000001
 43
0.0000000001
 40
0.0
 40
0.0
 40
0.0
 40
0.4685677750201906
 40
0.4685677750201906
 40
0.4685677750201906
 10
-84.72615200357735
 20
38.24999999999992
 30
0.0
 41
1.0
 10
-85.96375631061139
 20
40.39359353944885
 30
0.0
 41
1.037954849302045
 10
-87.03555308033584
 20
42.24999999999988
 30
0.0
 41
1.0
  0
SPLINE
  5
62A
330
4B9
100
AcDbEntity
  8
Visible Edges(ISO)
100
AcDbSpline
210
0.0
220
0.0
230
1.0
 70
    28
 71
     2
 72
     6
 73
     3
 74
     0
 42
0.000000001
 43
0.0000000001
 40
0.4685677750201912
 40
0.4685677750201912
 40
0.4685677750201912
 40
0.9371355500403815
 40
0.9371355500403815
 40
0.9371355500403815
 10
-80.10734985006036
 20
38.24999999999988
 30
0.0
 41
1.0
 10
-82.25094338950933
 20
38.2499999999999
 30
0.0
 41
1.037954849302045
 10
-84.72615200357735
 20
38.2499999999999
 30
0.0
 41
1.0
  0
ARC
  5
62B
330
4B9
100
AcDbEntity
  8
Visible Edges(ISO)
100
AcDbCircle
 10
-80.10734985006036
 20
46.24999999999988
 30
0.0
 40
8.000000000000021
100
AcDbArc
 50
210.0
 51
270.0
  0
SPLINE
  5
62C
330
4B9
100
AcDbEntity
  8
Visible Edges(ISO)
100
AcDbSpline
210
0.0
220
0.0
230
1.0
 70
    28
 71
     2
 72
     6
 73
     3
 74
     0
 42
0.000000001
 43
0.0000000001
 40
0.4685677750201914
 40
0.4685677750201914
 40
0.4685677750201914
 40
0.9371355500403824
 40
0.9371355500403824
 40
0.9371355500403824
 10
-73.17914661978488
 20
50.24999999999987
 30
0.0
 41
1.0
 10
-72.1073498500604
 20
48.39359353944885
 30
0.0
 41
1.03795484930205
 10
-70.86974554302639
 20
46.24999999999989
 30
0.0
 41
1.0
  0
ARC
  5
62D
330
4B9
100
AcDbEntity
  8
Visible Edges(ISO)
100
AcDbCircle
 10
-80.10734985006036
 20
46.24999999999985
 30
0.0
 40
8.000000000000017
100
AcDbArc
 50
329.9999999999999
 51
29.99999999999996
  0
SPLINE
  5
62E
330
4B9
100
AcDbEntity
  8
Visible Edges(ISO)
100
AcDbSpline
210
0.0
220
0.0
230
1.0
 70
    28
 71
     2
 72
     6
 73
     3
 74
     0
 42
0.000000001
 43
0.0000000001
 40
0.0
 40
0.0
 40
0.0
 40
0.4685677750201906
 40
0.4685677750201906
 40
0.4685677750201906
 10
-70.86974554302639
 20
46.24999999999984
 30
0.0
 41
1.0
 10
-72.1073498500604
 20
44.10640646055088
 30
0.0
 41
1.03795484930204
 10
-73.17914661978488
 20
42.24999999999988
 30
0.0
 41
1.0
  0
SPLINE
  5
62F
330
4B9
100
AcDbEntity
  8
Visible Edges(ISO)
100
AcDbSpline
210
0.0
220
0.0
230
1.0
 70
    28
 71
     2
 72
     6
 73
     3
 74
     0
 42
0.000000001
 43
0.0000000001
 40
0.0
 40
0.0
 40
0.0
 40
0.4685677750201906
 40
0.4685677750201906
 40
0.4685677750201906
 10
-89.34495415709434
 20
46.24999999999992
 30
0.0
 41
1.0
 10
-88.10734985006034
 20
48.39359353944889
 30
0.0
 41
1.037954849302046
 10
-87.03555308033584
 20
50.24999999999987
 30
0.0
 41
1.0
  0
SPLINE
  5
630
330
4B9
100
AcDbEntity
  8
Visible Edges(ISO)
100
AcDbSpline
210
0.0
220
0.0
230
1.0
 70
    28
 71
     2
 72
     6
 73
     3
 74
     0
 42
0.000000001
 43
0.0000000001
 40
0.4685677750201906
 40
0.4685677750201906
 40
0.4685677750201906
 40
0.9371355500403812
 40
0.9371355500403812
 40
0.9371355500403812
 10
-87.03555308033584
 20
42.24999999999988
 30
0.0
 41
1.0
 10
-88.10734985006034
 20
44.10640646055089
 30
0.0
 41
1.037954849302032
 10
-89.34495415709434
 20
46.24999999999984
 30
0.0
 41
1.0
  0
ARC
  5
631
330
4B9
100
AcDbEntity
  8
Visible Edges(ISO)
100
AcDbCircle
 10
-80.10734985006036
 20
46.24999999999985
 30
0.0
 40
8.000000000000017
100
AcDbArc
 50
150.0
 51
210.0
  0
SPLINE
  5
632
330
4B9
100
AcDbEntity
  8
Visible Edges(ISO)
100
AcDbSpline
210
0.0
220
0.0
230
1.0
 70
    28
 71
     2
 72
     6
 73
     3
 74
     0
 42
0.000000001
 43
0.0000000001
 40
0.4685677750201906
 40
0.4685677750201906
 40
0.4685677750201906
 40
0.9371355500403812
 40
0.9371355500403812
 40
0.9371355500403812
 10
-80.10734985006036
 20
54.24999999999986
 30
0.0
 41
1.0
 10
-77.96375631061142
 20
54.24999999999986
 30
0.0
 41
1.037954849302032
 10
-75.4885476965434
 20
54.24999999999986
 30
0.0
 41
1.0
  0
ARC
  5
633
330
4B9
100
AcDbEntity
  8
Visible Edges(ISO)
100
AcDbCircle
 10
-80.10734985006036
 20
46.24999999999985
 30
0.0
 40
8.000000000000012
100
AcDbArc
 50
30.00000000000005
 51
90.0
  0
SPLINE
  5
634
330
4B9
100
AcDbEntity
  8
Visible Edges(ISO)
100
AcDbSpline
210
0.0
220
0.0
230
1.0
 70
    28
 71
     2
 72
     6
 73
     3
 74
     0
 42
0.000000001
 43
0.0000000001
 40
0.0
 40
0.0
 40
0.0
 40
0.4685677750201914
 40
0.4685677750201914
 40
0.4685677750201914
 10
-75.48854769654337
 20
54.24999999999982
 30
0.0
 41
1.0
 10
-74.25094338950936
 20
52.10640646055087
 30
0.0
 41
1.037954849302059
 10
-73.17914661978488
 20
50.24999999999987
 30
0.0
 41
1.0
  0
SPLINE
  5
635
330
4B9
100
AcDbEntity
  8
Visible Edges(ISO)
100
AcDbSpline
210
0.0
220
0.0
230
1.0
 70
    28
 71
     2
 72
     6
 73
     3
 74
     0
 42
0.000000001
 43
0.0000000001
 40
0.0
 40
0.0
 40
0.0
 40
0.4685677750201906
 40
0.4685677750201906
 40
0.4685677750201906
 10
-84.72615200357735
 20
54.24999999999986
 30
0.0
 41
1.0
 10
-82.25094338950933
 20
54.24999999999986
 30
0.0
 41
1.037954849302034
 10
-80.10734985006036
 20
54.24999999999986
 30
0.0
 41
1.0
  0
SPLINE
  5
636
330
4B9
100
AcDbEntity
  8
Visible Edges(ISO)
100
AcDbSpline
210
0.0
220
0.0
230
1.0
 70
    28
 71
     2
 72
     6
 73
     3
 74
     0
 42
0.000000001
 43
0.0000000001
 40
0.4685677750201906
 40
0.4685677750201906
 40
0.4685677750201906
 40
0.9371355500403806
 40
0.9371355500403806
 40
0.9371355500403806
 10
-87.03555308033584
 20
50.24999999999987
 30
0.0
 41
1.0
 10
-85.96375631061139
 20
52.10640646055087
 30
0.0
 41
1.037954849302059
 10
-84.72615200357735
 20
54.24999999999982
 30
0.0
 41
1.0
  0
ARC
  5
637
330
4B9
100
AcDbEntity
  8
Visible Edges(ISO)
100
AcDbCircle
 10
-80.10734985006036
 20
46.24999999999985
 30
0.0
 40
8.000000000000019
100
AcDbArc
 50
90.0
 51
150.0
  0
SPLINE
  5
638
330
4B9
100
AcDbEntity
  8
Visible Edges(ISO)
100
AcDbSpline
210
0.0
220
0.0
230
1.0
 70
    28
 71
     2
 72
     6
 73
     3
 74
     0
 42
0.000000001
 43
0.0000000001
 40
0.4685677750201906
 40
0.4685677750201906
 40
0.4685677750201906
 40
0.9371355500403808
 40
0.9371355500403808
 40
0.9371355500403808
 10
-73.1791466197849
 20
-42.24999999999988
 30
0.0
 41
1.0
 10
-72.1073498500604
 20
-44.10640646055087
 30
0.0
 41
1.037954849302026
 10
-70.86974554302641
 20
-46.24999999999984
 30
0.0
 41
1.0
  0
ARC
  5
639
330
4B9
100
AcDbEntity
  8
Visible Edges(ISO)
100
AcDbCircle
 10
-80.10734985006036
 20
-46.24999999999984
 30
0.0
 40
8.000000000000017
100
AcDbArc
 50
329.9999999999998
 51
29.99999999999991
  0
SPLINE
  5
63A
330
4B9
100
AcDbEntity
  8
Visible Edges(ISO)
100
AcDbSpline
210
0.0
220
0.0
230
1.0
 70
    28
 71
     2
 72
     6
 73
     3
 74
     0
 42
0.000000001
 43
0.0000000001
 40
0.0
 40
0.0
 40
0.0
 40
0.4685677750201912
 40
0.4685677750201912
 40
0.4685677750201912
 10
-70.86974554302641
 20
-46.24999999999989
 30
0.0
 41
1.0
 10
-72.1073498500604
 20
-48.39359353944885
 30
0.0
 41
1.037954849302042
 10
-73.1791466197849
 20
-50.24999999999986
 30
0.0
 41
1.0
  0
SPLINE
  5
63B
330
4B9
100
AcDbEntity
  8
Visible Edges(ISO)
100
AcDbSpline
210
0.0
220
0.0
230
1.0
 70
    28
 71
     2
 72
     6
 73
     3
 74
     0
 42
0.000000001
 43
0.0000000001
 40
0.0
 40
0.0
 40
0.0
 40
0.4685677750201906
 40
0.4685677750201906
 40
0.4685677750201906
 10
-75.48854769654344
 20
-54.24999999999985
 30
0.0
 41
1.0
 10
-77.96375631061144
 20
-54.24999999999985
 30
0.0
 41
1.037954849302045
 10
-80.1073498500604
 20
-54.24999999999985
 30
0.0
 41
1.0
  0
SPLINE
  5
63C
330
4B9
100
AcDbEntity
  8
Visible Edges(ISO)
100
AcDbSpline
210
0.0
220
0.0
230
1.0
 70
    28
 71
     2
 72
     6
 73
     3
 74
     0
 42
0.000000001
 43
0.0000000001
 40
0.4685677750201912
 40
0.4685677750201912
 40
0.4685677750201912
 40
0.9371355500403815
 40
0.9371355500403815
 40
0.9371355500403815
 10
-73.1791466197849
 20
-50.24999999999986
 30
0.0
 41
1.0
 10
-74.25094338950938
 20
-52.10640646055086
 30
0.0
 41
1.037954849302045
 10
-75.48854769654339
 20
-54.24999999999982
 30
0.0
 41
1.0
  0
ARC
  5
63D
330
4B9
100
AcDbEntity
  8
Visible Edges(ISO)
100
AcDbCircle
 10
-80.1073498500604
 20
-46.24999999999984
 30
0.0
 40
8.000000000000021
100
AcDbArc
 50
270.0
 51
330.0
  0
SPLINE
  5
63E
330
4B9
100
AcDbEntity
  8
Visible Edges(ISO)
100
AcDbSpline
210
0.0
220
0.0
230
1.0
 70
    28
 71
     2
 72
     6
 73
     3
 74
     0
 42
0.000000001
 43
0.0000000001
 40
0.4685677750201914
 40
0.4685677750201914
 40
0.4685677750201914
 40
0.9371355500403824
 40
0.9371355500403824
 40
0.9371355500403824
 10
-80.1073498500604
 20
-38.24999999999988
 30
0.0
 41
1.0
 10
-77.96375631061144
 20
-38.24999999999988
 30
0.0
 41
1.03795484930205
 10
-75.48854769654342
 20
-38.24999999999988
 30
0.0
 41
1.0
  0
ARC
  5
63F
330
4B9
100
AcDbEntity
  8
Visible Edges(ISO)
100
AcDbCircle
 10
-80.1073498500604
 20
-46.24999999999984
 30
0.0
 40
8.000000000000017
100
AcDbArc
 50
29.99999999999984
 51
89.99999999999987
  0
SPLINE
  5
640
330
4B9
100
AcDbEntity
  8
Visible Edges(ISO)
100
AcDbSpline
210
0.0
220
0.0
230
1.0
 70
    28
 71
     2
 72
     6
 73
     3
 74
     0
 42
0.000000001
 43
0.0000000001
 40
0.0
 40
0.0
 40
0.0
 40
0.4685677750201906
 40
0.4685677750201906
 40
0.4685677750201906
 10
-75.48854769654337
 20
-38.24999999999992
 30
0.0
 41
1.0
 10
-74.25094338950938
 20
-40.39359353944885
 30
0.0
 41
1.03795484930204
 10
-73.1791466197849
 20
-42.24999999999988
 30
0.0
 41
1.0
  0
SPLINE
  5
641
330
4B9
100
AcDbEntity
  8
Visible Edges(ISO)
100
AcDbSpline
210
0.0
220
0.0
230
1.0
 70
    28
 71
     2
 72
     6
 73
     3
 74
     0
 42
0.000000001
 43
0.0000000001
 40
0.0
 40
0.0
 40
0.0
 40
0.4685677750201906
 40
0.4685677750201906
 40
0.4685677750201906
 10
-84.72615200357742
 20
-54.24999999999982
 30
0.0
 41
1.0
 10
-85.96375631061141
 20
-52.10640646055082
 30
0.0
 41
1.037954849302046
 10
-87.03555308033589
 20
-50.24999999999985
 30
0.0
 41
1.0
  0
SPLINE
  5
642
330
4B9
100
AcDbEntity
  8
Visible Edges(ISO)
100
AcDbSpline
210
0.0
220
0.0
230
1.0
 70
    28
 71
     2
 72
     6
 73
     3
 74
     0
 42
0.000000001
 43
0.0000000001
 40
0.4685677750201906
 40
0.4685677750201906
 40
0.4685677750201906
 40
0.9371355500403812
 40
0.9371355500403812
 40
0.9371355500403812
 10
-80.1073498500604
 20
-54.24999999999985
 30
0.0
 41
1.0
 10
-82.25094338950937
 20
-54.24999999999985
 30
0.0
 41
1.037954849302032
 10
-84.72615200357735
 20
-54.24999999999982
 30
0.0
 41
1.0
  0
ARC
  5
643
330
4B9
100
AcDbEntity
  8
Visible Edges(ISO)
100
AcDbCircle
 10
-80.1073498500604
 20
-46.24999999999984
 30
0.0
 40
8.000000000000017
100
AcDbArc
 50
209.9999999999999
 51
269.9999999999999
  0
SPLINE
  5
644
330
4B9
100
AcDbEntity
  8
Visible Edges(ISO)
100
AcDbSpline
210
0.0
220
0.0
230
1.0
 70
    28
 71
     2
 72
     6
 73
     3
 74
     0
 42
0.000000001
 43
0.0000000001
 40
0.4685677750201906
 40
0.4685677750201906
 40
0.4685677750201906
 40
0.9371355500403812
 40
0.9371355500403812
 40
0.9371355500403812
 10
-87.03555308033589
 20
-42.24999999999986
 30
0.0
 41
1.0
 10
-85.96375631061141
 20
-40.39359353944885
 30
0.0
 41
1.037954849302032
 10
-84.72615200357742
 20
-38.2499999999999
 30
0.0
 41
1.0
  0
ARC
  5
645
330
4B9
100
AcDbEntity
  8
Visible Edges(ISO)
100
AcDbCircle
 10
-80.1073498500604
 20
-46.24999999999984
 30
0.0
 40
8.000000000000012
100
AcDbArc
 50
90.0
 51
150.0
  0
SPLINE
  5
646
330
4B9
100
AcDbEntity
  8
Visible Edges(ISO)
100
AcDbSpline
210
0.0
220
0.0
230
1.0
 70
    28
 71
     2
 72
     6
 73
     3
 74
     0
 42
0.000000001
 43
0.0000000001
 40
0.0
 40
0.0
 40
0.0
 40
0.4685677750201914
 40
0.4685677750201914
 40
0.4685677750201914
 10
-84.72615200357735
 20
-38.24999999999988
 30
0.0
 41
1.0
 10
-82.25094338950937
 20
-38.24999999999988
 30
0.0
 41
1.037954849302059
 10
-80.1073498500604
 20
-38.24999999999988
 30
0.0
 41
1.0
  0
SPLINE
  5
647
330
4B9
100
AcDbEntity
  8
Visible Edges(ISO)
100
AcDbSpline
210
0.0
220
0.0
230
1.0
 70
    28
 71
     2
 72
     6
 73
     3
 74
     0
 42
0.000000001
 43
0.0000000001
 40
0.0
 40
0.0
 40
0.0
 40
0.4685677750201906
 40
0.4685677750201906
 40
0.4685677750201906
 10
-89.34495415709438
 20
-46.24999999999981
 30
0.0
 41
1.0
 10
-88.10734985006037
 20
-44.10640646055086
 30
0.0
 41
1.037954849302034
 10
-87.03555308033589
 20
-42.24999999999986
 30
0.0
 41
1.0
  0
SPLINE
  5
648
330
4B9
100
AcDbEntity
  8
Visible Edges(ISO)
100
AcDbSpline
210
0.0
220
0.0
230
1.0
 70
    28
 71
     2
 72
     6
 73
     3
 74
     0
 42
0.000000001
 43
0.0000000001
 40
0.4685677750201906
 40
0.4685677750201906
 40
0.4685677750201906
 40
0.9371355500403806
 40
0.9371355500403806
 40
0.9371355500403806
 10
-87.03555308033589
 20
-50.24999999999985
 30
0.0
 41
1.0
 10
-88.10734985006037
 20
-48.39359353944885
 30
0.0
 41
1.037954849302059
 10
-89.34495415709438
 20
-46.24999999999988
 30
0.0
 41
1.0
  0
ARC
  5
649
330
4B9
100
AcDbEntity
  8
Visible Edges(ISO)
100
AcDbCircle
 10
-80.1073498500604
 20
-46.24999999999984
 30
0.0
 40
8.000000000000019
100
AcDbArc
 50
150.0
 51
210.0
  0
SPLINE
  5
64A
330
4B9
100
AcDbEntity
  8
Visible Edges(ISO)
100
AcDbSpline
210
0.0
220
0.0
230
1.0
 70
    28
 71
     2
 72
     6
 73
     3
 74
     0
 42
0.000000001
 43
0.0000000001
 40
0.4685677750201906
 40
0.4685677750201906
 40
0.4685677750201906
 40
0.9371355500403808
 40
0.9371355500403808
 40
0.9371355500403808
 10
-0.0000000000000675
 20
-84.49999999999979
 30
0.0
 41
1.0
 10
2.143593539448888
 20
-84.49999999999979
 30
0.0
 41
1.037954849302026
 10
4.618802153516893
 20
-84.49999999999979
 30
0.0
 41
1.0
  0
ARC
  5
64B
330
4B9
100
AcDbEntity
  8
Visible Edges(ISO)
100
AcDbCircle
 10
-0.0000000000000774
 20
-92.49999999999978
 30
0.0
 40
8.000000000000017
100
AcDbArc
 50
29.99999999999996
 51
89.99999999999996
  0
SPLINE
  5
64C
330
4B9
100
AcDbEntity
  8
Visible Edges(ISO)
100
AcDbSpline
210
0.0
220
0.0
230
1.0
 70
    28
 71
     2
 72
     6
 73
     3
 74
     0
 42
0.000000001
 43
0.0000000001
 40
0.0
 40
0.0
 40
0.0
 40
0.4685677750201912
 40
0.4685677750201912
 40
0.4685677750201912
 10
4.618802153516947
 20
-84.49999999999983
 30
0.0
 41
1.0
 10
5.856406460550943
 20
-86.64359353944879
 30
0.0
 41
1.037954849302042
 10
6.928203230275423
 20
-88.49999999999978
 30
0.0
 41
1.0
  0
SPLINE
  5
64D
330
4B9
100
AcDbEntity
  8
Visible Edges(ISO)
100
AcDbSpline
210
0.0
220
0.0
230
1.0
 70
    28
 71
     2
 72
     6
 73
     3
 74
     0
 42
0.000000001
 43
0.0000000001
 40
0.0
 40
0.0
 40
0.0
 40
0.4685677750201906
 40
0.4685677750201906
 40
0.4685677750201906
 10
9.237604307033899
 20
-92.49999999999984
 30
0.0
 41
1.0
 10
7.999999999999896
 20
-94.64359353944876
 30
0.0
 41
1.037954849302045
 10
6.928203230275411
 20
-96.49999999999977
 30
0.0
 41
1.0
  0
SPLINE
  5
64E
330
4B9
100
AcDbEntity
  8
Visible Edges(ISO)
100
AcDbSpline
210
0.0
220
0.0
230
1.0
 70
    28
 71
     2
 72
     6
 73
     3
 74
     0
 42
0.000000001
 43
0.0000000001
 40
0.4685677750201912
 40
0.4685677750201912
 40
0.4685677750201912
 40
0.9371355500403815
 40
0.9371355500403815
 40
0.9371355500403815
 10
6.928203230275423
 20
-88.49999999999978
 30
0.0
 41
1.0
 10
7.999999999999902
 20
-90.3564064605508
 30
0.0
 41
1.037954849302045
 10
9.237604307033899
 20
-92.49999999999976
 30
0.0
 41
1.0
  0
ARC
  5
64F
330
4B9
100
AcDbEntity
  8
Visible Edges(ISO)
100
AcDbCircle
 10
-0.0000000000000826
 20
-92.49999999999978
 30
0.0
 40
8.000000000000021
100
AcDbArc
 50
330.0000000000001
 51
29.99999999999996
  0
SPLINE
  5
650
330
4B9
100
AcDbEntity
  8
Visible Edges(ISO)
100
AcDbSpline
210
0.0
220
0.0
230
1.0
 70
    28
 71
     2
 72
     6
 73
     3
 74
     0
 42
0.000000001
 43
0.0000000001
 40
0.4685677750201914
 40
0.4685677750201914
 40
0.4685677750201914
 40
0.9371355500403824
 40
0.9371355500403824
 40
0.9371355500403824
 10
-6.92820323027557
 20
-88.49999999999978
 30
0.0
 41
1.0
 10
-5.856406460551085
 20
-86.64359353944876
 30
0.0
 41
1.03795484930205
 10
-4.618802153517083
 20
-84.49999999999981
 30
0.0
 41
1.0
  0
ARC
  5
651
330
4B9
100
AcDbEntity
  8
Visible Edges(ISO)
100
AcDbCircle
 10
-0.0000000000000803
 20
-92.49999999999978
 30
0.0
 40
8.000000000000017
100
AcDbArc
 50
89.99999999999984
 51
150.0
  0
SPLINE
  5
652
330
4B9
100
AcDbEntity
  8
Visible Edges(ISO)
100
AcDbSpline
210
0.0
220
0.0
230
1.0
 70
    28
 71
     2
 72
     6
 73
     3
 74
     0
 42
0.000000001
 43
0.0000000001
 40
0.0
 40
0.0
 40
0.0
 40
0.4685677750201906
 40
0.4685677750201906
 40
0.4685677750201906
 10
-4.61880215351703
 20
-84.49999999999979
 30
0.0
 41
1.0
 10
-2.143593539449033
 20
-84.49999999999979
 30
0.0
 41
1.03795484930204
 10
-0.0000000000000675
 20
-84.49999999999979
 30
0.0
 41
1.0
  0
SPLINE
  5
653
330
4B9
100
AcDbEntity
  8
Visible Edges(ISO)
100
AcDbSpline
210
0.0
220
0.0
230
1.0
 70
    28
 71
     2
 72
     6
 73
     3
 74
     0
 42
0.000000001
 43
0.0000000001
 40
0.0
 40
0.0
 40
0.0
 40
0.4685677750201906
 40
0.4685677750201906
 40
0.4685677750201906
 10
4.618802153516871
 20
-100.4999999999997
 30
0.0
 41
1.0
 10
2.143593539448861
 20
-100.4999999999997
 30
0.0
 41
1.037954849302046
 10
-0.0000000000000881
 20
-100.4999999999997
 30
0.0
 41
1.0
  0
SPLINE
  5
654
330
4B9
100
AcDbEntity
  8
Visible Edges(ISO)
100
AcDbSpline
210
0.0
220
0.0
230
1.0
 70
    28
 71
     2
 72
     6
 73
     3
 74
     0
 42
0.000000001
 43
0.0000000001
 40
0.4685677750201906
 40
0.4685677750201906
 40
0.4685677750201906
 40
0.9371355500403812
 40
0.9371355500403812
 40
0.9371355500403812
 10
6.928203230275411
 20
-96.49999999999977
 30
0.0
 41
1.0
 10
5.856406460550927
 20
-98.35640646055077
 30
0.0
 41
1.037954849302032
 10
4.618802153516925
 20
-100.4999999999997
 30
0.0
 41
1.0
  0
ARC
  5
655
330
4B9
100
AcDbEntity
  8
Visible Edges(ISO)
100
AcDbCircle
 10
-0.0000000000000796
 20
-92.49999999999978
 30
0.0
 40
8.000000000000019
100
AcDbArc
 50
269.9999999999999
 51
329.9999999999999
  0
SPLINE
  5
656
330
4B9
100
AcDbEntity
  8
Visible Edges(ISO)
100
AcDbSpline
210
0.0
220
0.0
230
1.0
 70
    28
 71
     2
 72
     6
 73
     3
 74
     0
 42
0.000000001
 43
0.0000000001
 40
0.4685677750201906
 40
0.4685677750201906
 40
0.4685677750201906
 40
0.9371355500403812
 40
0.9371355500403812
 40
0.9371355500403812
 10
-6.928203230275579
 20
-96.49999999999977
 30
0.0
 41
1.0
 10
-8.000000000000062
 20
-94.64359353944876
 30
0.0
 41
1.037954849302032
 10
-9.237604307034061
 20
-92.49999999999978
 30
0.0
 41
1.0
  0
ARC
  5
657
330
4B9
100
AcDbEntity
  8
Visible Edges(ISO)
100
AcDbCircle
 10
-0.0000000000000816
 20
-92.49999999999978
 30
0.0
 40
8.000000000000017
100
AcDbArc
 50
150.0000000000001
 51
210.0000000000001
  0
SPLINE
  5
658
330
4B9
100
AcDbEntity
  8
Visible Edges(ISO)
100
AcDbSpline
210
0.0
220
0.0
230
1.0
 70
    28
 71
     2
 72
     6
 73
     3
 74
     0
 42
0.000000001
 43
0.0000000001
 40
0.0
 40
0.0
 40
0.0
 40
0.4685677750201914
 40
0.4685677750201914
 40
0.4685677750201914
 10
-9.237604307034061
 20
-92.49999999999976
 30
0.0
 41
1.0
 10
-8.000000000000055
 20
-90.35640646055078
 30
0.0
 41
1.037954849302059
 10
-6.92820323027557
 20
-88.49999999999978
 30
0.0
 41
1.0
  0
SPLINE
  5
659
330
4B9
100
AcDbEntity
  8
Visible Edges(ISO)
100
AcDbSpline
210
0.0
220
0.0
230
1.0
 70
    28
 71
     2
 72
     6
 73
     3
 74
     0
 42
0.000000001
 43
0.0000000001
 40
0.0
 40
0.0
 40
0.0
 40
0.4685677750201906
 40
0.4685677750201906
 40
0.4685677750201906
 10
-4.618802153517106
 20
-100.4999999999997
 30
0.0
 41
1.0
 10
-5.856406460551101
 20
-98.35640646055077
 30
0.0
 41
1.037954849302034
 10
-6.928203230275579
 20
-96.49999999999977
 30
0.0
 41
1.0
  0
SPLINE
  5
65A
330
4B9
100
AcDbEntity
  8
Visible Edges(ISO)
100
AcDbSpline
210
0.0
220
0.0
230
1.0
 70
    28
 71
     2
 72
     6
 73
     3
 74
     0
 42
0.000000001
 43
0.0000000001
 40
0.4685677750201906
 40
0.4685677750201906
 40
0.4685677750201906
 40
0.9371355500403806
 40
0.9371355500403806
 40
0.9371355500403806
 10
-0.0000000000000881
 20
-100.4999999999997
 30
0.0
 41
1.0
 10
-2.143593539449045
 20
-100.4999999999997
 30
0.0
 41
1.037954849302059
 10
-4.618802153517052
 20
-100.4999999999997
 30
0.0
 41
1.0
  0
ARC
  5
65B
330
4B9
100
AcDbEntity
  8
Visible Edges(ISO)
100
AcDbCircle
 10
-0.0000000000000801
 20
-92.49999999999978
 30
0.0
 40
8.000000000000019
100
AcDbArc
 50
210.0
 51
269.9999999999999
  0
SPLINE
  5
65C
330
4B9
100
AcDbEntity
  8
Visible Edges(ISO)
100
AcDbSpline
210
0.0
220
0.0
230
1.0
 70
    28
 71
     2
 72
     6
 73
     3
 74
     0
 42
0.000000001
 43
0.0000000001
 40
0.4685677750201906
 40
0.4685677750201906
 40
0.4685677750201906
 40
0.9371355500403808
 40
0.9371355500403808
 40
0.9371355500403808
 10
73.17914661978484
 20
-42.24999999999989
 30
0.0
 41
1.0
 10
74.25094338950933
 20
-40.39359353944891
 30
0.0
 41
1.037954849302026
 10
75.48854769654329
 20
-38.24999999999995
 30
0.0
 41
1.0
  0
ARC
  5
65D
330
4B9
100
AcDbEntity
  8
Visible Edges(ISO)
100
AcDbCircle
 10
80.10734985006033
 20
-46.24999999999992
 30
0.0
 40
8.000000000000017
100
AcDbArc
 50
89.99999999999987
 51
149.9999999999999
  0
SPLINE
  5
65E
330
4B9
100
AcDbEntity
  8
Visible Edges(ISO)
100
AcDbSpline
210
0.0
220
0.0
230
1.0
 70
    28
 71
     2
 72
     6
 73
     3
 74
     0
 42
0.000000001
 43
0.0000000001
 40
0.0
 40
0.0
 40
0.0
 40
0.4685677750201912
 40
0.4685677750201912
 40
0.4685677750201912
 10
75.48854769654337
 20
-38.24999999999992
 30
0.0
 41
1.0
 10
77.96375631061137
 20
-38.24999999999992
 30
0.0
 41
1.037954849302042
 10
80.10734985006033
 20
-38.24999999999992
 30
0.0
 41
1.0
  0
SPLINE
  5
65F
330
4B9
100
AcDbEntity
  8
Visible Edges(ISO)
100
AcDbSpline
210
0.0
220
0.0
230
1.0
 70
    28
 71
     2
 72
     6
 73
     3
 74
     0
 42
0.000000001
 43
0.0000000001
 40
0.0
 40
0.0
 40
0.0
 40
0.4685677750201906
 40
0.4685677750201906
 40
0.4685677750201906
 10
84.72615200357735
 20
-38.24999999999997
 30
0.0
 41
1.0
 10
85.96375631061134
 20
-40.39359353944891
 30
0.0
 41
1.037954849302045
 10
87.03555308033584
 20
-42.24999999999993
 30
0.0
 41
1.0
  0
SPLINE
  5
660
330
4B9
100
AcDbEntity
  8
Visible Edges(ISO)
100
AcDbSpline
210
0.0
220
0.0
230
1.0
 70
    28
 71
     2
 72
     6
 73
     3
 74
     0
 42
0.000000001
 43
0.0000000001
 40
0.4685677750201912
 40
0.4685677750201912
 40
0.4685677750201912
 40
0.9371355500403815
 40
0.9371355500403815
 40
0.9371355500403815
 10
80.10734985006033
 20
-38.24999999999992
 30
0.0
 41
1.0
 10
82.25094338950929
 20
-38.24999999999993
 30
0.0
 41
1.037954849302045
 10
84.72615200357729
 20
-38.24999999999993
 30
0.0
 41
1.0
  0
ARC
  5
661
330
4B9
100
AcDbEntity
  8
Visible Edges(ISO)
100
AcDbCircle
 10
80.10734985006033
 20
-46.24999999999992
 30
0.0
 40
8.000000000000023
100
AcDbArc
 50
30.00000000000007
 51
90.0
  0
SPLINE
  5
662
330
4B9
100
AcDbEntity
  8
Visible Edges(ISO)
100
AcDbSpline
210
0.0
220
0.0
230
1.0
 70
    28
 71
     2
 72
     6
 73
     3
 74
     0
 42
0.000000001
 43
0.0000000001
 40
0.4685677750201914
 40
0.4685677750201914
 40
0.4685677750201914
 40
0.9371355500403824
 40
0.9371355500403824
 40
0.9371355500403824
 10
73.17914661978484
 20
-50.24999999999991
 30
0.0
 41
1.0
 10
72.10734985006036
 20
-48.39359353944889
 30
0.0
 41
1.03795484930205
 10
70.86974554302634
 20
-46.24999999999992
 30
0.0
 41
1.0
  0
ARC
  5
663
330
4B9
100
AcDbEntity
  8
Visible Edges(ISO)
100
AcDbCircle
 10
80.10734985006033
 20
-46.24999999999992
 30
0.0
 40
8.000000000000012
100
AcDbArc
 50
149.9999999999998
 51
209.9999999999999
  0
SPLINE
  5
664
330
4B9
100
AcDbEntity
  8
Visible Edges(ISO)
100
AcDbSpline
210
0.0
220
0.0
230
1.0
 70
    28
 71
     2
 72
     6
 73
     3
 74
     0
 42
0.000000001
 43
0.0000000001
 40
0.0
 40
0.0
 40
0.0
 40
0.4685677750201906
 40
0.4685677750201906
 40
0.4685677750201906
 10
70.86974554302637
 20
-46.24999999999985
 30
0.0
 41
1.0
 10
72.10734985006036
 20
-44.10640646055091
 30
0.0
 41
1.03795484930204
 10
73.17914661978484
 20
-42.24999999999989
 30
0.0
 41
1.0
  0
SPLINE
  5
665
330
4B9
100
AcDbEntity
  8
Visible Edges(ISO)
100
AcDbSpline
210
0.0
220
0.0
230
1.0
 70
    28
 71
     2
 72
     6
 73
     3
 74
     0
 42
0.000000001
 43
0.0000000001
 40
0.0
 40
0.0
 40
0.0
 40
0.4685677750201906
 40
0.4685677750201906
 40
0.4685677750201906
 10
89.34495415709433
 20
-46.24999999999995
 30
0.0
 41
1.0
 10
88.10734985006027
 20
-48.39359353944892
 30
0.0
 41
1.037954849302046
 10
87.03555308033584
 20
-50.24999999999991
 30
0.0
 41
1.0
  0
SPLINE
  5
666
330
4B9
100
AcDbEntity
  8
Visible Edges(ISO)
100
AcDbSpline
210
0.0
220
0.0
230
1.0
 70
    28
 71
     2
 72
     6
 73
     3
 74
     0
 42
0.000000001
 43
0.0000000001
 40
0.4685677750201906
 40
0.4685677750201906
 40
0.4685677750201906
 40
0.9371355500403812
 40
0.9371355500403812
 40
0.9371355500403812
 10
87.03555308033584
 20
-42.24999999999993
 30
0.0
 41
1.0
 10
88.10734985006027
 20
-44.10640646055091
 30
0.0
 41
1.037954849302032
 10
89.34495415709433
 20
-46.24999999999989
 30
0.0
 41
1.0
  0
ARC
  5
667
330
4B9
100
AcDbEntity
  8
Visible Edges(ISO)
100
AcDbCircle
 10
80.10734985006033
 20
-46.24999999999992
 30
0.0
 40
8.000000000000019
100
AcDbArc
 50
330.0
 51
29.99999999999996
  0
SPLINE
  5
668
330
4B9
100
AcDbEntity
  8
Visible Edges(ISO)
100
AcDbSpline
210
0.0
220
0.0
230
1.0
 70
    28
 71
     2
 72
     6
 73
     3
 74
     0
 42
0.000000001
 43
0.0000000001
 40
0.4685677750201906
 40
0.4685677750201906
 40
0.4685677750201906
 40
0.9371355500403812
 40
0.9371355500403812
 40
0.9371355500403812
 10
80.10734985006033
 20
-54.2499999999999
 30
0.0
 41
1.0
 10
77.96375631061137
 20
-54.2499999999999
 30
0.0
 41
1.037954849302032
 10
75.48854769654337
 20
-54.2499999999999
 30
0.0
 41
1.0
  0
ARC
  5
669
330
4B9
100
AcDbEntity
  8
Visible Edges(ISO)
100
AcDbCircle
 10
80.10734985006033
 20
-46.24999999999992
 30
0.0
 40
8.000000000000012
100
AcDbArc
 50
210.0
 51
270.0
  0
SPLINE
  5
66A
330
4B9
100
AcDbEntity
  8
Visible Edges(ISO)
100
AcDbSpline
210
0.0
220
0.0
230
1.0
 70
    28
 71
     2
 72
     6
 73
     3
 74
     0
 42
0.000000001
 43
0.0000000001
 40
0.0
 40
0.0
 40
0.0
 40
0.4685677750201914
 40
0.4685677750201914
 40
0.4685677750201914
 10
75.48854769654329
 20
-54.24999999999986
 30
0.0
 41
1.0
 10
74.25094338950933
 20
-52.1064064605509
 30
0.0
 41
1.037954849302059
 10
73.17914661978484
 20
-50.24999999999991
 30
0.0
 41
1.0
  0
SPLINE
  5
66B
330
4B9
100
AcDbEntity
  8
Visible Edges(ISO)
100
AcDbSpline
210
0.0
220
0.0
230
1.0
 70
    28
 71
     2
 72
     6
 73
     3
 74
     0
 42
0.000000001
 43
0.0000000001
 40
0.0
 40
0.0
 40
0.0
 40
0.4685677750201906
 40
0.4685677750201906
 40
0.4685677750201906
 10
84.72615200357729
 20
-54.2499999999999
 30
0.0
 41
1.0
 10
82.25094338950929
 20
-54.2499999999999
 30
0.0
 41
1.037954849302034
 10
80.10734985006033
 20
-54.2499999999999
 30
0.0
 41
1.0
  0
SPLINE
  5
66C
330
4B9
100
AcDbEntity
  8
Visible Edges(ISO)
100
AcDbSpline
210
0.0
220
0.0
230
1.0
 70
    28
 71
     2
 72
     6
 73
     3
 74
     0
 42
0.000000001
 43
0.0000000001
 40
0.4685677750201906
 40
0.4685677750201906
 40
0.4685677750201906
 40
0.9371355500403806
 40
0.9371355500403806
 40
0.9371355500403806
 10
87.03555308033584
 20
-50.24999999999991
 30
0.0
 41
1.0
 10
85.96375631061134
 20
-52.1064064605509
 30
0.0
 41
1.037954849302059
 10
84.72615200357735
 20
-54.24999999999986
 30
0.0
 41
1.0
  0
ARC
  5
66D
330
4B9
100
AcDbEntity
  8
Visible Edges(ISO)
100
AcDbCircle
 10
80.10734985006033
 20
-46.24999999999992
 30
0.0
 40
8.000000000000019
100
AcDbArc
 50
270.0
 51
330.0000000000001
  0
SPLINE
  5
66E
330
4B9
100
AcDbEntity
  8
Visible Edges(ISO)
100
AcDbSpline
210
0.0
220
0.0
230
1.0
 70
    28
 71
     2
 72
     6
 73
     3
 74
     0
 42
0.000000001
 43
0.0000000001
 40
0.4685677750201906
 40
0.4685677750201906
 40
0.4685677750201906
 40
0.9371355500403808
 40
0.9371355500403808
 40
0.9371355500403808
 10
73.17914661978486
 20
42.24999999999981
 30
0.0
 41
1.0
 10
72.10734985006038
 20
44.10640646055082
 30
0.0
 41
1.037954849302026
 10
70.86974554302639
 20
46.24999999999977
 30
0.0
 41
1.0
  0
ARC
  5
66F
330
4B9
100
AcDbEntity
  8
Visible Edges(ISO)
100
AcDbCircle
 10
80.10734985006036
 20
46.2499999999998
 30
0.0
 40
8.000000000000012
100
AcDbArc
 50
149.9999999999999
 51
209.9999999999999
  0
SPLINE
  5
670
330
4B9
100
AcDbEntity
  8
Visible Edges(ISO)
100
AcDbSpline
210
0.0
220
0.0
230
1.0
 70
    28
 71
     2
 72
     6
 73
     3
 74
     0
 42
0.000000001
 43
0.0000000001
 40
0.0
 40
0.0
 40
0.0
 40
0.4685677750201912
 40
0.4685677750201912
 40
0.4685677750201912
 10
70.86974554302639
 20
46.24999999999984
 30
0.0
 41
1.0
 10
72.10734985006038
 20
48.39359353944878
 30
0.0
 41
1.037954849302042
 10
73.17914661978488
 20
50.2499999999998
 30
0.0
 41
1.0
  0
SPLINE
  5
671
330
4B9
100
AcDbEntity
  8
Visible Edges(ISO)
100
AcDbSpline
210
0.0
220
0.0
230
1.0
 70
    28
 71
     2
 72
     6
 73
     3
 74
     0
 42
0.000000001
 43
0.0000000001
 40
0.0
 40
0.0
 40
0.0
 40
0.4685677750201906
 40
0.4685677750201906
 40
0.4685677750201906
 10
75.4885476965434
 20
54.24999999999979
 30
0.0
 41
1.0
 10
77.96375631061142
 20
54.24999999999979
 30
0.0
 41
1.037954849302045
 10
80.10734985006036
 20
54.24999999999979
 30
0.0
 41
1.0
  0
SPLINE
  5
672
330
4B9
100
AcDbEntity
  8
Visible Edges(ISO)
100
AcDbSpline
210
0.0
220
0.0
230
1.0
 70
    28
 71
     2
 72
     6
 73
     3
 74
     0
 42
0.000000001
 43
0.0000000001
 40
0.4685677750201912
 40
0.4685677750201912
 40
0.4685677750201912
 40
0.9371355500403815
 40
0.9371355500403815
 40
0.9371355500403815
 10
73.17914661978488
 20
50.2499999999998
 30
0.0
 41
1.0
 10
74.25094338950936
 20
52.10640646055082
 30
0.0
 41
1.037954849302045
 10
75.48854769654333
 20
54.24999999999975
 30
0.0
 41
1.0
  0
ARC
  5
673
330
4B9
100
AcDbEntity
  8
Visible Edges(ISO)
100
AcDbCircle
 10
80.10734985006036
 20
46.2499999999998
 30
0.0
 40
8.000000000000021
100
AcDbArc
 50
90.0
 51
150.0
  0
SPLINE
  5
674
330
4B9
100
AcDbEntity
  8
Visible Edges(ISO)
100
AcDbSpline
210
0.0
220
0.0
230
1.0
 70
    28
 71
     2
 72
     6
 73
     3
 74
     0
 42
0.000000001
 43
0.0000000001
 40
0.4685677750201914
 40
0.4685677750201914
 40
0.4685677750201914
 40
0.9371355500403824
 40
0.9371355500403824
 40
0.9371355500403824
 10
80.10734985006036
 20
38.24999999999983
 30
0.0
 41
1.0
 10
77.96375631061142
 20
38.24999999999983
 30
0.0
 41
1.03795484930205
 10
75.48854769654339
 20
38.24999999999983
 30
0.0
 41
1.0
  0
ARC
  5
675
330
4B9
100
AcDbEntity
  8
Visible Edges(ISO)
100
AcDbCircle
 10
80.10734985006036
 20
46.2499999999998
 30
0.0
 40
8.000000000000012
100
AcDbArc
 50
209.9999999999999
 51
269.9999999999999
  0
SPLINE
  5
676
330
4B9
100
AcDbEntity
  8
Visible Edges(ISO)
100
AcDbSpline
210
0.0
220
0.0
230
1.0
 70
    28
 71
     2
 72
     6
 73
     3
 74
     0
 42
0.000000001
 43
0.0000000001
 40
0.0
 40
0.0
 40
0.0
 40
0.4685677750201906
 40
0.4685677750201906
 40
0.4685677750201906
 10
75.48854769654333
 20
38.24999999999987
 30
0.0
 41
1.0
 10
74.25094338950934
 20
40.39359353944882
 30
0.0
 41
1.03795484930204
 10
73.17914661978486
 20
42.24999999999981
 30
0.0
 41
1.0
  0
SPLINE
  5
677
330
4B9
100
AcDbEntity
  8
Visible Edges(ISO)
100
AcDbSpline
210
0.0
220
0.0
230
1.0
 70
    28
 71
     2
 72
     6
 73
     3
 74
     0
 42
0.000000001
 43
0.0000000001
 40
0.0
 40
0.0
 40
0.0
 40
0.4685677750201906
 40
0.4685677750201906
 40
0.4685677750201906
 10
84.72615200357735
 20
54.24999999999975
 30
0.0
 41
1.0
 10
85.96375631061139
 20
52.10640646055079
 30
0.0
 41
1.037954849302046
 10
87.03555308033584
 20
50.24999999999979
 30
0.0
 41
1.0
  0
SPLINE
  5
678
330
4B9
100
AcDbEntity
  8
Visible Edges(ISO)
100
AcDbSpline
210
0.0
220
0.0
230
1.0
 70
    28
 71
     2
 72
     6
 73
     3
 74
     0
 42
0.000000001
 43
0.0000000001
 40
0.4685677750201906
 40
0.4685677750201906
 40
0.4685677750201906
 40
0.9371355500403812
 40
0.9371355500403812
 40
0.9371355500403812
 10
80.10734985006036
 20
54.24999999999979
 30
0.0
 41
1.0
 10
82.25094338950933
 20
54.24999999999979
 30
0.0
 41
1.037954849302032
 10
84.72615200357735
 20
54.24999999999979
 30
0.0
 41
1.0
  0
ARC
  5
679
330
4B9
100
AcDbEntity
  8
Visible Edges(ISO)
100
AcDbCircle
 10
80.10734985006036
 20
46.2499999999998
 30
0.0
 40
8.000000000000017
100
AcDbArc
 50
29.99999999999996
 51
90.0
  0
SPLINE
  5
67A
330
4B9
100
AcDbEntity
  8
Visible Edges(ISO)
100
AcDbSpline
210
0.0
220
0.0
230
1.0
 70
    28
 71
     2
 72
     6
 73
     3
 74
     0
 42
0.000000001
 43
0.0000000001
 40
0.4685677750201906
 40
0.4685677750201906
 40
0.4685677750201906
 40
0.9371355500403812
 40
0.9371355500403812
 40
0.9371355500403812
 10
87.03555308033584
 20
42.24999999999979
 30
0.0
 41
1.0
 10
85.96375631061139
 20
40.39359353944878
 30
0.0
 41
1.037954849302032
 10
84.72615200357735
 20
38.24999999999985
 30
0.0
 41
1.0
  0
ARC
  5
67B
330
4B9
100
AcDbEntity
  8
Visible Edges(ISO)
100
AcDbCircle
 10
80.10734985006036
 20
46.2499999999998
 30
0.0
 40
8.000000000000012
100
AcDbArc
 50
270.0
 51
330.0000000000001
  0
SPLINE
  5
67C
330
4B9
100
AcDbEntity
  8
Visible Edges(ISO)
100
AcDbSpline
210
0.0
220
0.0
230
1.0
 70
    28
 71
     2
 72
     6
 73
     3
 74
     0
 42
0.000000001
 43
0.0000000001
 40
0.0
 40
0.0
 40
0.0
 40
0.4685677750201914
 40
0.4685677750201914
 40
0.4685677750201914
 10
84.72615200357735
 20
38.24999999999981
 30
0.0
 41
1.0
 10
82.25094338950933
 20
38.24999999999981
 30
0.0
 41
1.037954849302059
 10
80.10734985006036
 20
38.24999999999983
 30
0.0
 41
1.0
  0
SPLINE
  5
67D
330
4B9
100
AcDbEntity
  8
Visible Edges(ISO)
100
AcDbSpline
210
0.0
220
0.0
230
1.0
 70
    28
 71
     2
 72
     6
 73
     3
 74
     0
 42
0.000000001
 43
0.0000000001
 40
0.0
 40
0.0
 40
0.0
 40
0.4685677750201906
 40
0.4685677750201906
 40
0.4685677750201906
 10
89.34495415709434
 20
46.24999999999977
 30
0.0
 41
1.0
 10
88.10734985006034
 20
44.10640646055081
 30
0.0
 41
1.037954849302034
 10
87.03555308033584
 20
42.24999999999979
 30
0.0
 41
1.0
  0
SPLINE
  5
67E
330
4B9
100
AcDbEntity
  8
Visible Edges(ISO)
100
AcDbSpline
210
0.0
220
0.0
230
1.0
 70
    28
 71
     2
 72
     6
 73
     3
 74
     0
 42
0.000000001
 43
0.0000000001
 40
0.4685677750201906
 40
0.4685677750201906
 40
0.4685677750201906
 40
0.9371355500403806
 40
0.9371355500403806
 40
0.9371355500403806
 10
87.03555308033584
 20
50.24999999999979
 30
0.0
 41
1.0
 10
88.10734985006034
 20
48.39359353944878
 30
0.0
 41
1.037954849302059
 10
89.34495415709434
 20
46.24999999999983
 30
0.0
 41
1.0
  0
ARC
  5
67F
330
4B9
100
AcDbEntity
  8
Visible Edges(ISO)
100
AcDbCircle
 10
80.10734985006036
 20
46.2499999999998
 30
0.0
 40
8.000000000000019
100
AcDbArc
 50
330.0
 51
29.99999999999996
  0
SPLINE
  5
680
330
4B9
100
AcDbEntity
  8
Visible Edges(ISO)
100
AcDbSpline
210
0.0
220
0.0
230
1.0
 70
    28
 71
     2
 72
     6
 73
     3
 74
     0
 42
0.000000001
 43
0.0000000001
 40
0.4685677750201906
 40
0.4685677750201906
 40
0.4685677750201906
 40
0.9371355500403808
 40
0.9371355500403808
 40
0.9371355500403808
 10
0.0000000000000631
 20
84.49999999999972
 30
0.0
 41
1.0
 10
-2.14359353944889
 20
84.49999999999972
 30
0.0
 41
1.037954849302026
 10
-4.618802153516893
 20
84.49999999999972
 30
0.0
 41
1.0
  0
ARC
  5
681
330
4B9
100
AcDbEntity
  8
Visible Edges(ISO)
100
AcDbCircle
 10
0.0000000000000774
 20
92.49999999999971
 30
0.0
 40
8.000000000000017
100
AcDbArc
 50
210.0
 51
269.9999999999999
  0
SPLINE
  5
682
330
4B9
100
AcDbEntity
  8
Visible Edges(ISO)
100
AcDbSpline
210
0.0
220
0.0
230
1.0
 70
    28
 71
     2
 72
     6
 73
     3
 74
     0
 42
0.000000001
 43
0.0000000001
 40
0.0
 40
0.0
 40
0.0
 40
0.4685677750201912
 40
0.4685677750201912
 40
0.4685677750201912
 10
-4.618802153516949
 20
84.49999999999976
 30
0.0
 41
1.0
 10
-5.856406460550949
 20
86.64359353944874
 30
0.0
 41
1.037954849302042
 10
-6.928203230275427
 20
88.49999999999971
 30
0.0
 41
1.0
  0
SPLINE
  5
683
330
4B9
100
AcDbEntity
  8
Visible Edges(ISO)
100
AcDbSpline
210
0.0
220
0.0
230
1.0
 70
    28
 71
     2
 72
     6
 73
     3
 74
     0
 42
0.000000001
 43
0.0000000001
 40
0.0
 40
0.0
 40
0.0
 40
0.4685677750201906
 40
0.4685677750201906
 40
0.4685677750201906
 10
-9.237604307033899
 20
92.49999999999976
 30
0.0
 41
1.0
 10
-7.999999999999895
 20
94.64359353944871
 30
0.0
 41
1.037954849302045
 10
-6.928203230275411
 20
96.49999999999977
 30
0.0
 41
1.0
  0
SPLINE
  5
684
330
4B9
100
AcDbEntity
  8
Visible Edges(ISO)
100
AcDbSpline
210
0.0
220
0.0
230
1.0
 70
    28
 71
     2
 72
     6
 73
     3
 74
     0
 42
0.000000001
 43
0.0000000001
 40
0.4685677750201912
 40
0.4685677750201912
 40
0.4685677750201912
 40
0.9371355500403815
 40
0.9371355500403815
 40
0.9371355500403815
 10
-6.928203230275427
 20
88.49999999999971
 30
0.0
 41
1.0
 10
-7.999999999999902
 20
90.35640646055076
 30
0.0
 41
1.037954849302045
 10
-9.237604307033899
 20
92.49999999999971
 30
0.0
 41
1.0
  0
ARC
  5
685
330
4B9
100
AcDbEntity
  8
Visible Edges(ISO)
100
AcDbCircle
 10
0.0000000000000826
 20
92.49999999999971
 30
0.0
 40
8.000000000000021
100
AcDbArc
 50
149.9999999999999
 51
209.9999999999999
  0
SPLINE
  5
686
330
4B9
100
AcDbEntity
  8
Visible Edges(ISO)
100
AcDbSpline
210
0.0
220
0.0
230
1.0
 70
    28
 71
     2
 72
     6
 73
     3
 74
     0
 42
0.000000001
 43
0.0000000001
 40
0.4685677750201914
 40
0.4685677750201914
 40
0.4685677750201914
 40
0.9371355500403824
 40
0.9371355500403824
 40
0.9371355500403824
 10
6.928203230275567
 20
88.49999999999971
 30
0.0
 41
1.0
 10
5.856406460551079
 20
86.64359353944872
 30
0.0
 41
1.03795484930205
 10
4.618802153517079
 20
84.49999999999976
 30
0.0
 41
1.0
  0
ARC
  5
687
330
4B9
100
AcDbEntity
  8
Visible Edges(ISO)
100
AcDbCircle
 10
0.0000000000000803
 20
92.49999999999971
 30
0.0
 40
8.000000000000017
100
AcDbArc
 50
269.9999999999998
 51
329.9999999999999
  0
SPLINE
  5
688
330
4B9
100
AcDbEntity
  8
Visible Edges(ISO)
100
AcDbSpline
210
0.0
220
0.0
230
1.0
 70
    28
 71
     2
 72
     6
 73
     3
 74
     0
 42
0.000000001
 43
0.0000000001
 40
0.0
 40
0.0
 40
0.0
 40
0.4685677750201906
 40
0.4685677750201906
 40
0.4685677750201906
 10
4.618802153517027
 20
84.49999999999972
 30
0.0
 41
1.0
 10
2.143593539449029
 20
84.49999999999972
 30
0.0
 41
1.03795484930204
 10
0.0000000000000631
 20
84.49999999999972
 30
0.0
 41
1.0
  0
SPLINE
  5
689
330
4B9
100
AcDbEntity
  8
Visible Edges(ISO)
100
AcDbSpline
210
0.0
220
0.0
230
1.0
 70
    28
 71
     2
 72
     6
 73
     3
 74
     0
 42
0.000000001
 43
0.0000000001
 40
0.0
 40
0.0
 40
0.0
 40
0.4685677750201906
 40
0.4685677750201906
 40
0.4685677750201906
 10
-4.618802153516868
 20
100.4999999999997
 30
0.0
 41
1.0
 10
-2.143593539448858
 20
100.4999999999997
 30
0.0
 41
1.037954849302046
 10
0.0000000000000925
 20
100.4999999999997
 30
0.0
 41
1.0
  0
SPLINE
  5
68A
330
4B9
100
AcDbEntity
  8
Visible Edges(ISO)
100
AcDbSpline
210
0.0
220
0.0
230
1.0
 70
    28
 71
     2
 72
     6
 73
     3
 74
     0
 42
0.000000001
 43
0.0000000001
 40
0.4685677750201906
 40
0.4685677750201906
 40
0.4685677750201906
 40
0.9371355500403812
 40
0.9371355500403812
 40
0.9371355500403812
 10
-6.928203230275411
 20
96.49999999999977
 30
0.0
 41
1.0
 10
-5.856406460550926
 20
98.35640646055074
 30
0.0
 41
1.037954849302032
 10
-4.61880215351692
 20
100.4999999999997
 30
0.0
 41
1.0
  0
ARC
  5
68B
330
4B9
100
AcDbEntity
  8
Visible Edges(ISO)
100
AcDbCircle
 10
0.0000000000000796
 20
92.49999999999971
 30
0.0
 40
8.000000000000017
100
AcDbArc
 50
89.99999999999984
 51
149.9999999999999
  0
SPLINE
  5
68C
330
4B9
100
AcDbEntity
  8
Visible Edges(ISO)
100
AcDbSpline
210
0.0
220
0.0
230
1.0
 70
    28
 71
     2
 72
     6
 73
     3
 74
     0
 42
0.000000001
 43
0.0000000001
 40
0.4685677750201906
 40
0.4685677750201906
 40
0.4685677750201906
 40
0.9371355500403812
 40
0.9371355500403812
 40
0.9371355500403812
 10
6.928203230275582
 20
96.49999999999971
 30
0.0
 41
1.0
 10
8.000000000000062
 20
94.64359353944871
 30
0.0
 41
1.037954849302032
 10
9.237604307034061
 20
92.49999999999976
 30
0.0
 41
1.0
  0
ARC
  5
68D
330
4B9
100
AcDbEntity
  8
Visible Edges(ISO)
100
AcDbCircle
 10
0.0000000000000816
 20
92.49999999999971
 30
0.0
 40
8.000000000000017
100
AcDbArc
 50
330.0000000000001
 51
30.00000000000005
  0
SPLINE
  5
68E
330
4B9
100
AcDbEntity
  8
Visible Edges(ISO)
100
AcDbSpline
210
0.0
220
0.0
230
1.0
 70
    28
 71
     2
 72
     6
 73
     3
 74
     0
 42
0.000000001
 43
0.0000000001
 40
0.0
 40
0.0
 40
0.0
 40
0.4685677750201914
 40
0.4685677750201914
 40
0.4685677750201914
 10
9.237604307034061
 20
92.49999999999969
 30
0.0
 41
1.0
 10
8.000000000000053
 20
90.35640646055073
 30
0.0
 41
1.037954849302059
 10
6.928203230275567
 20
88.49999999999971
 30
0.0
 41
1.0
  0
SPLINE
  5
68F
330
4B9
100
AcDbEntity
  8
Visible Edges(ISO)
100
AcDbSpline
210
0.0
220
0.0
230
1.0
 70
    28
 71
     2
 72
     6
 73
     3
 74
     0
 42
0.000000001
 43
0.0000000001
 40
0.0
 40
0.0
 40
0.0
 40
0.4685677750201906
 40
0.4685677750201906
 40
0.4685677750201906
 10
4.618802153517108
 20
100.4999999999997
 30
0.0
 41
1.0
 10
5.856406460551105
 20
98.35640646055074
 30
0.0
 41
1.037954849302034
 10
6.928203230275582
 20
96.49999999999971
 30
0.0
 41
1.0
  0
SPLINE
  5
690
330
4B9
100
AcDbEntity
  8
Visible Edges(ISO)
100
AcDbSpline
210
0.0
220
0.0
230
1.0
 70
    28
 71
     2
 72
     6
 73
     3
 74
     0
 42
0.000000001
 43
0.0000000001
 40
0.4685677750201906
 40
0.4685677750201906
 40
0.4685677750201906
 40
0.9371355500403806
 40
0.9371355500403806
 40
0.9371355500403806
 10
0.0000000000000925
 20
100.4999999999997
 30
0.0
 41
1.0
 10
2.143593539449048
 20
100.4999999999997
 30
0.0
 41
1.037954849302059
 10
4.618802153517052
 20
100.4999999999997
 30
0.0
 41
1.0
  0
ARC
  5
691
330
4B9
100
AcDbEntity
  8
Visible Edges(ISO)
100
AcDbCircle
 10
0.0000000000000801
 20
92.49999999999971
 30
0.0
 40
8.000000000000019
100
AcDbArc
 50
29.99999999999994
 51
89.99999999999992
  0
ARC
  5
692
330
4B9
100
AcDbEntity
  8
Visible Edges(ISO)
100
AcDbCircle
 10
-0.0000000042870676
 20
-0.0000000000000192
 30
0.0
 40
107.4999999957127
100
AcDbArc
 50
179.8934031394115
 51
180.1065968605918
  0
ARC
  5
693
330
4B9
100
AcDbEntity
  8
Visible Edges(ISO)
100
AcDbCircle
 10
0.0000000042614721
 20
0.0000000000000919
 30
0.0
 40
107.4999999957383
100
AcDbArc
 50
359.893403139408
 51
0.1065968605918854
  0
DIMENSION
  5
694
330
4B9
100
AcDbEntity
  8
Dimensions(ISO)
  6
Continuous
 62
     7
370
    18
100
AcDbDimension
280
     0
  2
*D3
 10
107.4999999999998
 20
122.0
 30
0.0
 11
0.0000000000000355
 21
122.0
 31
0.0
 70
   128
  1
Ø<>
 71
     5
 42
214.9999999999995
 73
     0
 74
     0
 75
     0
  3
Copy of ROXTEC
100
AcDbAlignedDimension
 13
-107.4999999999997
 23
-0.0000000000001804
 33
0.0
 14
107.4999999999997
 24
0.0000000000000292
 34
0.0
 50
180.0
100
AcDbRotatedDimension
1001
ACAD
1000
DSTYLE
1002
{
1070
   172
1070
     0
1070
   289
1070
     1
1070
    74
1070
     0
1070
   271
1070
     1
1070
   272
1070
     1
1070
    48
1040
0.0
1070
    47
1040
0.0
1002
}
  0
ENDBLK
  5
4BB
330
4B9
100
AcDbEntity
  8
0
100
AcDbBlockEnd
  0
ENDSEC
  0
SECTION
  2
ENTITIES
  0
INSERT
  5
695
330
71
100
AcDbEntity
  8
0
100
AcDbBlockReference
  2
SLFORI43
 10
-0.0000000000000158
 20
-0.0000000000000149
 30
0.0
  0
ENDSEC
  0
SECTION
  2
OBJECTS
  0
DICTIONARY
  5
C
330
0
100
AcDbDictionary
281
     1
  3
ACAD_CIP_PREVIOUS_PRODUCT_INFO
350
3B1
  3
ACAD_COLOR
350
63
  3
ACAD_DETAILVIEWSTYLE
350
6B
  3
ACAD_GROUP
350
D
  3
ACAD_LAYOUT
350
62
  3
ACAD_MATERIAL
350
10
  3
ACAD_MLEADERSTYLE
350
66
  3
ACAD_MLINESTYLE
350
5F
  3
ACAD_PLOTSETTINGS
350
61
  3
ACAD_PLOTSTYLENAME
350
E
  3
ACAD_SCALELIST
350
42
  3
ACAD_SECTIONVIEWSTYLE
350
68
  3
ACAD_TABLESTYLE
350
64
  3
ACAD_VISUALSTYLE
350
29
  3
ACDB_RECOMPOSE_DATA
350
991
  3
AcDbVariableDictionary
350
3B2
  3
AcmDictionary
350
44A
  3
AMG
350
40D
  3
AMGSNAPSETTINGS
350
4B4
  0
DICTIONARY
  5
6D3
330
4B9
100
AcDbDictionary
280
     1
281
     1
  0
XRECORD
  5
3B1
102
{ACAD_REACTORS
330
C
102
}
330
C
100
AcDbXrecord
280
     1
300
AMECH_PP
300
2013
300
85963PDSU_2013_0F
  0
DICTIONARY
  5
63
102
{ACAD_REACTORS
330
C
102
}
330
C
100
AcDbDictionary
281
     1
  0
DICTIONARY
  5
6B
102
{ACAD_REACTORS
330
C
102
}
330
C
100
AcDbDictionary
281
     1
  3
Imperial24
350
6C
  3
Metric50
350
405
  0
DICTIONARY
  5
D
102
{ACAD_REACTORS
330
C
102
}
330
C
100
AcDbDictionary
281
     1
  0
DICTIONARY
  5
62
102
{ACAD_REACTORS
330
C
102
}
330
C
100
AcDbDictionary
281
     1
  3
Layout1
350
70
  3
Layout2
350
78
  3
Model
350
74
  0
DICTIONARY
  5
10
102
{ACAD_REACTORS
330
C
102
}
330
C
100
AcDbDictionary
281
     1
  3
ByBlock
350
19
  3
ByLayer
350
11
  3
Global
350
21
  0
DICTIONARY
  5
66
102
{ACAD_REACTORS
330
C
102
}
330
C
100
AcDbDictionary
281
     1
  3
Standard
350
67
  0
DICTIONARY
  5
5F
102
{ACAD_REACTORS
330
C
102
}
330
C
100
AcDbDictionary
281
     1
  3
Standard
350
60
  0
DICTIONARY
  5
61
102
{ACAD_REACTORS
330
C
102
}
330
C
100
AcDbDictionary
281
     1
  0
ACDBDICTIONARYWDFLT
  5
E
102
{ACAD_REACTORS
330
C
102
}
330
C
100
AcDbDictionary
281
     1
  3
Normal
350
F
100
AcDbDictionaryWithDefault
340
F
  0
DICTIONARY
  5
42
102
{ACAD_REACTORS
330
C
102
}
330
C
100
AcDbDictionary
281
     1
  3
A0
350
43
  3
A1
350
44
  3
A2
350
45
  3
A3
350
46
  3
A4
350
47
  3
A5
350
48
  3
A6
350
49
  3
A7
350
4A
  3
A8
350
4B
  3
A9
350
4C
  3
B0
350
4D
  3
B1
350
4E
  3
B2
350
4F
  3
B3
350
50
  3
B4
350
51
  3
B5
350
52
  3
B6
350
53
  0
DICTIONARY
  5
68
102
{ACAD_REACTORS
330
C
102
}
330
C
100
AcDbDictionary
281
     1
  3
Imperial24
350
6A
  3
Metric50
350
404
  0
DICTIONARY
  5
64
102
{ACAD_REACTORS
330
C
102
}
330
C
100
AcDbDictionary
281
     1
  3
Standard
350
65
  0
DICTIONARY
  5
29
102
{ACAD_REACTORS
330
C
102
}
330
C
100
AcDbDictionary
281
     1
  3
2dWireframe
350
2F
  3
Basic
350
2E
  3
Brighten
350
35
  3
ColorChange
350
39
  3
Conceptual
350
32
  3
Dim
350
34
  3
EdgeColorOff
350
41
  3
Facepattern
350
38
  3
Flat
350
2A
  3
FlatWithEdges
350
2B
  3
Gouraud
350
2C
  3
GouraudWithEdges
350
2D
  3
Hidden
350
31
  3
JitterOff
350
3F
  3
Linepattern
350
37
  3
OverhangOff
350
40
  3
Realistic
350
33
  3
Shaded
350
3E
  3
Shaded with edges
350
3D
  3
Shades of Gray
350
3A
  3
Sketchy
350
3B
  3
Thicken
350
36
  3
Wireframe
350
30
  3
X-Ray
350
3C
  0
XRECORD
  5
991
102
{ACAD_REACTORS
330
C
102
}
330
C
100
AcDbXrecord
280
     1
 90
        1
330
65
  0
DICTIONARY
  5
3B2
102
{ACAD_REACTORS
330
C
102
}
330
C
100
AcDbDictionary
281
     1
  3
CANNOSCALE
350
3B8
  3
CMLEADERSTYLE
350
3B4
  3
CTABLESTYLE
350
3B3
  3
CVIEWDETAILSTYLE
350
3B5
  3
CVIEWSECTIONSTYLE
350
3B6
  3
DIMASSOC
350
3BF
  3
HIDETEXT
350
3BE
  3
INDEXCTL
350
3BD
  3
LAYEREVAL
350
3BA
  3
LAYERNOTIFY
350
3BB
  3
LIGHTINGUNITS
350
3B9
  3
MSLTSCALE
350
3B7
  3
SORTENTS
350
3BC
  0
DICTIONARY
  5
44A
102
{ACAD_REACTORS
330
C
102
}
330
C
100
AcDbDictionary
281
     1
  3
AcmStdDictionary
350
44B
  0
DICTIONARY
  5
40D
102
{ACAD_REACTORS
330
C
102
}
330
C
100
AcDbDictionary
281
     1
  0
DICTIONARY
  5
4B4
102
{ACAD_REACTORS
330
C
102
}
330
C
100
AcDbDictionary
281
     1
  0
ACDBDETAILVIEWSTYLE
  5
6C
102
{ACAD_REACTORS
330
6B
102
}
330
6B
100
AcDbModelDocViewStyle
 70
     0
  3
Imperial24
290
     0
100
AcDbDetailViewStyle
 70
     0
 71
     0
 90
        3
 71
     1
340
55
 62
   256
 40
0.24
340
0
 62
   256
 40
0.24
300

 40
0.36
280
     3
 71
     2
340
5D
 90
       25
 62
   256
 71
     3
340
55
 62
   256
 40
0.24
 90
        1
 40
0.75
 90
        1
300
%<\AcVar ViewType \f "%tc1">% %<\AcVar ViewDetailId>%\PSCALE %<\AcVar ViewScale \f "%sn">%
 71
     4
340
5D
 90
       25
 62
   256
340
5D
 90
       25
 62
   256
280
     0
  0
ACDBDETAILVIEWSTYLE
  5
405
102
{ACAD_REACTORS
330
6B
102
}
330
6B
100
AcDbModelDocViewStyle
 70
     0
  3
Metric50
290
     0
100
AcDbDetailViewStyle
 70
     0
 71
     0
 90
        3
 71
     1
340
55
 62
   256
 40
5.0
340
0
 62
   256
 40
5.0
300

 40
0.0
280
     1
 71
     2
340
5D
 90
       25
 62
   256
 71
     3
340
55
 62
   256
 40
5.0
 90
        0
 40
15.0
 90
        1
300
%<\AcVar ViewDetailId>% (%<\AcVar ViewScale \f "%sn">%)
 71
     4
340
5D
 90
       25
 62
   256
340
5D
 90
       25
 62
   256
280
     0
  0
LAYOUT
  5
70
102
{ACAD_REACTORS
330
62
102
}
330
62
100
AcDbPlotSettings
  1

  2

  4

  6

 40
0.0
 41
0.0
 42
0.0
 43
0.0
 44
0.0
 45
0.0
 46
0.0
 47
0.0
 48
0.0
 49
0.0
140
0.0
141
0.0
142
1.0
143
1.0
 70
   688
 72
     0
 73
     0
 74
     5
  7

 75
    16
147
1.0
 76
     0
 77
     2
 78
   300
148
0.0
149
0.0
100
AcDbLayout
  1
Layout1
 70
     1
 71
     1
 10
0.0
 20
0.0
 11
420.0
 21
297.0
 12
0.0
 22
0.0
 32
0.0
 14
0.0
 24
0.0
 34
0.0
 15
420.0
 25
297.0
 35
0.0
146
0.0
 13
0.0
 23
0.0
 33
0.0
 16
1.0
 26
0.0
 36
0.0
 17
0.0
 27
1.0
 37
0.0
 76
     0
330
6D
  0
LAYOUT
  5
78
102
{ACAD_REACTORS
330
62
102
}
330
62
100
AcDbPlotSettings
  1

  2

  4

  6

 40
0.0
 41
0.0
 42
0.0
 43
0.0
 44
0.0
 45
0.0
 46
0.0
 47
0.0
 48
0.0
 49
0.0
140
0.0
141
0.0
142
1.0
143
1.0
 70
   688
 72
     0
 73
     0
 74
     5
  7

 75
    16
147
1.0
 76
     0
 77
     2
 78
   300
148
0.0
149
0.0
100
AcDbLayout
  1
Layout2
 70
     1
 71
     2
 10
0.0
 20
0.0
 11
12.0
 21
9.0
 12
0.0
 22
0.0
 32
0.0
 14
0.0
 24
0.0
 34
0.0
 15
0.0
 25
0.0
 35
0.0
146
0.0
 13
0.0
 23
0.0
 33
0.0
 16
1.0
 26
0.0
 36
0.0
 17
0.0
 27
1.0
 37
0.0
 76
     0
330
75
  0
LAYOUT
  5
74
102
{ACAD_REACTORS
330
62
102
}
330
62
100
AcDbPlotSettings
  1

  2

  4

  6

 40
0.0
 41
0.0
 42
0.0
 43
0.0
 44
0.0
 45
0.0
 46
0.0
 47
0.0
 48
0.0
 49
0.0
140
0.0
141
0.0
142
1.0
143
1.0
 70
  1712
 72
     0
 73
     0
 74
     0
  7

 75
     0
147
1.0
 76
     0
 77
     2
 78
   300
148
0.0
149
0.0
100
AcDbLayout
  1
Model
 70
     1
 71
     0
 10
0.0
 20
0.0
 11
12.0
 21
9.0
 12
0.0
 22
0.0
 32
0.0
 14
0.0
 24
0.0
 34
0.0
 15
0.0
 25
0.0
 35
0.0
146
0.0
 13
0.0
 23
0.0
 33
0.0
 16
1.0
 26
0.0
 36
0.0
 17
0.0
 27
1.0
 37
0.0
 76
     0
330
71
331
57
  0
MATERIAL
  5
19
102
{ACAD_XDICTIONARY
360
1A
102
}
102
{ACAD_REACTORS
330
10
102
}
330
10
100
AcDbMaterial
  1
ByBlock
 72
     0
 43
0.0208333333333333
 43
0.0
 43
0.0
 43
0.0
 43
0.0
 43
0.0208333333333333
 43
0.0
 43
0.0
 43
0.0
 43
0.0
 43
1.0
 43
0.0
 43
0.0
 43
0.0
 43
0.0
 43
1.0
 77
     0
 47
0.0208333333333333
 47
0.0
 47
0.0
 47
0.0
 47
0.0
 47
0.0208333333333333
 47
0.0
 47
0.0
 47
0.0
 47
0.0
 47
1.0
 47
0.0
 47
0.0
 47
0.0
 47
0.0
 47
1.0
171
     0
 49
0.0208333333333333
 49
0.0
 49
0.0
 49
0.0
 49
0.0
 49
0.0208333333333333
 49
0.0
 49
0.0
 49
0.0
 49
0.0
 49
1.0
 49
0.0
 49
0.0
 49
0.0
 49
0.0
 49
1.0
175
     0
142
0.0208333333333333
142
0.0
142
0.0
142
0.0
142
0.0
142
0.0208333333333333
142
0.0
142
0.0
142
0.0
142
0.0
142
1.0
142
0.0
142
0.0
142
0.0
142
0.0
142
1.0
179
     0
144
0.0208333333333333
144
0.0
144
0.0
144
0.0
144
0.0
144
0.0208333333333333
144
0.0
144
0.0
144
0.0
144
0.0
144
1.0
144
0.0
144
0.0
144
0.0
144
0.0
144
1.0
147
0.0208333333333333
147
0.0
147
0.0
147
0.0
147
0.0
147
0.0208333333333333
147
0.0
147
0.0
147
0.0
147
0.0
147
1.0
147
0.0
147
0.0
147
0.0
147
0.0
147
1.0
  0
MATERIAL
  5
11
102
{ACAD_XDICTIONARY
360
12
102
}
102
{ACAD_REACTORS
330
10
102
}
330
10
100
AcDbMaterial
  1
ByLayer
 72
     0
 43
0.0208333333333333
 43
0.0
 43
0.0
 43
0.0
 43
0.0
 43
0.0208333333333333
 43
0.0
 43
0.0
 43
0.0
 43
0.0
 43
1.0
 43
0.0
 43
0.0
 43
0.0
 43
0.0
 43
1.0
 77
     0
 47
0.0208333333333333
 47
0.0
 47
0.0
 47
0.0
 47
0.0
 47
0.0208333333333333
 47
0.0
 47
0.0
 47
0.0
 47
0.0
 47
1.0
 47
0.0
 47
0.0
 47
0.0
 47
0.0
 47
1.0
171
     0
 49
0.0208333333333333
 49
0.0
 49
0.0
 49
0.0
 49
0.0
 49
0.0208333333333333
 49
0.0
 49
0.0
 49
0.0
 49
0.0
 49
1.0
 49
0.0
 49
0.0
 49
0.0
 49
0.0
 49
1.0
175
     0
142
0.0208333333333333
142
0.0
142
0.0
142
0.0
142
0.0
142
0.0208333333333333
142
0.0
142
0.0
142
0.0
142
0.0
142
1.0
142
0.0
142
0.0
142
0.0
142
0.0
142
1.0
179
     0
144
0.0208333333333333
144
0.0
144
0.0
144
0.0
144
0.0
144
0.0208333333333333
144
0.0
144
0.0
144
0.0
144
0.0
144
1.0
144
0.0
144
0.0
144
0.0
144
0.0
144
1.0
147
0.0208333333333333
147
0.0
147
0.0
147
0.0
147
0.0
147
0.0208333333333333
147
0.0
147
0.0
147
0.0
147
0.0
147
1.0
147
0.0
147
0.0
147
0.0
147
0.0
147
1.0
  0
MATERIAL
  5
21
102
{ACAD_XDICTIONARY
360
22
102
}
102
{ACAD_REACTORS
330
10
102
}
330
10
100
AcDbMaterial
  1
Global
 72
     0
 43
0.0208333333333333
 43
0.0
 43
0.0
 43
0.0
 43
0.0
 43
0.0208333333333333
 43
0.0
 43
0.0
 43
0.0
 43
0.0
 43
1.0
 43
0.0
 43
0.0
 43
0.0
 43
0.0
 43
1.0
 77
     0
 47
0.0208333333333333
 47
0.0
 47
0.0
 47
0.0
 47
0.0
 47
0.0208333333333333
 47
0.0
 47
0.0
 47
0.0
 47
0.0
 47
1.0
 47
0.0
 47
0.0
 47
0.0
 47
0.0
 47
1.0
171
     0
 49
0.0208333333333333
 49
0.0
 49
0.0
 49
0.0
 49
0.0
 49
0.0208333333333333
 49
0.0
 49
0.0
 49
0.0
 49
0.0
 49
1.0
 49
0.0
 49
0.0
 49
0.0
 49
0.0
 49
1.0
175
     0
142
0.0208333333333333
142
0.0
142
0.0
142
0.0
142
0.0
142
0.0208333333333333
142
0.0
142
0.0
142
0.0
142
0.0
142
1.0
142
0.0
142
0.0
142
0.0
142
0.0
142
1.0
179
     0
144
0.0208333333333333
144
0.0
144
0.0
144
0.0
144
0.0
144
0.0208333333333333
144
0.0
144
0.0
144
0.0
144
0.0
144
1.0
144
0.0
144
0.0
144
0.0
144
0.0
144
1.0
147
0.0208333333333333
147
0.0
147
0.0
147
0.0
147
0.0
147
0.0208333333333333
147
0.0
147
0.0
147
0.0
147
0.0
147
1.0
147
0.0
147
0.0
147
0.0
147
0.0
147
1.0
  0
MLEADERSTYLE
  5
67
102
{ACAD_REACTORS
330
66
102
}
330
66
100
AcDbMLeaderStyle
179
     2
170
     2
171
     1
172
     0
 90
        2
 40
0.0
 41
0.0
173
     1
 91
-1056964608
340
5B
 92
       -2
290
     1
 42
0.09
291
     1
 43
0.36
  3
Standard
 44
0.18
300

342
55
174
     1
178
     6
175
     1
176
     0
 93
-1056964608
 45
0.18
292
     0
297
     0
 46
0.18
 94
-1056964608
 47
1.0
 49
1.0
140
1.0
293
     1
141
0.0
294
     1
177
     0
142
1.0
295
     0
296
     0
143
0.125
271
     0
272
     9
273
     9
298
     1
1001
ACAD_MLEADERVER
1070
     2
  0
MLINESTYLE
  5
60
102
{ACAD_REACTORS
330
5F
102
}
330
5F
100
AcDbMlineStyle
  2
STANDARD
 70
     0
  3

 62
   256
 51
90.0
 52
90.0
 71
     2
 49
0.5
 62
   256
  6
BYLAYER
 49
-0.5
 62
   256
  6
BYLAYER
  0
ACDBPLACEHOLDER
  5
F
102
{ACAD_REACTORS
330
E
102
}
330
E
  0
SCALE
  5
43
102
{ACAD_REACTORS
330
42
102
}
330
42
100
AcDbScale
 70
     0
300
1:1
140
1.0
141
1.0
290
     1
  0
SCALE
  5
44
102
{ACAD_REACTORS
330
42
102
}
330
42
100
AcDbScale
 70
     0
300
1/128" = 1'-0"
140
0.0078125
141
12.0
290
     0
  0
SCALE
  5
45
102
{ACAD_REACTORS
330
42
102
}
330
42
100
AcDbScale
 70
     0
300
1/64" = 1'-0"
140
0.015625
141
12.0
290
     0
  0
SCALE
  5
46
102
{ACAD_REACTORS
330
42
102
}
330
42
100
AcDbScale
 70
     0
300
1/32" = 1'-0"
140
0.03125
141
12.0
290
     0
  0
SCALE
  5
47
102
{ACAD_REACTORS
330
42
102
}
330
42
100
AcDbScale
 70
     0
300
1/16" = 1'-0"
140
0.0625
141
12.0
290
     0
  0
SCALE
  5
48
102
{ACAD_REACTORS
330
42
102
}
330
42
100
AcDbScale
 70
     0
300
3/32" = 1'-0"
140
0.09375
141
12.0
290
     0
  0
SCALE
  5
49
102
{ACAD_REACTORS
330
42
102
}
330
42
100
AcDbScale
 70
     0
300
1/8" = 1'-0"
140
0.125
141
12.0
290
     0
  0
SCALE
  5
4A
102
{ACAD_REACTORS
330
42
102
}
330
42
100
AcDbScale
 70
     0
300
3/16" = 1'-0"
140
0.1875
141
12.0
290
     0
  0
SCALE
  5
4B
102
{ACAD_REACTORS
330
42
102
}
330
42
100
AcDbScale
 70
     0
300
1/4" = 1'-0"
140
0.25
141
12.0
290
     0
  0
SCALE
  5
4C
102
{ACAD_REACTORS
330
42
102
}
330
42
100
AcDbScale
 70
     0
300
3/8" = 1'-0"
140
0.375
141
12.0
290
     0
  0
SCALE
  5
4D
102
{ACAD_REACTORS
330
42
102
}
330
42
100
AcDbScale
 70
     0
300
1/2" = 1'-0"
140
0.5
141
12.0
290
     0
  0
SCALE
  5
4E
102
{ACAD_REACTORS
330
42
102
}
330
42
100
AcDbScale
 70
     0
300
3/4" = 1'-0"
140
0.75
141
12.0
290
     0
  0
SCALE
  5
4F
102
{ACAD_REACTORS
330
42
102
}
330
42
100
AcDbScale
 70
     0
300
1" = 1'-0"
140
1.0
141
12.0
290
     0
  0
SCALE
  5
50
102
{ACAD_REACTORS
330
42
102
}
330
42
100
AcDbScale
 70
     0
300
1-1/2" = 1'-0"
140
1.5
141
12.0
290
     0
  0
SCALE
  5
51
102
{ACAD_REACTORS
330
42
102
}
330
42
100
AcDbScale
 70
     0
300
3" = 1'-0"
140
3.0
141
12.0
290
     0
  0
SCALE
  5
52
102
{ACAD_REACTORS
330
42
102
}
330
42
100
AcDbScale
 70
     0
300
6" = 1'-0"
140
6.0
141
12.0
290
     0
  0
SCALE
  5
53
102
{ACAD_REACTORS
330
42
102
}
330
42
100
AcDbScale
 70
     0
300
1'-0" = 1'-0"
140
12.0
141
12.0
290
     0
  0
ACDBSECTIONVIEWSTYLE
  5
6A
102
{ACAD_REACTORS
330
68
102
}
330
68
100
AcDbModelDocViewStyle
 70
     0
  3
Imperial24
290
     0
100
AcDbSectionViewStyle
 70
     0
 71
     0
 90
       78
 71
     1
340
55
 62
   256
 40
0.24
340
0
340
0
 62
   256
 40
0.24
300
I, O, Q, S, X, Z
 40
0.48
 90
        3
 40
0.18
 90
        1
 71
     2
340
69
 90
       25
 62
   256
340
5D
 90
       50
 62
   256
 40
0.24
 40
0.0
 40
0.24
 71
     3
340
55
 62
   256
 40
0.24
 90
        1
 40
0.75
 90
        1
300
%<\AcVar ViewType \f "%tc1">% %<\AcVar ViewSectionStartId>%-%<\AcVar ViewSectionEndId>%\PSCALE %<\AcVar ViewScale \f "%sn">%
 71
     4
 62
   256
 62
   257
300
ANSI31
 40
1.0
 90
        0
290
     0
290
     0
 90
        6
 40
0.0
 40
1.570796326794896
 40
0.2617993877991494
 40
1.308996938995747
 40
-0.2617993877991494
 40
1.832595714594044
  0
ACDBSECTIONVIEWSTYLE
  5
404
102
{ACAD_REACTORS
330
68
102
}
330
68
100
AcDbModelDocViewStyle
 70
     0
  3
Metric50
290
     0
100
AcDbSectionViewStyle
 70
     0
 71
     0
 90
      102
 71
     1
340
55
 62
   256
 40
5.0
340
0
340
0
 62
   256
 40
5.0
300
I, O, Q, S, X, Z
 40
10.0
 90
        0
 40
2.5
 90
        0
 71
     2
340
5D
 90
       25
 62
   256
340
5D
 90
       50
 62
   256
 40
5.0
 40
2.5
 40
5.0
 71
     3
340
55
 62
   256
 40
5.0
 90
        0
 40
15.0
 90
        1
300
%<\AcVar ViewSectionStartId>%-%<\AcVar ViewSectionEndId>% (%<\AcVar ViewScale \f "%sn">%)
 71
     4
 62
   256
 62
   257
300
ANSI31
 40
1.0
 90
        0
290
     0
290
     0
 90
        6
 40
0.0
 40
1.570796326794896
 40
0.2617993877991494
 40
1.308996938995747
 40
-0.2617993877991494
 40
1.832595714594045
  0
TABLESTYLE
  5
65
102
{ACAD_XDICTIONARY
360
3C1
102
}
102
{ACAD_REACTORS
330
64
102
}
330
64
100
AcDbTableStyle
280
     0
  3
Standard
 70
     0
 71
     0
 40
0.06
 41
0.06
280
     0
281
     0
  7
Standard
140
0.18
170
     2
 62
     0
 63
     7
283
     0
 90
      512
 91
        0
  1

274
    -2
284
     1
 64
     0
275
    -2
285
     1
 65
     0
276
    -2
286
     1
 66
     0
277
    -2
287
     1
 67
     0
278
    -2
288
     1
 68
     0
279
    -2
289
     1
 69
     0
  7
Standard
140
0.25
170
     5
 62
     0
 63
     7
283
     0
 90
      512
 91
        0
  1

274
    -2
284
     1
 64
     0
275
    -2
285
     1
 65
     0
276
    -2
286
     1
 66
     0
277
    -2
287
     1
 67
     0
278
    -2
288
     1
 68
     0
279
    -2
289
     1
 69
     0
  7
Standard
140
0.18
170
     5
 62
     0
 63
     7
283
     0
 90
      512
 91
        0
  1

274
    -2
284
     1
 64
     0
275
    -2
285
     1
 65
     0
276
    -2
286
     1
 66
     0
277
    -2
287
     1
 67
     0
278
    -2
288
     1
 68
     0
279
    -2
289
     1
 69
     0
  0
VISUALSTYLE
  5
2F
102
{ACAD_REACTORS
330
29
102
}
330
29
100
AcDbVisualStyle
  2

 70
     4
177
     3
291
     0
 70
    58
 90
        0
176
     1
 90
        2
176
     1
 90
        0
176
     1
 90
        0
176
     1
 40
0.6
176
     1
 40
30.0
176
     1
 62
     7
176
     1
 90
        1
176
     1
 90
        4
176
     1
 62
     7
176
     1
 62
   257
176
     1
 90
        1
176
     1
 90
        1
176
     1
 40
1.0
176
     1
 90
        0
176
     1
 62
   257
176
     1
 40
1.0
176
     1
 90
        1
176
     1
 90
        6
176
     1
 90
        2
176
     1
 62
     7
176
     1
 90
        5
176
     1
 90
        0
176
     1
 90
        0
176
     1
290
     0
176
     1
 90
        1
176
     1
 40
0.0
176
     1
 90
        0
176
     1
290
     1
176
     1
290
     1
176
     1
290
     0
176
     1
290
     0
176
     1
290
     0
176
     1
290
     0
176
     1
290
     0
176
     1
290
     0
176
     1
290
     0
176
     1
 90
       50
176
     1
 40
0.0
176
     1
 40
1.0
176
     1
 90
        0
176
     1
 62
    18
420
        0
176
     1
 90
       50
176
     1
 90
        3
176
     1
 62
     5
420
      255
176
     1
290
     0
176
     1
 90
       50
176
     1
 90
       50
176
     1
 90
       50
176
     1
290
     0
176
     1
 90
       50
176
     1
 62
   256
176
     0
 40
1.0
176
     0
 90
        2
176
     1
  1
strokes_ogs.tif
176
     1
290
     0
176
     1
 40
1.0
176
     1
 40
1.0
176
     1
1001
ACAD
1000
AcDbSavedByObjectVersion
1070
     0
  0
VISUALSTYLE
  5
2E
102
{ACAD_REACTORS
330
29
102
}
330
29
100
AcDbVisualStyle
  2

 70
     7
177
     3
291
     1
 70
    58
 90
        1
176
     1
 90
        0
176
     1
 90
        1
176
     1
 90
        0
176
     1
 40
0.6
176
     1
 40
30.0
176
     1
 62
     7
176
     1
 90
        0
176
     1
 90
        4
176
     1
 62
     7
176
     1
 62
   257
176
     1
 90
        1
176
     1
 90
        1
176
     1
 40
1.0
176
     1
 90
        8
176
     1
 62
     7
176
     1
 40
1.0
176
     1
 90
        1
176
     1
 90
        6
176
     1
 90
        2
176
     1
 62
     7
176
     1
 90
        5
176
     1
 90
        0
176
     1
 90
        0
176
     1
290
     0
176
     1
 90
        1
176
     1
 40
0.0
176
     1
 90
        0
176
     1
290
     0
176
     1
290
     1
176
     1
290
     1
176
     1
290
     0
176
     1
290
     0
176
     1
290
     0
176
     1
290
     0
176
     1
290
     0
176
     1
290
     0
176
     1
 90
       50
176
     1
 40
0.0
176
     1
 40
1.0
176
     1
 90
        0
176
     1
 62
    18
420
        0
176
     1
 90
       50
176
     1
 90
        3
176
     1
 62
     5
420
      255
176
     1
290
     0
176
     1
 90
       50
176
     1
 90
       50
176
     1
 90
       50
176
     1
290
     0
176
     1
 90
       50
176
     1
 62
   256
176
     0
 40
1.0
176
     0
 90
        2
176
     1
  1
strokes_ogs.tif
176
     1
290
     0
176
     1
 40
1.0
176
     1
 40
1.0
176
     1
1001
ACAD
1000
AcDbSavedByObjectVersion
1070
     0
  0
VISUALSTYLE
  5
35
102
{ACAD_REACTORS
330
29
102
}
330
29
100
AcDbVisualStyle
  2

 70
    12
177
     3
291
     1
 70
    58
 90
        2
176
     1
 90
        2
176
     1
 90
        0
176
     1
 90
        0
176
     1
 40
0.6
176
     1
 40
30.0
176
     1
 62
     7
176
     1
 90
        1
176
     1
 90
        4
176
     1
 62
     7
176
     1
 62
   257
176
     1
 90
        1
176
     1
 90
        1
176
     1
 40
1.0
176
     1
 90
        8
176
     1
 62
     7
176
     1
 40
1.0
176
     1
 90
        1
176
     1
 90
        6
176
     1
 90
        2
176
     1
 62
     7
176
     1
 90
        5
176
     1
 90
        0
176
     1
 90
        0
176
     1
290
     0
176
     1
 90
        1
176
     1
 40
50.0
176
     1
 90
        0
176
     1
290
     0
176
     1
290
     1
176
     1
290
     1
176
     1
290
     0
176
     1
290
     0
176
     1
290
     0
176
     1
290
     0
176
     1
290
     0
176
     1
290
     0
176
     1
 90
       50
176
     1
 40
0.0
176
     1
 40
1.0
176
     1
 90
        0
176
     1
 62
    18
420
        0
176
     1
 90
       50
176
     1
 90
        3
176
     1
 62
     5
420
      255
176
     1
290
     0
176
     1
 90
       50
176
     1
 90
       50
176
     1
 90
       50
176
     1
290
     0
176
     1
 90
       50
176
     1
 62
   256
176
     0
 40
1.0
176
     0
 90
        2
176
     1
  1
strokes_ogs.tif
176
     1
290
     0
176
     1
 40
1.0
176
     1
 40
1.0
176
     1
1001
ACAD
1000
AcDbSavedByObjectVersion
1070
     0
  0
VISUALSTYLE
  5
39
102
{ACAD_REACTORS
330
29
102
}
330
29
100
AcDbVisualStyle
  2

 70
    16
177
     3
291
     1
 70
    58
 90
        2
176
     1
 90
        2
176
     1
 90
        3
176
     1
 90
        0
176
     1
 40
0.6
176
     1
 40
30.0
176
     1
 62
     8
176
     1
 90
        1
176
     1
 90
        4
176
     1
 62
     7
176
     1
 62
   257
176
     1
 90
        1
176
     1
 90
        1
176
     1
 40
1.0
176
     1
 90
        8
176
     1
 62
     8
176
     1
 40
1.0
176
     1
 90
        1
176
     1
 90
        6
176
     1
 90
        2
176
     1
 62
     7
176
     1
 90
        5
176
     1
 90
        0
176
     1
 90
        0
176
     1
290
     0
176
     1
 90
        1
176
     1
 40
0.0
176
     1
 90
        0
176
     1
290
     0
176
     1
290
     1
176
     1
290
     1
176
     1
290
     0
176
     1
290
     0
176
     1
290
     0
176
     1
290
     0
176
     1
290
     0
176
     1
290
     0
176
     1
 90
       50
176
     1
 40
0.0
176
     1
 40
1.0
176
     1
 90
        0
176
     1
 62
    18
420
        0
176
     1
 90
       50
176
     1
 90
        3
176
     1
 62
     5
420
      255
176
     1
290
     0
176
     1
 90
       50
176
     1
 90
       50
176
     1
 90
       50
176
     1
290
     0
176
     1
 90
       50
176
     1
 62
   256
176
     0
 40
1.0
176
     0
 90
        2
176
     1
  1
strokes_ogs.tif
176
     1
290
     0
176
     1
 40
1.0
176
     1
 40
1.0
176
     1
1001
ACAD
1000
AcDbSavedByObjectVersion
1070
     0
  0
VISUALSTYLE
  5
32
102
{ACAD_REACTORS
330
29
102
}
330
29
100
AcDbVisualStyle
  2

 70
     9
177
     3
291
     0
 70
    58
 90
        3
176
     1
 90
        2
176
     1
 90
        0
176
     1
 90
        0
176
     1
 40
0.6
176
     1
 40
30.0
176
     1
 62
     7
176
     1
 90
        2
176
     1
 90
        2
176
     1
 62
     7
176
     1
 62
   257
176
     1
 90
        1
176
     1
 90
        1
176
     1
 40
179.0
176
     1
 90
        8
176
     1
 62
     7
176
     1
 40
1.0
176
     1
 90
        1
176
     1
 90
        6
176
     1
 90
        2
176
     1
 62
     7
176
     1
 90
        3
176
     1
 90
        0
176
     1
 90
        0
176
     1
290
     0
176
     1
 90
        1
176
     1
 40
0.0
176
     1
 90
        0
176
     1
290
     0
176
     1
290
     1
176
     1
290
     1
176
     1
290
     0
176
     1
290
     0
176
     1
290
     0
176
     1
290
     0
176
     1
290
     0
176
     1
290
     0
176
     1
 90
       50
176
     1
 40
0.0
176
     1
 40
1.0
176
     1
 90
        0
176
     1
 62
    18
420
        0
176
     1
 90
       50
176
     1
 90
        3
176
     1
 62
     5
420
      255
176
     1
290
     0
176
     1
 90
       50
176
     1
 90
       50
176
     1
 90
       50
176
     1
290
     0
176
     1
 90
       50
176
     1
 62
   256
176
     0
 40
1.0
176
     0
 90
        2
176
     1
  1
strokes_ogs.tif
176
     1
290
     0
176
     1
 40
1.0
176
     1
 40
1.0
176
     1
1001
ACAD
1000
AcDbSavedByObjectVersion
1070
     0
  0
VISUALSTYLE
  5
34
102
{ACAD_REACTORS
330
29
102
}
330
29
100
AcDbVisualStyle
  2

 70
    11
177
     3
291
     1
 70
    58
 90
        2
176
     1
 90
        2
176
     1
 90
        0
176
     1
 90
        0
176
     1
 40
0.6
176
     1
 40
30.0
176
     1
 62
     7
176
     1
 90
        1
176
     1
 90
        4
176
     1
 62
     7
176
     1
 62
   257
176
     1
 90
        1
176
     1
 90
        1
176
     1
 40
1.0
176
     1
 90
        8
176
     1
 62
     7
176
     1
 40
1.0
176
     1
 90
        1
176
     1
 90
        6
176
     1
 90
        2
176
     1
 62
     7
176
     1
 90
        5
176
     1
 90
        0
176
     1
 90
        0
176
     1
290
     0
176
     1
 90
        1
176
     1
 40
-50.0
176
     1
 90
        0
176
     1
290
     0
176
     1
290
     1
176
     1
290
     1
176
     1
290
     0
176
     1
290
     0
176
     1
290
     0
176
     1
290
     0
176
     1
290
     0
176
     1
290
     0
176
     1
 90
       50
176
     1
 40
0.0
176
     1
 40
1.0
176
     1
 90
        0
176
     1
 62
    18
420
        0
176
     1
 90
       50
176
     1
 90
        3
176
     1
 62
     5
420
      255
176
     1
290
     0
176
     1
 90
       50
176
     1
 90
       50
176
     1
 90
       50
176
     1
290
     0
176
     1
 90
       50
176
     1
 62
   256
176
     0
 40
1.0
176
     0
 90
        2
176
     1
  1
strokes_ogs.tif
176
     1
290
     0
176
     1
 40
1.0
176
     1
 40
1.0
176
     1
1001
ACAD
1000
AcDbSavedByObjectVersion
1070
     0
  0
VISUALSTYLE
  5
41
102
{ACAD_REACTORS
330
29
102
}
330
29
100
AcDbVisualStyle
  2

 70
    22
177
     3
291
     1
 70
    58
 90
        2
176
     0
 90
        2
176
     0
 90
        0
176
     0
 90
        0
176
     0
 40
0.6
176
     0
 40
30.0
176
     0
 62
     7
176
     0
 90
        1
176
     0
 90
        4
176
     0
 62
     7
176
     0
 62
   257
176
     0
 90
        1
176
     0
 90
        1
176
     0
 40
1.0
176
     0
 90
        8
176
     2
 62
     7
176
     0
 40
1.0
176
     0
 90
        1
176
     0
 90
        6
176
     0
 90
        2
176
     0
 62
     7
176
     0
 90
        5
176
     0
 90
        0
176
     0
 90
        0
176
     0
290
     0
176
     0
 90
        1
176
     0
 40
0.0
176
     0
 90
        0
176
     0
290
     0
176
     0
290
     1
176
     0
290
     1
176
     0
290
     0
176
     0
290
     0
176
     0
290
     0
176
     0
290
     0
176
     0
290
     0
176
     0
290
     0
176
     0
 90
       50
176
     0
 40
0.0
176
     0
 40
1.0
176
     0
 90
        0
176
     0
 62
    18
420
        0
176
     0
 90
       50
176
     0
 90
        3
176
     0
 62
     5
420
      255
176
     0
290
     0
176
     0
 90
       50
176
     0
 90
       50
176
     0
 90
       50
176
     0
290
     0
176
     0
 90
       50
176
     0
 62
   256
176
     0
 40
1.0
176
     0
 90
        2
176
     0
  1
strokes_ogs.tif
176
     0
290
     0
176
     0
 40
1.0
176
     0
 40
1.0
176
     0
1001
ACAD
1000
AcDbSavedByObjectVersion
1070
     0
  0
VISUALSTYLE
  5
38
102
{ACAD_REACTORS
330
29
102
}
330
29
100
AcDbVisualStyle
  2

 70
    15
177
     3
291
     1
 70
    58
 90
        2
176
     1
 90
        2
176
     1
 90
        0
176
     1
 90
        0
176
     1
 40
0.6
176
     1
 40
30.0
176
     1
 62
     7
176
     1
 90
        1
176
     1
 90
        4
176
     1
 62
     7
176
     1
 62
   257
176
     1
 90
        1
176
     1
 90
        1
176
     1
 40
1.0
176
     1
 90
        8
176
     1
 62
     7
176
     1
 40
1.0
176
     1
 90
        1
176
     1
 90
        6
176
     1
 90
        2
176
     1
 62
     7
176
     1
 90
        5
176
     1
 90
        0
176
     1
 90
        0
176
     1
290
     0
176
     1
 90
        1
176
     1
 40
0.0
176
     1
 90
        0
176
     1
290
     0
176
     1
290
     1
176
     1
290
     1
176
     1
290
     0
176
     1
290
     0
176
     1
290
     0
176
     1
290
     0
176
     1
290
     0
176
     1
290
     0
176
     1
 90
       50
176
     1
 40
0.0
176
     1
 40
1.0
176
     1
 90
        0
176
     1
 62
    18
420
        0
176
     1
 90
       50
176
     1
 90
        3
176
     1
 62
     5
420
      255
176
     1
290
     0
176
     1
 90
       50
176
     1
 90
       50
176
     1
 90
       50
176
     1
290
     0
176
     1
 90
       50
176
     1
 62
   256
176
     0
 40
1.0
176
     0
 90
        2
176
     1
  1
strokes_ogs.tif
176
     1
290
     0
176
     1
 40
1.0
176
     1
 40
1.0
176
     1
1001
ACAD
1000
AcDbSavedByObjectVersion
1070
     0
  0
VISUALSTYLE
  5
2A
102
{ACAD_REACTORS
330
29
102
}
330
29
100
AcDbVisualStyle
  2

 70
     0
177
     3
291
     1
 70
    58
 90
        2
176
     1
 90
        1
176
     1
 90
        1
176
     1
 90
        2
176
     1
 40
0.6
176
     1
 40
30.0
176
     1
 62
     7
176
     1
 90
        0
176
     1
 90
        0
176
     1
 62
     7
176
     1
 62
   257
176
     1
 90
        1
176
     1
 90
        1
176
     1
 40
1.0
176
     1
 90
        8
176
     1
 62
     7
176
     1
 40
1.0
176
     1
 90
        1
176
     1
 90
        6
176
     1
 90
        2
176
     1
 62
     7
176
     1
 90
        5
176
     1
 90
        0
176
     1
 90
        0
176
     1
290
     0
176
     1
 90
       13
176
     1
 40
0.0
176
     1
 90
        0
176
     1
290
     0
176
     1
290
     1
176
     1
290
     1
176
     1
290
     0
176
     1
290
     0
176
     1
290
     0
176
     1
290
     0
176
     1
290
     0
176
     1
290
     0
176
     1
 90
       50
176
     1
 40
0.0
176
     1
 40
1.0
176
     1
 90
        0
176
     1
 62
    18
420
        0
176
     1
 90
       50
176
     1
 90
        3
176
     1
 62
     5
420
      255
176
     1
290
     0
176
     1
 90
       50
176
     1
 90
       50
176
     1
 90
       50
176
     1
290
     0
176
     1
 90
       50
176
     1
 62
   256
176
     0
 40
1.0
176
     0
 90
        2
176
     1
  1
strokes_ogs.tif
176
     1
290
     0
176
     1
 40
1.0
176
     1
 40
1.0
176
     1
1001
ACAD
1000
AcDbSavedByObjectVersion
1070
     0
  0
VISUALSTYLE
  5
2B
102
{ACAD_REACTORS
330
29
102
}
330
29
100
AcDbVisualStyle
  2

 70
     1
177
     3
291
     1
 70
    58
 90
        2
176
     1
 90
        1
176
     1
 90
        1
176
     1
 90
        2
176
     1
 40
0.6
176
     1
 40
30.0
176
     1
 62
     7
176
     1
 90
        1
176
     1
 90
        0
176
     1
 62
     7
176
     1
 62
   257
176
     1
 90
        1
176
     1
 90
        1
176
     1
 40
1.0
176
     1
 90
        0
176
     1
 62
   257
176
     1
 40
1.0
176
     1
 90
        1
176
     1
 90
        6
176
     1
 90
        2
176
     1
 62
     7
176
     1
 90
        5
176
     1
 90
        0
176
     1
 90
        0
176
     1
290
     0
176
     1
 90
       13
176
     1
 40
0.0
176
     1
 90
        0
176
     1
290
     0
176
     1
290
     1
176
     1
290
     1
176
     1
290
     0
176
     1
290
     0
176
     1
290
     0
176
     1
290
     0
176
     1
290
     0
176
     1
290
     0
176
     1
 90
       50
176
     1
 40
0.0
176
     1
 40
1.0
176
     1
 90
        0
176
     1
 62
    18
420
        0
176
     1
 90
       50
176
     1
 90
        3
176
     1
 62
     5
420
      255
176
     1
290
     0
176
     1
 90
       50
176
     1
 90
       50
176
     1
 90
       50
176
     1
290
     0
176
     1
 90
       50
176
     1
 62
   256
176
     0
 40
1.0
176
     0
 90
        2
176
     1
  1
strokes_ogs.tif
176
     1
290
     0
176
     1
 40
1.0
176
     1
 40
1.0
176
     1
1001
ACAD
1000
AcDbSavedByObjectVersion
1070
     0
  0
VISUALSTYLE
  5
2C
102
{ACAD_REACTORS
330
29
102
}
330
29
100
AcDbVisualStyle
  2

 70
     2
177
     3
291
     1
 70
    58
 90
        2
176
     1
 90
        2
176
     1
 90
        1
176
     1
 90
        2
176
     1
 40
0.6
176
     1
 40
30.0
176
     1
 62
     7
176
     1
 90
        0
176
     1
 90
        0
176
     1
 62
     7
176
     1
 62
   257
176
     1
 90
        1
176
     1
 90
        1
176
     1
 40
1.0
176
     1
 90
        0
176
     1
 62
     7
176
     1
 40
1.0
176
     1
 90
        1
176
     1
 90
        6
176
     1
 90
        2
176
     1
 62
     7
176
     1
 90
        5
176
     1
 90
        0
176
     1
 90
        0
176
     1
290
     0
176
     1
 90
       13
176
     1
 40
0.0
176
     1
 90
        0
176
     1
290
     0
176
     1
290
     1
176
     1
290
     1
176
     1
290
     0
176
     1
290
     0
176
     1
290
     0
176
     1
290
     0
176
     1
290
     0
176
     1
290
     0
176
     1
 90
       50
176
     1
 40
0.0
176
     1
 40
1.0
176
     1
 90
        0
176
     1
 62
    18
420
        0
176
     1
 90
       50
176
     1
 90
        3
176
     1
 62
     5
420
      255
176
     1
290
     0
176
     1
 90
       50
176
     1
 90
       50
176
     1
 90
       50
176
     1
290
     0
176
     1
 90
       50
176
     1
 62
   256
176
     0
 40
1.0
176
     0
 90
        2
176
     1
  1
strokes_ogs.tif
176
     1
290
     0
176
     1
 40
1.0
176
     1
 40
1.0
176
     1
1001
ACAD
1000
AcDbSavedByObjectVersion
1070
     0
  0
VISUALSTYLE
  5
2D
102
{ACAD_REACTORS
330
29
102
}
330
29
100
AcDbVisualStyle
  2

 70
     3
177
     3
291
     1
 70
    58
 90
        2
176
     1
 90
        2
176
     1
 90
        1
176
     1
 90
        2
176
     1
 40
0.6
176
     1
 40
30.0
176
     1
 62
     7
176
     1
 90
        1
176
     1
 90
        0
176
     1
 62
     7
176
     1
 62
   257
176
     1
 90
        1
176
     1
 90
        1
176
     1
 40
1.0
176
     1
 90
        0
176
     1
 62
   257
176
     1
 40
1.0
176
     1
 90
        1
176
     1
 90
        6
176
     1
 90
        2
176
     1
 62
     7
176
     1
 90
        5
176
     1
 90
        0
176
     1
 90
        0
176
     1
290
     0
176
     1
 90
       13
176
     1
 40
0.0
176
     1
 90
        0
176
     1
290
     0
176
     1
290
     1
176
     1
290
     1
176
     1
290
     0
176
     1
290
     0
176
     1
290
     0
176
     1
290
     0
176
     1
290
     0
176
     1
290
     0
176
     1
 90
       50
176
     1
 40
0.0
176
     1
 40
1.0
176
     1
 90
        0
176
     1
 62
    18
420
        0
176
     1
 90
       50
176
     1
 90
        3
176
     1
 62
     5
420
      255
176
     1
290
     0
176
     1
 90
       50
176
     1
 90
       50
176
     1
 90
       50
176
     1
290
     0
176
     1
 90
       50
176
     1
 62
   256
176
     0
 40
1.0
176
     0
 90
        2
176
     1
  1
strokes_ogs.tif
176
     1
290
     0
176
     1
 40
1.0
176
     1
 40
1.0
176
     1
1001
ACAD
1000
AcDbSavedByObjectVersion
1070
     0
  0
VISUALSTYLE
  5
31
102
{ACAD_REACTORS
330
29
102
}
330
29
100
AcDbVisualStyle
  2

 70
     6
177
     3
291
     0
 70
    58
 90
        1
176
     1
 90
        2
176
     1
 90
        2
176
     1
 90
        0
176
     1
 40
0.6
176
     1
 40
30.0
176
     1
 62
     7
176
     1
 90
        2
176
     1
 90
        2
176
     1
 62
     7
176
     1
 62
   257
176
     1
 90
        2
176
     1
 90
        1
176
     1
 40
40.0
176
     1
 90
        0
176
     1
 62
   257
176
     1
 40
1.0
176
     1
 90
        1
176
     1
 90
        6
176
     1
 90
        2
176
     1
 62
     7
176
     1
 90
        3
176
     1
 90
        0
176
     1
 90
        0
176
     1
290
     0
176
     1
 90
        1
176
     1
 40
0.0
176
     1
 90
        0
176
     1
290
     0
176
     1
290
     1
176
     1
290
     1
176
     1
290
     0
176
     1
290
     0
176
     1
290
     0
176
     1
290
     0
176
     1
290
     0
176
     1
290
     0
176
     1
 90
       50
176
     1
 40
0.0
176
     1
 40
1.0
176
     1
 90
        0
176
     1
 62
    18
420
        0
176
     1
 90
       50
176
     1
 90
        3
176
     1
 62
     5
420
      255
176
     1
290
     0
176
     1
 90
       50
176
     1
 90
       50
176
     1
 90
       50
176
     1
290
     0
176
     1
 90
       50
176
     1
 62
   256
176
     0
 40
1.0
176
     0
 90
        2
176
     1
  1
strokes_ogs.tif
176
     1
290
     0
176
     1
 40
1.0
176
     1
 40
1.0
176
     1
1001
ACAD
1000
AcDbSavedByObjectVersion
1070
     0
  0
VISUALSTYLE
  5
3F
102
{ACAD_REACTORS
330
29
102
}
330
29
100
AcDbVisualStyle
  2

 70
    20
177
     3
291
     1
 70
    58
 90
        2
176
     0
 90
        2
176
     0
 90
        0
176
     0
 90
        0
176
     0
 40
0.6
176
     0
 40
30.0
176
     0
 62
     7
176
     0
 90
        1
176
     0
 90
        4
176
     0
 62
     7
176
     0
 62
   257
176
     0
 90
        1
176
     0
 90
        1
176
     0
 40
1.0
176
     0
 90
       10
176
     2
 62
     7
176
     0
 40
1.0
176
     0
 90
        1
176
     0
 90
        6
176
     0
 90
        2
176
     0
 62
     7
176
     0
 90
        5
176
     0
 90
        0
176
     0
 90
        0
176
     0
290
     0
176
     0
 90
        1
176
     0
 40
0.0
176
     0
 90
        0
176
     0
290
     0
176
     0
290
     1
176
     0
290
     1
176
     0
290
     0
176
     0
290
     0
176
     0
290
     0
176
     0
290
     0
176
     0
290
     0
176
     0
290
     0
176
     0
 90
       50
176
     0
 40
0.0
176
     0
 40
1.0
176
     0
 90
        0
176
     0
 62
    18
420
        0
176
     0
 90
       50
176
     0
 90
        3
176
     0
 62
     5
420
      255
176
     0
290
     0
176
     0
 90
       50
176
     0
 90
       50
176
     0
 90
       50
176
     0
290
     0
176
     0
 90
       50
176
     0
 62
   256
176
     0
 40
1.0
176
     0
 90
        2
176
     0
  1
strokes_ogs.tif
176
     0
290
     0
176
     0
 40
1.0
176
     0
 40
1.0
176
     0
1001
ACAD
1000
AcDbSavedByObjectVersion
1070
     0
  0
VISUALSTYLE
  5
37
102
{ACAD_REACTORS
330
29
102
}
330
29
100
AcDbVisualStyle
  2

 70
    14
177
     3
291
     1
 70
    58
 90
        2
176
     1
 90
        2
176
     1
 90
        0
176
     1
 90
        0
176
     1
 40
0.6
176
     1
 40
30.0
176
     1
 62
     7
176
     1
 90
        1
176
     1
 90
        4
176
     1
 62
     7
176
     1
 62
   257
176
     1
 90
        7
176
     1
 90
        7
176
     1
 40
1.0
176
     1
 90
        8
176
     1
 62
     7
176
     1
 40
1.0
176
     1
 90
        1
176
     1
 90
        6
176
     1
 90
        2
176
     1
 62
     7
176
     1
 90
        5
176
     1
 90
        0
176
     1
 90
        0
176
     1
290
     0
176
     1
 90
        1
176
     1
 40
0.0
176
     1
 90
        0
176
     1
290
     0
176
     1
290
     1
176
     1
290
     1
176
     1
290
     0
176
     1
290
     0
176
     1
290
     0
176
     1
290
     0
176
     1
290
     0
176
     1
290
     0
176
     1
 90
       50
176
     1
 40
0.0
176
     1
 40
1.0
176
     1
 90
        0
176
     1
 62
    18
420
        0
176
     1
 90
       50
176
     1
 90
        3
176
     1
 62
     5
420
      255
176
     1
290
     0
176
     1
 90
       50
176
     1
 90
       50
176
     1
 90
       50
176
     1
290
     0
176
     1
 90
       50
176
     1
 62
   256
176
     0
 40
1.0
176
     0
 90
        2
176
     1
  1
strokes_ogs.tif
176
     1
290
     0
176
     1
 40
1.0
176
     1
 40
1.0
176
     1
1001
ACAD
1000
AcDbSavedByObjectVersion
1070
     0
  0
VISUALSTYLE
  5
40
102
{ACAD_REACTORS
330
29
102
}
330
29
100
AcDbVisualStyle
  2

 70
    21
177
     3
291
     1
 70
    58
 90
        2
176
     0
 90
        2
176
     0
 90
        0
176
     0
 90
        0
176
     0
 40
0.6
176
     0
 40
30.0
176
     0
 62
     7
176
     0
 90
        1
176
     0
 90
        4
176
     0
 62
     7
176
     0
 62
   257
176
     0
 90
        1
176
     0
 90
        1
176
     0
 40
1.0
176
     0
 90
        9
176
     2
 62
     7
176
     0
 40
1.0
176
     0
 90
        1
176
     0
 90
        6
176
     0
 90
        2
176
     0
 62
     7
176
     0
 90
        5
176
     0
 90
        0
176
     0
 90
        0
176
     0
290
     0
176
     0
 90
        1
176
     0
 40
0.0
176
     0
 90
        0
176
     0
290
     0
176
     0
290
     1
176
     0
290
     1
176
     0
290
     0
176
     0
290
     0
176
     0
290
     0
176
     0
290
     0
176
     0
290
     0
176
     0
290
     0
176
     0
 90
       50
176
     0
 40
0.0
176
     0
 40
1.0
176
     0
 90
        0
176
     0
 62
    18
420
        0
176
     0
 90
       50
176
     0
 90
        3
176
     0
 62
     5
420
      255
176
     0
290
     0
176
     0
 90
       50
176
     0
 90
       50
176
     0
 90
       50
176
     0
290
     0
176
     0
 90
       50
176
     0
 62
   256
176
     0
 40
1.0
176
     0
 90
        2
176
     0
  1
strokes_ogs.tif
176
     0
290
     0
176
     0
 40
1.0
176
     0
 40
1.0
176
     0
1001
ACAD
1000
AcDbSavedByObjectVersion
1070
     0
  0
VISUALSTYLE
  5
33
102
{ACAD_REACTORS
330
29
102
}
330
29
100
AcDbVisualStyle
  2

 70
     8
177
     3
291
     0
 70
    58
 90
        2
176
     1
 90
        3
176
     1
 90
        0
176
     1
 90
        2
176
     1
 40
0.6
176
     1
 40
30.0
176
     1
 62
     7
176
     1
 90
        0
176
     1
 90
        0
176
     1
 62
     7
176
     1
 62
   257
176
     1
 90
        1
176
     1
 90
        1
176
     1
 40
1.0
176
     1
 90
        8
176
     1
 62
   257
176
     1
 40
1.0
176
     1
 90
        1
176
     1
 90
        6
176
     1
 90
        2
176
     1
 62
     7
176
     1
 90
        3
176
     1
 90
        0
176
     1
 90
        0
176
     1
290
     0
176
     1
 90
       13
176
     1
 40
0.0
176
     1
 90
        0
176
     1
290
     0
176
     1
290
     1
176
     1
290
     1
176
     1
290
     0
176
     1
290
     0
176
     1
290
     0
176
     1
290
     0
176
     1
290
     0
176
     1
290
     0
176
     1
 90
       50
176
     1
 40
0.0
176
     1
 40
1.0
176
     1
 90
        0
176
     1
 62
    18
420
        0
176
     1
 90
       50
176
     1
 90
        3
176
     1
 62
     5
420
      255
176
     1
290
     0
176
     1
 90
       50
176
     1
 90
       50
176
     1
 90
       50
176
     1
290
     0
176
     1
 90
       50
176
     1
 62
   256
176
     0
 40
1.0
176
     0
 90
        2
176
     1
  1
strokes_ogs.tif
176
     1
290
     0
176
     1
 40
1.0
176
     1
 40
1.0
176
     1
1001
ACAD
1000
AcDbSavedByObjectVersion
1070
     0
  0
VISUALSTYLE
  5
3E
102
{ACAD_REACTORS
330
29
102
}
330
29
100
AcDbVisualStyle
  2

 70
    27
177
     3
291
     0
 70
    58
 90
        2
176
     1
 90
        2
176
     1
 90
        1
176
     1
 90
        2
176
     1
 40
0.6
176
     1
 40
30.0
176
     1
 62
     7
176
     1
 90
        0
176
     1
 90
        4
176
     1
 62
     7
176
     1
 62
   257
176
     1
 90
        1
176
     1
 90
        1
176
     1
 40
1.0
176
     1
 90
        8
176
     1
 62
   257
176
     1
 40
1.0
176
     1
 90
        1
176
     1
 90
        6
176
     1
 90
        2
176
     1
 62
     8
176
     1
 90
        3
176
     1
 90
        0
176
     1
 90
        0
176
     1
290
     0
176
     1
 90
        5
176
     1
 40
0.0
176
     1
 90
        0
176
     1
290
     0
176
     1
290
     1
176
     1
290
     1
176
     1
290
     0
176
     1
290
     0
176
     1
290
     0
176
     1
290
     0
176
     1
290
     0
176
     1
290
     0
176
     1
 90
       50
176
     1
 40
0.0
176
     1
 40
1.0
176
     1
 90
        0
176
     1
 62
    18
420
        0
176
     1
 90
       50
176
     1
 90
        3
176
     1
 62
     5
420
      255
176
     1
290
     0
176
     1
 90
       50
176
     1
 90
       50
176
     1
 90
       50
176
     1
290
     0
176
     1
 90
       50
176
     1
 62
   256
176
     0
 40
1.0
176
     0
 90
        2
176
     1
  1
strokes_ogs.tif
176
     1
290
     0
176
     1
 40
1.0
176
     1
 40
1.0
176
     1
1001
ACAD
1000
AcDbSavedByObjectVersion
1070
     0
  0
VISUALSTYLE
  5
3D
102
{ACAD_REACTORS
330
29
102
}
330
29
100
AcDbVisualStyle
  2

 70
    26
177
     3
291
     0
 70
    58
 90
        2
176
     1
 90
        2
176
     1
 90
        1
176
     1
 90
        2
176
     1
 40
0.6
176
     1
 40
30.0
176
     1
 62
     7
176
     1
 90
        1
176
     1
 90
       10
176
     1
 62
     7
176
     1
 62
   257
176
     1
 90
        2
176
     1
 90
        1
176
     1
 40
1.0
176
     1
 90
        8
176
     1
 62
   257
176
     1
 40
1.0
176
     1
 90
        1
176
     1
 90
        6
176
     1
 90
        2
176
     1
 62
     7
176
     1
 90
        3
176
     1
 90
        0
176
     1
 90
        0
176
     1
290
     0
176
     1
 90
        5
176
     1
 40
0.0
176
     1
 90
        0
176
     1
290
     0
176
     1
290
     1
176
     1
290
     1
176
     1
290
     0
176
     1
290
     0
176
     1
290
     0
176
     1
290
     0
176
     1
290
     0
176
     1
290
     0
176
     1
 90
       50
176
     1
 40
0.0
176
     1
 40
1.0
176
     1
 90
        0
176
     1
 62
    18
420
        0
176
     1
 90
       50
176
     1
 90
        3
176
     1
 62
     5
420
      255
176
     1
290
     0
176
     1
 90
       50
176
     1
 90
       50
176
     1
 90
       50
176
     1
290
     0
176
     1
 90
       50
176
     1
 62
   256
176
     0
 40
1.0
176
     0
 90
        2
176
     1
  1
strokes_ogs.tif
176
     1
290
     0
176
     1
 40
1.0
176
     1
 40
1.0
176
     1
1001
ACAD
1000
AcDbSavedByObjectVersion
1070
     0
  0
VISUALSTYLE
  5
3A
102
{ACAD_REACTORS
330
29
102
}
330
29
100
AcDbVisualStyle
  2

 70
    23
177
     3
291
     0
 70
    58
 90
        2
176
     1
 90
        2
176
     1
 90
        3
176
     1
 90
        0
176
     1
 40
0.6
176
     1
 40
30.0
176
     1
 62
     7
176
     1
 90
        2
176
     1
 90
        2
176
     1
 62
     7
176
     1
 62
     7
176
     1
 90
        1
176
     1
 90
        1
176
     1
 40
40.0
176
     1
 90
        8
176
     1
 62
     7
176
     1
 40
1.0
176
     1
 90
        1
176
     1
 90
        6
176
     1
 90
        2
176
     1
 62
     7
176
     1
 90
        3
176
     1
 90
        0
176
     1
 90
        0
176
     1
290
     0
176
     1
 90
        1
176
     1
 40
0.0
176
     1
 90
        0
176
     1
290
     0
176
     1
290
     1
176
     1
290
     1
176
     1
290
     0
176
     1
290
     0
176
     1
290
     0
176
     1
290
     0
176
     1
290
     0
176
     1
290
     0
176
     1
 90
       50
176
     1
 40
0.0
176
     1
 40
1.0
176
     1
 90
        0
176
     1
 62
    18
420
        0
176
     1
 90
       50
176
     1
 90
        3
176
     1
 62
     5
420
      255
176
     1
290
     0
176
     1
 90
       50
176
     1
 90
       50
176
     1
 90
       50
176
     1
290
     0
176
     1
 90
       50
176
     1
 62
   256
176
     0
 40
1.0
176
     0
 90
        2
176
     1
  1
strokes_ogs.tif
176
     1
290
     0
176
     1
 40
1.0
176
     1
 40
1.0
176
     1
1001
ACAD
1000
AcDbSavedByObjectVersion
1070
     0
  0
VISUALSTYLE
  5
3B
102
{ACAD_REACTORS
330
29
102
}
330
29
100
AcDbVisualStyle
  2

 70
    24
177
     3
291
     0
 70
    58
 90
        1
176
     1
 90
        2
176
     1
 90
        2
176
     1
 90
        0
176
     1
 40
0.6
176
     1
 40
30.0
176
     1
 62
     7
176
     1
 90
        2
176
     1
 90
        2
176
     1
 62
     7
176
     1
 62
     7
176
     1
 90
        1
176
     1
 90
        1
176
     1
 40
40.0
176
     1
 90
       11
176
     1
 62
     7
176
     1
 40
1.0
176
     1
 90
        1
176
     1
 90
        6
176
     1
 90
        2
176
     1
 62
     7
176
     1
 90
        6
176
     1
 90
        0
176
     1
 90
        0
176
     1
290
     0
176
     1
 90
        1
176
     1
 40
0.0
176
     1
 90
        0
176
     1
290
     0
176
     1
290
     1
176
     1
290
     1
176
     1
290
     0
176
     1
290
     0
176
     1
290
     0
176
     1
290
     0
176
     1
290
     0
176
     1
290
     0
176
     1
 90
       50
176
     1
 40
0.0
176
     1
 40
1.0
176
     1
 90
        0
176
     1
 62
    18
420
        0
176
     1
 90
       50
176
     1
 90
        3
176
     1
 62
     5
420
      255
176
     1
290
     0
176
     1
 90
       50
176
     1
 90
       50
176
     1
 90
       50
176
     1
290
     0
176
     1
 90
       50
176
     1
 62
   256
176
     0
 40
1.0
176
     0
 90
        2
176
     1
  1
strokes_ogs.tif
176
     1
290
     0
176
     1
 40
1.0
176
     1
 40
1.0
176
     1
1001
ACAD
1000
AcDbSavedByObjectVersion
1070
     0
  0
VISUALSTYLE
  5
36
102
{ACAD_REACTORS
330
29
102
}
330
29
100
AcDbVisualStyle
  2

 70
    13
177
     3
291
     1
 70
    58
 90
        2
176
     1
 90
        2
176
     1
 90
        0
176
     1
 90
        0
176
     1
 40
0.6
176
     1
 40
30.0
176
     1
 62
     7
176
     1
 90
        1
176
     1
 90
        4
176
     1
 62
     7
176
     1
 62
   257
176
     1
 90
        1
176
     1
 90
        1
176
     1
 40
1.0
176
     1
 90
       12
176
     1
 62
     7
176
     1
 40
1.0
176
     1
 90
        1
176
     1
 90
        6
176
     1
 90
        2
176
     1
 62
     7
176
     1
 90
        5
176
     1
 90
        0
176
     1
 90
        0
176
     1
290
     0
176
     1
 90
        1
176
     1
 40
0.0
176
     1
 90
        0
176
     1
290
     0
176
     1
290
     1
176
     1
290
     1
176
     1
290
     0
176
     1
290
     0
176
     1
290
     0
176
     1
290
     0
176
     1
290
     0
176
     1
290
     0
176
     1
 90
       50
176
     1
 40
0.0
176
     1
 40
1.0
176
     1
 90
        0
176
     1
 62
    18
420
        0
176
     1
 90
       50
176
     1
 90
        3
176
     1
 62
     5
420
      255
176
     1
290
     0
176
     1
 90
       50
176
     1
 90
       50
176
     1
 90
       50
176
     1
290
     0
176
     1
 90
       50
176
     1
 62
   256
176
     0
 40
1.0
176
     0
 90
        2
176
     1
  1
strokes_ogs.tif
176
     1
290
     0
176
     1
 40
1.0
176
     1
 40
1.0
176
     1
1001
ACAD
1000
AcDbSavedByObjectVersion
1070
     0
  0
VISUALSTYLE
  5
30
102
{ACAD_REACTORS
330
29
102
}
330
29
100
AcDbVisualStyle
  2

 70
     5
177
     3
291
     0
 70
    58
 90
        0
176
     1
 90
        2
176
     1
 90
        0
176
     1
 90
        0
176
     1
 40
0.6
176
     1
 40
30.0
176
     1
 62
     7
176
     1
 90
        1
176
     1
 90
        4
176
     1
 62
     7
176
     1
 62
   257
176
     1
 90
        1
176
     1
 90
        1
176
     1
 40
1.0
176
     1
 90
        0
176
     1
 62
   257
176
     1
 40
1.0
176
     1
 90
        1
176
     1
 90
        6
176
     1
 90
        2
176
     1
 62
     7
176
     1
 90
        3
176
     1
 90
        0
176
     1
 90
        0
176
     1
290
     0
176
     1
 90
        1
176
     1
 40
0.0
176
     1
 90
        0
176
     1
290
     0
176
     1
290
     1
176
     1
290
     1
176
     1
290
     0
176
     1
290
     0
176
     1
290
     0
176
     1
290
     0
176
     1
290
     0
176
     1
290
     0
176
     1
 90
       50
176
     1
 40
0.0
176
     1
 40
1.0
176
     1
 90
        0
176
     1
 62
    18
420
        0
176
     1
 90
       50
176
     1
 90
        3
176
     1
 62
     5
420
      255
176
     1
290
     0
176
     1
 90
       50
176
     1
 90
       50
176
     1
 90
       50
176
     1
290
     0
176
     1
 90
       50
176
     1
 62
   256
176
     0
 40
1.0
176
     0
 90
        2
176
     1
  1
strokes_ogs.tif
176
     1
290
     0
176
     1
 40
1.0
176
     1
 40
1.0
176
     1
1001
ACAD
1000
AcDbSavedByObjectVersion
1070
     0
  0
VISUALSTYLE
  5
3C
102
{ACAD_REACTORS
330
29
102
}
330
29
100
AcDbVisualStyle
  2

 70
    25
177
     3
291
     0
 70
    58
 90
        2
176
     1
 90
        2
176
     1
 90
        1
176
     1
 90
        1
176
     1
 40
0.5
176
     1
 40
30.0
176
     1
 62
     7
176
     1
 90
        1
176
     1
 90
        0
176
     1
 62
     7
176
     1
 62
   257
176
     1
 90
        1
176
     1
 90
        1
176
     1
 40
1.0
176
     1
 90
        8
176
     1
 62
     7
176
     1
 40
1.0
176
     1
 90
        1
176
     1
 90
        6
176
     1
 90
        2
176
     1
 62
     7
176
     1
 90
        3
176
     1
 90
        0
176
     1
 90
        0
176
     1
290
     0
176
     1
 90
       13
176
     1
 40
0.0
176
     1
 90
        0
176
     1
290
     0
176
     1
290
     1
176
     1
290
     1
176
     1
290
     0
176
     1
290
     0
176
     1
290
     0
176
     1
290
     0
176
     1
290
     0
176
     1
290
     0
176
     1
 90
       50
176
     1
 40
0.0
176
     1
 40
1.0
176
     1
 90
        0
176
     1
 62
    18
420
        0
176
     1
 90
       50
176
     1
 90
        3
176
     1
 62
     5
420
      255
176
     1
290
     0
176
     1
 90
       50
176
     1
 90
       50
176
     1
 90
       50
176
     1
290
     0
176
     1
 90
       50
176
     1
 62
   256
176
     0
 40
1.0
176
     0
 90
        2
176
     1
  1
strokes_ogs.tif
176
     1
290
     0
176
     1
 40
1.0
176
     1
 40
1.0
176
     1
1001
ACAD
1000
AcDbSavedByObjectVersion
1070
     0
  0
DICTIONARYVAR
  5
3B8
102
{ACAD_REACTORS
330
3B2
102
}
330
3B2
100
DictionaryVariables
280
     0
  1
1:1
  0
DICTIONARYVAR
  5
3B4
102
{ACAD_REACTORS
330
3B2
102
}
330
3B2
100
DictionaryVariables
280
     0
  1
STANDARD
  0
DICTIONARYVAR
  5
3B3
102
{ACAD_REACTORS
330
3B2
102
}
330
3B2
100
DictionaryVariables
280
     0
  1
STANDARD
  0
DICTIONARYVAR
  5
3B5
102
{ACAD_REACTORS
330
3B2
102
}
330
3B2
100
DictionaryVariables
280
     0
  1
Imperial24
  0
DICTIONARYVAR
  5
3B6
102
{ACAD_REACTORS
330
3B2
102
}
330
3B2
100
DictionaryVariables
280
     0
  1
Imperial24
  0
DICTIONARYVAR
  5
3BF
102
{ACAD_REACTORS
330
3B2
102
}
330
3B2
100
DictionaryVariables
280
     0
  1
1
  0
DICTIONARYVAR
  5
3BE
102
{ACAD_REACTORS
330
3B2
102
}
330
3B2
100
DictionaryVariables
280
     0
  1
1
  0
DICTIONARYVAR
  5
3BD
102
{ACAD_REACTORS
330
3B2
102
}
330
3B2
100
DictionaryVariables
280
     0
  1
0
  0
DICTIONARYVAR
  5
3BA
102
{ACAD_REACTORS
330
3B2
102
}
330
3B2
100
DictionaryVariables
280
     0
  1
0
  0
DICTIONARYVAR
  5
3BB
102
{ACAD_REACTORS
330
3B2
102
}
330
3B2
100
DictionaryVariables
280
     0
  1
0
  0
DICTIONARYVAR
  5
3B9
102
{ACAD_REACTORS
330
3B2
102
}
330
3B2
100
DictionaryVariables
280
     0
  1
2
  0
DICTIONARYVAR
  5
3B7
102
{ACAD_REACTORS
330
3B2
102
}
330
3B2
100
DictionaryVariables
280
     0
  1
1
  0
DICTIONARYVAR
  5
3BC
102
{ACAD_REACTORS
330
3B2
102
}
330
3B2
100
DictionaryVariables
280
     0
  1
127
  0
DICTIONARY
  5
44B
102
{ACAD_REACTORS
330
44A
102
}
330
44A
100
AcDbDictionary
281
     1
  0
DICTIONARY
  5
1A
330
19
100
AcDbDictionary
280
     1
281
     1
  3
ACAD_XREC_ROUNDTRIP
360
3C6
  3
BUMPTILE
360
1C
  3
DIFFUSETILE
360
1B
  3
OPACITYTILE
360
1F
  3
REFLECTIONTILE
360
1E
  3
REFRACTIONTILE
360
20
  3
SPECULARTILE
360
1D
  0
DICTIONARY
  5
12
330
11
100
AcDbDictionary
280
     1
281
     1
  3
ACAD_XREC_ROUNDTRIP
360
3C5
  3
BUMPTILE
360
14
  3
DIFFUSETILE
360
13
  3
FBXASSET
360
EB
  3
OPACITYTILE
360
17
  3
REFLECTIONTILE
360
16
  3
REFRACTIONTILE
360
18
  3
SPECULARTILE
360
15
  0
DICTIONARY
  5
22
330
21
100
AcDbDictionary
280
     1
281
     1
  3
ACAD_XREC_ROUNDTRIP
360
3C7
  3
BUMPTILE
360
24
  3
DIFFUSETILE
360
23
  3
OPACITYTILE
360
27
  3
REFLECTIONTILE
360
26
  3
REFRACTIONTILE
360
28
  3
SPECULARTILE
360
25
  0
DICTIONARY
  5
3C1
330
65
100
AcDbDictionary
280
     1
281
     1
  3
ACAD_ROUNDTRIP_2008_TABLESTYLE_CELLSTYLEMAP
360
990
  0
XRECORD
  5
3C6
102
{ACAD_REACTORS
330
1A
102
}
330
1A
100
AcDbXrecord
280
     1
102
MATERIAL
148
0.0
149
0.0
149
0.0
 93
        0
 94
      127
282
     0
 72
     0
 77
     0
171
     0
175
     0
179
     0
273
     0
  0
XRECORD
  5
1C
102
{ACAD_REACTORS
330
1A
102
}
330
1A
100
AcDbXrecord
280
     1
270
     1
271
     1
  0
XRECORD
  5
1B
102
{ACAD_REACTORS
330
1A
102
}
330
1A
100
AcDbXrecord
280
     1
270
     1
271
     1
  0
XRECORD
  5
1F
102
{ACAD_REACTORS
330
1A
102
}
330
1A
100
AcDbXrecord
280
     1
270
     1
271
     1
  0
XRECORD
  5
1E
102
{ACAD_REACTORS
330
1A
102
}
330
1A
100
AcDbXrecord
280
     1
270
     1
271
     1
  0
XRECORD
  5
20
102
{ACAD_REACTORS
330
1A
102
}
330
1A
100
AcDbXrecord
280
     1
270
     1
271
     1
  0
XRECORD
  5
1D
102
{ACAD_REACTORS
330
1A
102
}
330
1A
100
AcDbXrecord
280
     1
270
     1
271
     1
  0
XRECORD
  5
3C5
102
{ACAD_REACTORS
330
12
102
}
330
12
100
AcDbXrecord
280
     1
102
MATERIAL
148
0.0
149
0.0
149
0.0
 93
        0
 94
      127
282
     0
 72
     0
 77
     0
171
     0
175
     0
179
     0
273
     0
  0
XRECORD
  5
14
102
{ACAD_REACTORS
330
12
102
}
330
12
100
AcDbXrecord
280
     1
270
     1
271
     1
  0
XRECORD
  5
13
102
{ACAD_REACTORS
330
12
102
}
330
12
100
AcDbXrecord
280
     1
270
     1
271
     1
  0
XRECORD
  5
EB
102
{ACAD_REACTORS
330
12
102
}
330
12
100
AcDbXrecord
280
     1
 70
     1
 90
1959938040
 71
     1
  1
B9E3B7E3-C841-43ED-B975-FF85CC350702
311
504B03040A000008000027653D443DEE336E79000000790000001B0000006175746F6465736B2D64657369676E2D7061636B6167652E786D6C3C3F786D6C2076657273696F6E3D22312E302220656E636F64696E673D227574662D3822203F3E3C666F726D6174733E3C666F726D61743E687474703A2F2F736368656D612E
311
6175746F6465736B2E636F6D2F64657369676E2D7061636B6167652F323030393C2F666F726D61743E3C2F666F726D6174733E504B030414000608080027653D44FAA28935A700000035010000130000005B436F6E74656E745F54797065735D2E786D6CA58FC10E823010447FA5D93B143D1863281ED43FE0076ADD4223DD
311
36ED62F0EF2DE16ABC78DC9DC99B99F6BCF849BC30651748C1AE6E402099F070342898D9564710E7AEEDDF11B3285ECA0A46E67892329B11BDCE75884845B12179CDE54C838CDA3CF58072DF34076902311257BC32A06BAF68F53CB1B82DE5BDE5DE1D81B86CBEBED814E818276734975A321846AE3227D41EE4578023FB1F
311
A00CF80158D5122CD76EB9FB00504B030414000608080027653D44ACCC6D02F80000009701000008000000636F72652E786D6C8D505B6EC23010BC8AE5DFCA89370195448E1184F604BD80E5986041ECC80FD4E37703416AFFFAB5A3D999DDD188FDF774237713A2F5AEA350704A8CD37EB06EEC684E67B6A3642F45F03EFD
311
9251E2D4643ABAD0548A31F83CAF94F62E199790757E302BA9623489127D43D0D1A82F665285CA0915F15ACC4A5FD5680A782134E76C07F27C6207BC67CFD6042AFBC3C789D73BCEDE9BFAC03680E8D8F40DDBF670E27D7DE49F508B72314B91ECF4FAAF8351C90C54561C368C03AB9A2FA8DA0DB4B07DE3D0722ECA45FEC7
311
94E7E19FA66C5DAAAB35EED316A9040CF258481153C04257019690485477CC534A512E35E178748873A954FE00504B030414000608080027653D449249639C7D0000009D00000007000000636E782E786D6C4DCCD10A83201886E15B91FFDC95AE4C410D8A761FB12C64A6E174ECF257A3838E3E78F87865FB5D1DFA98F8B6
311
C12B20B71290F1CF3059BF28C869C61C50AB650C215D6E80FCB81A050783964B0C793B6932F3985DDAD559FF3A913C6825444FF1207A862BCA08EE382F31699A3BE19CD1A1EEA0D0B2F897F63DC2FA07504B030414000608080027653D44E38B82972A0100001E0200002D00000031463234393943322D453943362D343236
311
312D423838302D3137373331383836324535422F636F72652E786D6C8D514B6EC23014BC8AE5155595C4362124C83112889EA01730F1032C881DF95371FC3A4DA0ED8E4D1CCD9B9937F6F0EDBDBFA12F705E5BD3629A138CC0745669736E710CA7ACC6682BB8B336FCA16164640F2D1E612CF8D9D938CC50674D0013126AAC
311
821994DE43C0A8BBA59F16FBEE02BDCC650C89E1AFF920BBAB3C434EF3344E3CC17D7029009A968C5F2CE8072B9B66CFB243B3AFB2925534DBD535C9E87ABDA4755DB1C36AC78B4928788C5ACD72AD521C7DD2E05E3519C58207DD3FE2770E6400850523B4CC08CD58F349D9A6A41BBA7A277443082F46FA3F511CD48BA2A8
311
4D58B239EE24F3292B2FA681E0CAC6E3ED1106EE8375018DFB161EBA375CA4EB2687AA9C1D7CB02E3DE7E27A7CCE9EEED01F41213B84543716ABDF15C5D896E0C54F95E91C9B15DF504B030414000608080027653D446A77868595000000F50000002C00000031463234393943322D453943362D343236312D423838302D31
311
37373331383836324535422F636E782E786D6C5D8E4B0EC2300C44AF12795F023B164E2A246EC00942E396887C503E88E313438550375EBC9979328EAFE0C5937271292A38ECF620284EC9BAB82868751E8E20468D39A5FA5703114D20058C41E392537BACC8D26C9AAF9D7A17EF2B3C9542F56CAAE99897C2A7C9F82EA038
311
B402FA97A3E458A3E4B146BEABE232DD2898DE456E6C0514AE642D5951BEB58D477E3EEC5A7E58BF01504B030414000608080027653D44CDD15C76FE000000A00100003700000031463234393943322D453943362D343236312D423838302D3137373331383836324535422F4173736574446174612F636F72652E786D6C8D
311
504B6E833010BD8A35DBCA60036902328E083427E8052C70A89560237FAA1EBF76A052BBEBC663BDCFCCD363E7AFE5813EA575CAE816684600493D9A49E9B985E06FF804E8CC9935C6FF9201D262912D2418389BAD09EB0E8D467BA97D44B599E40E0AE7A407343EE2A705377EC8456422F8A870F76C15E35DCC32A359A4A3
311
8E33E76D0C80B623E905DEA51583F082E51BCB59086ADA356A8A37D54D490BBCEFDE06521EAFF858971DAEE889E04BDDD7F8D0D381F4E5855C69C9F264E6CCABE527E368A5F072025E105A61427151BFD3A2A968430F2F843684B03CC9FF98C23AFDD31494F665B1C7DD6C0EF86B0CF22438CB535F713CCB8C3375CBBF0150
311
4B030414000608080027653D44B6920B4077010000860500003600000031463234393943322D453943362D343236312D423838302D3137373331383836324535422F4173736574446174612F636E782E786D6CD5544D6B032110FD2BE2B5EC87218536B886D25E724AA1A177E3CEA61257179D2DEDBFAFEE6ED840C9298736
311
1795F1BD37E3631CBEFE6A0DF9041FB4B3156579490958E56A6D0F15EDB1C91E28590BEE9DC333182556B650D114A6821FBCEBBB295443237B83316AB43D4EC11768B4D518736C10BC44E75FBDEBC0A38640893232848A06F501ADCC658FAE8670CC6B893267B987E07AAF202AA6A4C438254DCC0D36EB0315B33439699359
311
9C17892378EF3549A78AA6F59C7522CD9C7CAF2D2F2243F0803E1A3131F1BB8B45C8AE335AC9F496C22904CC220864CB8BB847B0E0A85B9828CA8344A8A958946C99952C5B3CEED862B5642B767F57B25559F222C105DF3B672692B6D123D711E5E2C122151194AE052F92A582A775C26E6C406915CCD5FF899DBFCBB82513
311
9F4200DCC9BD816DF33C9A7E6D570E9264D024DB869C542FB5E3001FD07305B7E4E01BC6466FDFC73132BCE3CA361C05C9A41846272FB9378227EC903DD7B6F9D75FB8184666FCD13E0E56F103504B030414000608080027653D448DD224E584000000200100004F00000031463234393943322D453943362D343236312D42
311
3838302D3137373331383836324535422F4173736574446174612F446566696E6974696F6E4974657261746F7250726F706572746965732E62696EEB60E863F90F050C40C008C40D0C8C0CBC40DA3D352FB5283339383923353791811D28E254E99358995A046242259980A220AE4B6A5A62694E09489B6F6671726A4E4E62
311
5E6A7E69B120501EAA542137B104685E628E1E481327500226500C32211D621B23505C828101E424492093C137B1A438C61D2217930EA1F50AF2D2417274C000504B030414000608080027653D44719D4601F4000000300200004500000031463234393943322D453943362D343236312D423838302D313737333138383632
311
4535422F4173736574446174612F496E7374616E636550726F706572746965732E62696EEB60F8C9FC1F0A18808011881B1818197881B47B6A5E6A5166727072466A6EA20A50C0C9D2D5D8C9DCD558D7D9C2C450D7C4D8D545D7C9D2DC54D7CDCDC2D4D9D9D8D4C0DCC0881DA80EAA11A4C5D8D0C4C5D5C8D452D7D4C4C458
311
D7C4CCC850D7C9CDC945D7D0DCD8C0D9CCD9D9D2D1D512642783664CFFA1AF1A57ECA13413D0980606060618DF1EC806A20FF640B701690606010706010638507160C00F801A210AE00C081793842B003398810A1A18C0E001D40D3C601E3A010A4384CC07A85A74550C0C293B1D18F002EC5A41C683C213A4F5833D0B9062
311
04623E200E2E4F2C49CED0752A4ACC4B494D01B9172848330400504B030414000608080027653D4457D651FA51000000570000004700000031463234393943322D453943362D343236312D423838302D3137373331383836324535422F4173736574446174612F41737365745461626C654F66436F6E74656E74732E62696E
311
5361606070B2743576327735D675B63031D435317675D175B23437D57573B33075763636353037301202AACB4D2C492DCA4CCC492C28484D2C4ACC4B4E050A82112F90744FCD03CA26072767A4E6260200504B030414000608080027653D44F865834058000000680000004500000031463234393943322D453943362D3432
311
36312D423838302D3137373331383836324535422F4173736574446174612F53747265616D56657273696F6E5461626C652E696E66558CBD0A80300C06F73E4B117FB66E451741D041DC5BF98480A492E4FDD18EAEC7DD4555D89EF28DF51A0B1BD8340C4DE7DD848B988C0ACF0649566493F2408C508DDEBB99D5129FF8F1
311
AF8CF5B9503E20FAE5A16B5AF702504B030414000608080027653D442C3DB3C4FB0000009E0100003500000031463234393943322D453943362D343236312D423838302D3137373331383836324535422F536368656D61732F636F72652E786D6C8D504B6E833010BD8A35DBCA60035103328E12D25EA0BD80651C6A25D8C8
311
9FAAC7AF0D546A77DDCC8CDE47F3F4D8E96B7EA04FE5BCB6A6075A1040CA483B6A33F510C30D1F019D3873D6865F324046CCAA870C036793B371D921694D502624D4D851EDA0F05E0540F2918E1EBCFC50B328440C49E1EFC522E45D4CAAA045A2938E331F5C0A80B62779027F5B4D9E951BC7598C7ADC157A4C1FF54D2B07
311
7C38BF5C497D24F8B9ADCFB8A1E9BAB4438B0F03BD92A1BE90575AB3329B390B7AFE49289D12418DC02B421B4C28AEDA775A750DEDE8E189D08E105666F91F535CC67F9AA236A1AEF6B89BCD03A729C84A7056E6B6D25AAB4C3B37CBBF01504B030414000608080027653D441FCC434A27010000D303000034000000314632
311
34393943322D453943362D343236312D423838302D3137373331383836324535422F536368656D61732F636E782E786D6CD593CF4E032110C65F857035FB874D4DB461E9C183272FD6174076DA92B2CC6600A36F2F6C39D4C4AB462F84197EC397F960E4EE7D76EC0D2858F423176DCF19788393F5C791A77868EE38DB2949
311
88F10AE3CCEB19465ED25CC923615A6A6A82834E2EE6ACB3FE5C930F38CFE8F7E604B3E6CC381DC2C8C31AB63A459C209CDB4947DD8A9620602203F98622C21C1AEDB216F82605AEF66B153B5807B22B8092896CD5293157D76A6DEE4F7699503244CA5D55327E2C59412F8BB346C7DC7CB7821746C96867A8A421D01126AE
311
865E6C9A5E34C3FD8B18B61BB115B737BDD8F6BDEC0AAEE42BA2AB45D647205C98C1BCF191AB0C956325BB628B9265ADEC2378206B2E8DFDBC3B5FE4FE813DCFE027A0A7FC0664B5FB2D97BE53FDAB6675EBFCE5AF45794AD527504B030414000608080027653D442F7B2A8D8D0100005E0600003D00000031463234393943
311
322D453943362D343236312D423838302D3137373331383836324535422F536368656D61732F436F6D6D6F6E536368656D612E786D6CC5944D6EC2301085F79C22F20550BB4E90A0486D24D44551BA1FE201AC3A76E43841B97D9D716A151228B448CD2A9267BE37CF3F2F9E5715DA75BEC702669388BE384B97510332614F
311
BA28B4F2AB6C3689A76E2554ADAD116A17099EB00554D8574565BD91224FD81664852CE2B8154A58A1556AD180D566091612664DED569B4E85C89E16E0A9B2B84343744F7E4753390A3B1530085C2BD91E211F89D94302D46B10936CAFC4265D326F95451236E83C7F5BE91CFB9E3104743B67DBD2D938F13C3A124D749E26
311
750EF22A1A551EB9BD06ADA0F879D09BD159FA3AC6BD7CE837AB7C607BD0860F8E1EA4D487A296569412DD55AAB1FADA973B4F9083BB8EDAB4FF3802C72A37A2EC5ED2608A7BB8CDDE56F432ECBE2E360A841CA8FC7ABBDDD1248C2EA913094F69A1B5445024FA2238473550BCEC8BB05B8A99EEA5F6BCC0CF6AC109DE27C7
311
B30BAFDF28F8C11D2C90FB5C21787326969A2ED91EA8B72F1F6D37D888D158BBD0EF3691A49D9F10AE0363E733C8B58751DC3FA1E6BC019523FF2B329ECEBB54F4893D9B7C02504B030414000608080027653D447229482E27050000001600003E00000031463234393943322D453943362D343236312D423838302D313737
311
3331383836324535422F536368656D61732F47656E65726963536368656D612E786D6CDD586D4FE33810FECEAFB0F27D4BCB1DAB5BA9456A41F4FA0171A2705F2D37718AEF9CA4B29D42EFD7DF783C3549CBB601F676B587549197F1CC3CF3F278E2E1D85AE9E6E9A32CC4C509C3BFE1C3EC8AAD851E2553594AA3D2F03AB9
311
38199EC2AB2836115606B93B5966D2DC0807D24237C4BD4894779B15C9172429562B298C285389CABD40949E954E2EA5612A1B2541E39FD2585595095BD50BADD251920B6D65C28C145955EACD2871A686FBB5777D801A4949543A7746954BD4A9AB54686FF1A83E946C291FB7FD0E5ABF6AA414057875C4E97D23147CC4B1
311
636152555A8A1271A495AE0C5F6C78B5F84BA62E0919C94368B45848C8E3A59761930DBB0D323E93A4237A1D647CB49721EB3C53795EFB000BADABA7B42A4BD02F33E12BC68E120B91D4006C2DF4DD28E9F77E199CA3F169F366D2BC198F9241C29A3E2138B41CFDB8D69570886CC70FAE0AB1943C1799443B4D6533FF8A5D
311
FB57172754C68C0D27555D6696ADA44965E960F5368BAA4C8D2CE09955FF485454A852157501EE268CAE15204C756DD51A44426915E23948010EBADE970AD1F59623A85344156FF1AE85D1C85C4374D55AB90D178EF733B94CD8D1C0A3BB14D0BB860A8C2B5A7983CD2FDFC3E8525716E22AADED06AF771E2B66FAB2D487B8
311
0D8FCAB915546579219DD0542E79AB277E57CB470D3F673158B4FE40B81C10955D0923CB74D3CDF7E8F97D73E9CF59A0AE01E1FFDE8946A40E361AAE60577BA6E219F4CECF623EA1D548066AE720DD50CD1DE29B5EDF9349A09F7D32614433A3041A81AEF7A57C3F04B28B05DC85720804C7E4EA1A4832DDF027E9BBE23D15
311
4E1A8EC52450E9A190FC100A4E6B57D58E572B91020977C20F8923F2BDC4C5814A8E13D342A47FE722953CADF5EBEC34210976E925427A71CF8FF9452B2DBAB352E75C695D171C7EAAC4B92A8C03FD58BA731062332F0402BECA215BC3A3B5626115A94EFD2CC19D2C605715AE36921AE4F379FFC5CAA51762F70D210F015D
311
8E00824C73E06858C9958661921762D5211177B883AF8586D10352021793ED93D6C8718D4A191A46D878151D42F75A115DD4C58A8B02A60898ABBA6CC6BDB32F3B7F31F0E3A0E608FBE7618F3AD01C9F06FD7EBF5B8304C130B2BC8733303CFB01E99C1470738D490917909470D14ACA0462FC4A32683F6E591715AF60FC07
311
9D71F6A7F61B170B05D31CBB4D716003295F6FA4232698BE0676755A51ACB4847904150F3EC794CDE9C58773063B478799F2EC1C4CBF89E2095004B85FC110B24C59D7A0825F23BC1BF1CCAEB62F7DBC70795446D1DB8D56061395D2DB68052EA72C3CC0F760A8996B5315ECD63DC2F7DB0D7DEB056E24A5D1089A6C9930D0
311
6D595A19F8F2B4DC884CD560AB4BEF455C775E037439AAC0D2422BD126F9F075AB680D3F7F244C7B0E5808B848416712D5E57009B447A8275A96197B52EEB11362CA59DB3A8CEE3C932BF74816A04F483B8C1AF8615095CCE7EBDEC0B6C1AE50F4C3650956BA94A5177B0B8910C2186FBADF456C5A883F017113E4DBB53446
311
6592017680EB37A96F85D85BF9819029937CE9BF6436DC12BF843D7A002C411100E024CAA628CAE624FA9D723E38FB0DB698FF22E9345A2F11D6C1086C533F45D19F3B0245150F2D1AFCEB1F7ADEA506890D532BEC15386B93397C17F806387A48B5F6875EC0B5F6741A8E6FB6FF1F66BDE742230DD66AD7C4385BFBAD21FB
311
36A65EB4BD6652F95DD69FB9080F0811CE5A8F6E600787B324015FD7470ECBF6C186B5780C146DAB96F608BDFDF8153F6EA7F377841B567DD8F21F46AE957C7A87755A89BBEF413786A7637F7E174E542F4EFE05504B030414000608080027653D440A3355BE74010000170400004500000031463234393943322D45394336
311
2D343236312D423838302D3137373331383836324535422F536368656D61732F52656E6465724D6174657269616C536368656D612E786D6CAD93DF6AC23014C6EF7D8A90075895B1BB54D00EA430D968A7B725B6C73690269244C5B75FFED955866C0C7B9593F3E577724EBE9285D660CABA839ECE27C87F6493BFA213E529
311
2E4034A0D6D480629407159E4F486215837A4935047926FB5E8A91CCA5065D2E0CB4A0106B521C345B509A4981D1E1B8E3AC4EF19E720D1829A08D14FC9262A38E363EB9BBCC7CE10819A09BE2CD03F3FEC0A10761A8B1C4B55BF0825EFE86F6644BFA85FABE2A1FCAFB507062707E287305C2BE55FD4F66691413AD1FA83E
311
5353773F38FE29FCBC82761859D64956833F5A7B1B54654715349537180E068919ED331871BA03EBB2D286B6ACA546032244026E4BF9F186A9AD149A489BDE10ECB673E6E8E0F56EF771CCDAFBE03C2E4C64CE06663ECADD01932454BB16224B293950319EC22713A632B26DF9D5C8FB60F2D8BCCBDBCE4912CF0EAC4C7219
311
7E963835A7AC6AB7EBEF5AA478FAF43C7BF1C16A1C2CC7C122C5DF3D3904CA3CC2B7E456A12049FC3B85FF723EF902504B010214000A000008000027653D443DEE336E79000000790000001B00000000000000000000000000000000006175746F6465736B2D64657369676E2D7061636B6167652E786D6C504B0102140014
311
000608080027653D44FAA28935A7000000350100001300000000000000000000000000B20000005B436F6E74656E745F54797065735D2E786D6C504B0102140014000608080027653D44ACCC6D02F80000009701000008000000000000000000000000008A010000636F72652E786D6C504B0102140014000608080027653D
311
449249639C7D0000009D0000000700000000000000000000000000A8020000636E782E786D6C504B0102140014000608080027653D44E38B82972A0100001E0200002D000000000000000000000000004A03000031463234393943322D453943362D343236312D423838302D3137373331383836324535422F636F72652E78
311
6D6C504B0102140014000608080027653D446A77868595000000F50000002C00000000000000000000000000BF04000031463234393943322D453943362D343236312D423838302D3137373331383836324535422F636E782E786D6C504B0102140014000608080027653D44CDD15C76FE000000A001000037000000000000
311
000000000000009E05000031463234393943322D453943362D343236312D423838302D3137373331383836324535422F4173736574446174612F636F72652E786D6C504B0102140014000608080027653D44B6920B4077010000860500003600000000000000000000000000F106000031463234393943322D453943362D34
311
3236312D423838302D3137373331383836324535422F4173736574446174612F636E782E786D6C504B0102140014000608080027653D448DD224E584000000200100004F00000000000000000000000000BC08000031463234393943322D453943362D343236312D423838302D3137373331383836324535422F4173736574
311
446174612F446566696E6974696F6E4974657261746F7250726F706572746965732E62696E504B0102140014000608080027653D44719D4601F4000000300200004500000000000000000000000000AD09000031463234393943322D453943362D343236312D423838302D3137373331383836324535422F41737365744461
311
74612F496E7374616E636550726F706572746965732E62696E504B0102140014000608080027653D4457D651FA51000000570000004700000000000000000000000000040B000031463234393943322D453943362D343236312D423838302D3137373331383836324535422F4173736574446174612F41737365745461626C
311
654F66436F6E74656E74732E62696E504B0102140014000608080027653D44F865834058000000680000004500000000000000000000000000BA0B000031463234393943322D453943362D343236312D423838302D3137373331383836324535422F4173736574446174612F53747265616D56657273696F6E5461626C652E
311
696E66504B0102140014000608080027653D442C3DB3C4FB0000009E0100003500000000000000000000000000750C000031463234393943322D453943362D343236312D423838302D3137373331383836324535422F536368656D61732F636F72652E786D6C504B0102140014000608080027653D441FCC434A27010000D3
311
0300003400000000000000000000000000C30D000031463234393943322D453943362D343236312D423838302D3137373331383836324535422F536368656D61732F636E782E786D6C504B0102140014000608080027653D442F7B2A8D8D0100005E0600003D000000000000000000000000003C0F00003146323439394332
311
2D453943362D343236312D423838302D3137373331383836324535422F536368656D61732F436F6D6D6F6E536368656D612E786D6C504B0102140014000608080027653D447229482E27050000001600003E000000000000000000000000002411000031463234393943322D453943362D343236312D423838302D31373733
311
31383836324535422F536368656D61732F47656E65726963536368656D612E786D6C504B0102140014000608080027653D440A3355BE74010000170400004500000000000000000000000000A716000031463234393943322D453943362D343236312D423838302D3137373331383836324535422F536368656D61732F5265
311
6E6465724D6174657269616C536368656D612E786D6C504B050600000000110011005A0600007E1800000000
310
504B03040A000008000027653D443DEE336E79000000790000001B0000006175746F6465736B2D64657369676E2D7061636B6167652E786D6C3C3F786D6C2076657273696F6E3D22312E302220656E636F64696E673D227574662D3822203F3E3C666F726D6174733E3C666F726D61743E687474703A2F2F736368656D612E
310
6175746F6465736B2E636F6D2F64657369676E2D7061636B6167652F323030393C2F666F726D61743E3C2F666F726D6174733E504B030414000608080027653D44D486FD9CA0000000F4000000130000005B436F6E74656E745F54797065735D2E786D6C7D8EC10E82300C865F65E91D8A1E8C310C0EEA1BF002731658846E
310
D98AC1B77784ABF1D8FE5FBFBF75BBCE937A534CCEB38643598122B6FEE978D0B0485F9C41B54DDD7D022595594E1A469170414C76A4D9A4D207E29CF43ECE46F218070CC6BECC4078ACAA135ACF422C856C0E68EA1BF5669944DDD7BCDE7B1F8E415D77AECB980613C2E4AC91FC167A2B244592486606FC29C8FD7F045B9A
310
EF7053A7E60B504B030414000608080027653D44F2EB9CD2EB0000007C01000008000000636F72652E786D6C8D90DD6EC3200C855F05F97622C149AA2611A1AA96F609F602086886DA401460DAE38FF447DAEE7665EBF87CB675F8E17BBE912FB306EBDD00583020C629AFAD9B0648F1425B2007C157EFE32F1B10276733C0
310
2683E0D3EAD3F2949477D1B89855E7B5798A32041381A85B6E0608EAD3CCB290296647B8168B54573999025F5D8653B29A3C8E589DF7D98B352B88F6B41FD9B8EB68DD32469BF31969D7BCB7146B369EDAF188FB63C7CB0D163CDAF9755FAD4646A341540C1BCA9056DD07567D833DEEDE18F68CF172B3FF81D2A2FF0925EB
310
625D3DDF7D600104E647EE03C1CB2D8B5CEE41E5BAE5267E00504B030414000608080027653D4455019EA25F0000007C00000007000000636E782E786D6C4DCB3B0E80201045D1AD90E915ED2CF8AC45050C11660C8261F98AB1B07AC9C97D42D718D865D3E909258CFD00CCE24AC6E326A164D74DC0B4128928FF32603847
310
2BA13128B1252AC747C6BAB984FC68F0B87FE8960A5C09FE86CFB69FBA01504B030414000608080027653D44182FE4B766010000020300000C0000006662782F636F72652E786D6C8D52ED8A8330107C9590BF8726B1966A8929E56C9FE05E20D5D4936A2231913EFEAD1FC5EB51CA21C430B3B33B3BCA0FF7B64183B27D6D
310
748659483152BA3065ADAB0C7B770D128C0E825B63DCAF328CB46C558647180B5E59E3BB052A8C764A3B40B529D502CABE570EA3A2814B86FBE25BB53294DE41457F0B3B59DC64A54216020D7582F7CE8201340F194F2CAE973B27332EB8F775B9B07509D3EA6BAD2C16C96997D37C9B069B84D2203E9F5990C69F49C03634
310
3F25F991ED8E2927A3587057B70F778555D2A9128B88B238A02C88D22F16ED63B667DB0FCAF6947232963F897C57FE53E46BED36D1627796F558303032117FB685881CEAE5007E88E0640C115E53C2CF41432010B29397E6B1C70DA04115CED81898D2F8951A64E3154CA5687A389959E83C3580CD5EF689DEF479DF033EA0
310
D41558930EAE17EFC6E97C9EBA44D1291B0CEE8EB4B1AD6C5673B3C5F55C07BD9417A631F63F6AB2AC4A9630C9F8F78A1F504B030414000608080027653D447A1F25067D0000009D0000000B0000006662782F636E782E786D6C4DCCD10A83201886E15B91FFDC6525CE400DA6781FB12C64A6C3E9D8E5AF46073BFAE0E1E3
310
15E3670BE8EDF2CBA728A1BD10402EDED3ECE32AA196057340A31239A5F2770314A7CD493818945873AACF9366B74C35945D838F8F139966D4E8A1C51DB516534329E6DA12CC0672EDFA1BE98DE1D028D1FC4AFB1E61F505504B030414000608080027653D44567E815F2B01000015020000310000006662782F3643363444
310
4339312D323446462D344434342D384346302D3639303732334230334444382F636F72652E786D6C8D515B6EC32010BC0AE22B55651B6CEA3C8489D45839412F400C495062B07854397E97DA91DABFFCB068766676B4CBF78FF18EBEB50FC6D90ED39260A4EDE094B1970EA7782E3618ED05F7CEC53F348CAC1C7587338C05
310
BF7897A6051A9C8DDA4640AD537A0165083A6234DCE1D3E1305CF5284B992230C2AD9CE47093175DD212DAC0133C440F01D03C24BF58B48796F5872D2D6A763C16AC67ACD81C8EA468B7645D379FA4E9FB0DAF66A1E02919B5C88D8238E66CB47FD5248B058F667CC61FBC96512B2C6A42594120C3F68BD63B4677F4E39DD0
310
1D21BCCAF47FA234A91745C9D8D8D44BDC5916B0A0BC9A1B822B974EF76718FD989C8F28CF5B053DBC61414A429A86D674CD783573610360DAB2C53444E761C3ABDB09E8CDE2DC32C1AB7C2428BF17849A0F2A7E00504B030414000608080027653D44ADB2AB8B5601000033030000300000006662782F3643363444433931
310
2D323446462D344434342D384346302D3639303732334230334444382F636E782E786D6CBD93CD6EC32010845F0571ADFC83E346698489D4439FA0875E096C1A1A0C16E0AA79FB2E094973C9A152D50BB2668799D527CC375FA3259F10A2F16EA0AC6E2901A7BC36EE7DA073DA552B4A368207EFD38D8D122747186896A9E0
310
EFC1CF539134ECE46C13AAD6B8431103443F070511E57C9358AFA4C50070D58C228C5BD01A34B91AF16B07015741717B24690FE4E5F98DF8ED07A814799353046F7287E0F92C4D37264A9495310E34AA3D8CB29673F21AE2A1D632C99AD597AE3B3BFD24917CE15239074372F940F34945D9A8468EBCC1A1E03105A4574CE9
310
380115729AAC513221E4E6643C7B049F8D4BCBBE780D820FE85E74CBD50AC34E33C19319A1385400994053D1B5ACAF5A56754FAFAC5BF76CCD1E1F5AB66E5BDE64BBE05BEF6DB9843110FC449477095CA282F1268FEFE12B3EA24D40D63E1C7F01120194D6339D6BC65FF261CB45DFFF239FE6F4BE1157C0BF407C03504B03
310
0414000608080027653D44BCC0C8404A0700004F1C0000340000006662782F36433634444339312D323446462D344434342D384346302D3639303732334230334444382F6F626A656374732E786D6CED595B6FA34614FE2B88BEB40FC6C6D89BA42254B17391B5CDEE6AAD5DF5C1121AC3184F335C340389DD5FDF33173060
310
93E06EFAB60F090666BE73BFCCC1FD631753E319334ED2E4DAB4AD9169E02448439244D766916F0697A6F187E7B234CD6BCB4C234131BE36C563D373239616997E14E20D2A68DE7A7A3FFBCBE0014EB0690414717E6DF2608B6364A1224F43CC9FAC10E5C88A363BCBB6D4C2266CC450B66D816688E124074EE17902288662
310
CA6EDE8ECCA1E70EC57BCF15FFF5AA71AF554EF7AAA194BAC92549788E92E088A516CCB8174B8E3DB9BD1B4FAF06D3C9C4194C3E8CEDC1EC7E763BB02F9CD1FCC37C7E75737705ECADD3946A99429CE12404FBED4DCF7687E24D25BAD6C029AE83344970201509AA9262B50109E640AAA6BE51F3D61612D55E4B096BF78E78
310
AF59A83D6E19A163554F45347041104DAE94B8BCD6E54BD77F83E0BC8F53328E8553F39C8175B57A184485E98DDCA17AEAB9EB832D0837629463461035285933C4C028B0542CF15CB541C388E06000650809A4E5D4EBA66F4164BE1D3AA7B8DC14948AC8303D19583E841FCEB9E48CFC83D981FBBA668027B0704192FC5273
310
99EF336C7A57EE503EF45C7171C6FAA552A4B1A12802470131D5DB96A07311FA8B5BD3FB78BFDE2D453A384D3C636986592E9C4ED851F2058EACAF424B9AACDDCB72620308A394AA771E94F21534FF09B2C78115B01B23BBC96EA2D7E60C257C93B2186C638C8CC108FE8D0C5BFE17BF6BBFDC61B5B969BD2E7D42980A555D
310
FEB83E9B32485D69FE6BEAF4DC6770F89439FAD5324014FCF99124A020E124064DE111A4F6CD7A677A0B489C90E86117A29E0D2203BBCFF0D31D6A988355CAF0D251978046358D711F2381DAA447021B1D767A80EAC1487030535DC42EF54EDFC55D6F6E971F9705DBA0003FEA98BEC51B92901CAAE669861A3A6F4804D52E
310
6024135B4D4F0B55A50AEB80D6D8F484F72F290B413BC7465AD68D146BFE389848184A582B2A35276E3A0804B02F4A458E72DFA000928B025FC37F243CC094A204A74549B74A89C2BBAB34A11B0DD373945D9C71CBEF197E26A21581483BAC6868E2BBEA551EBE893CD221CCB7C527F05A13EA3D5C5EF1E8871E8AE12F280F
310
B66F632DE5BAC10C72458843AD9D4A0BEB436108529A327FBDF755CE3C89FCBD1178904E95E5040AC4A28CE03239454A063F249B4DC121439FB0DFF7C5BCEE2323CBB1A746FD7F2BAC2790B7210B20A623B845C327318AB0BF416117B93AB50A9B4BC80E68863714E422CF24DFFB28F747218ECE51CD59E057EF8A1ED19473
310
92600E95EFA4F2EBDA1859909294354B9685555B8A26DC8F718EE8391A10301DCA95054C76CB0134216FF35879EF6B16AB83FE4F1EC11074A569E213686A773D74615BD3712FDEC1DB4A6C29062DA01909F6FE0B26D136EF41A90AC9D288EADA326300879B22F7D30C05E0D63D608F624518B505BA46C193A8447E50D0F772
310
108EE9C6279416B10F7F2481334C9FD0EEA7851AB8CA7D398EA1BD4379C1FA10F9301D1DD151DD473B05D6086D0885DEDB8F51D6A1F54642949D8D51295FA37704D3BA88331FC56991F47214CB697BA4866F9B55C0F6E457349DD08096C01AD073A15BAF4A6D99B3C1D5A90F07C37CDBA18946762A21255237A0C8D4109732
310
F3ED7D8EE28CAA03E251BD6D5632BB0ACFD709301DF8EF4B204E7B15AC494B0965675BEF3741AB22DB178C6833E6DB225E27889C8EC846397F44395F3DA8B2BD8AD4D5CA92A8240BA0D01555C8D0E854BDE6491376833F28F06F0B0BA63C1DF00B61BB182739121DE9A3F841BFA2D365A29B92DAB7107D416F5A9F1F9667CA
310
033B7AA37F11AD247E399382DE35173DDA11A9D211AAAB38E44093096EA5BDC0F979D4A9CF477E1E75E0580DF95F9D8120A865D6D3BE22FCF38CA38E8EE51F3CF1CCF67FA2BD98F9E816545AAB31B70A84EB9F753CA9EAA66856DEE37822072B156A55DD4EB6589088CB62D1BB4B2C33A102ECE2F83F77135DD55991D3D68F
310
546AF6CFEB26ECA34EA871369647E2E4A80637D2F6ECEACE995DDC3983F9E5C41E4C9CBBDBC1ECEA623AB8BFBF9CCEE7CE747431AA8AB402F7DC2AE1C91208F72AF1958FC59D160B46C93CA52484694268443885530CCC147ACCFC598CB9EC500EC934D45F127AEC7E56C3D91CAD292E39D922986A530E0500C42882BCF9DC
310
F805E6A962A4796DC2A4CB7A827FDAD14C030AF0B5F92C069001E6D61A6663620A29C15B310CE1839248F43E6A53755FED12BA6994886A499F52A1E552F9430B003D620623BBC68444F2A6DF0767095EB263A01C7EAE8B1CFA3825CBE141258C247330BF928D92E44993DE4134BE2E966DC9350D8DF41AEFBFEA040A759023
310
16C921BD604CB37473FB6508C34163F1D9C86811812DFB230D1806672E445F045E045EA13133249AE9F9EFAB2F2C85EF52B1714FC0058C5F77971F7E5BCDD3384E13F568750307C010BE6E19CB2D7CAB0A57D0FA61F14580AFC623DB59C949BCFE38E0AF11C7160AF9133C7087052395A21BE607BF3CAA1A7AE63A14A66879
310
E8E2D6D07911DA5A05743498565FE60C8821F10D48448C8CF352DA5787F143B91458653046F7FE05504B030414000608000027653D44000000000000000000000000350000006662782F36433634444339312D323446462D344434342D384346302D3639303732334230334444382F76657274696365732E62696E504B0304
310
14000608080027653D44F270F1330600000004000000360000006662782F36433634444339312D323446462D344434342D384346302D3639303732334230334444382F747269616E676C65732E62696E636660600000504B030414000608000027653D44000000000000000000000000370000006662782F36433634444339
310
312D323446462D344434342D384346302D3639303732334230334444382F617474726962757465732E62696E504B030414000608080027653D44B28BD8DE8F00000041010000360000006662782F36433634444339312D323446462D344434342D384346302D3639303732334230334444382F6469726563746F72792E786D
310
6C858F410EC2201045AF4266AF15DDB800BA74E7C21B903225242D6328188F2FA5C4183471359997F9FF81E89FF3C41E1816475E02DF1F80A11FC8386F25A438EECEC07A250251FC3803E6F58C12560C4AD840E95E91C151A72936F496F35732D860FE635F62C8F2DA16B505C545B74125BAA2FA9E05D7CC053D063734D5A7
310
665FD55B6B8D15D5F1BFEAFD8490FFA45E504B030414000608080027653D44E140B24AFD000000A00100003B0000006662782F36433634444339312D323446462D344434342D384346302D3639303732334230334444382F7265736F75726365732F636F72652E786D6C8D504B6E833010BD0A9A6D65B08128808CA3A82427
310
E8052C332156828DFCA97AFC9A40A576D7CDCCE87D344F8F9FBEE667F689CE6B6B7A6039850C8DB2A336530F31DC4803D94970676DF82583CCC8197B5861107C72362E3BA4AC096842428D1D7107A5F7182053CF74F4E0D51D6799CB1892C23FF245AA879C306779A2934E701F5C0A906D4FD609C2A1B7D129F4BCD858C163
310
D4E3AED163FAA96F1A1D88E6721CE8706848D5504AEAEB9591B67E6F08ABE8706986333B9E5B5EAC66C1839E7F322A8732E008A2A4AC269491B2FD606557B38E1DDE28EB28E5C52AFF638ACBF84F53D42654E51E77B379102C05791182176B5F69BDCA4C7BED567C03504B010214000A000008000027653D443DEE336E7900
310
0000790000001B00000000000000000000000000000000006175746F6465736B2D64657369676E2D7061636B6167652E786D6C504B0102140014000608080027653D44D486FD9CA0000000F40000001300000000000000000000000000B20000005B436F6E74656E745F54797065735D2E786D6C504B010214001400060808
310
0027653D44F2EB9CD2EB0000007C010000080000000000000000000000000083010000636F72652E786D6C504B0102140014000608080027653D4455019EA25F0000007C000000070000000000000000000000000094020000636E782E786D6C504B0102140014000608080027653D44182FE4B766010000020300000C0000
310
0000000000000000000000180300006662782F636F72652E786D6C504B0102140014000608080027653D447A1F25067D0000009D0000000B00000000000000000000000000A80400006662782F636E782E786D6C504B0102140014000608080027653D44567E815F2B0100001502000031000000000000000000000000004E
310
0500006662782F36433634444339312D323446462D344434342D384346302D3639303732334230334444382F636F72652E786D6C504B0102140014000608080027653D44ADB2AB8B56010000330300003000000000000000000000000000C80600006662782F36433634444339312D323446462D344434342D384346302D36
310
39303732334230334444382F636E782E786D6C504B0102140014000608080027653D44BCC0C8404A0700004F1C000034000000000000000000000000006C0800006662782F36433634444339312D323446462D344434342D384346302D3639303732334230334444382F6F626A656374732E786D6C504B0102140014000608
310
000027653D440000000000000000000000003500000000000000000000000000081000006662782F36433634444339312D323446462D344434342D384346302D3639303732334230334444382F76657274696365732E62696E504B0102140014000608080027653D44F270F133060000000400000036000000000000000000
310
000000005B1000006662782F36433634444339312D323446462D344434342D384346302D3639303732334230334444382F747269616E676C65732E62696E504B0102140014000608000027653D440000000000000000000000003700000000000000000000000000B51000006662782F36433634444339312D323446462D34
310
4434342D384346302D3639303732334230334444382F617474726962757465732E62696E504B0102140014000608080027653D44B28BD8DE8F0000004101000036000000000000000000000000000A1100006662782F36433634444339312D323446462D344434342D384346302D3639303732334230334444382F64697265
310
63746F72792E786D6C504B0102140014000608080027653D44E140B24AFD000000A00100003B00000000000000000000000000ED1100006662782F36433634444339312D323446462D344434342D384346302D3639303732334230334444382F7265736F75726365732F636F72652E786D6C504B0506000000000E000E0080
310
040000431300000000
  0
XRECORD
  5
17
102
{ACAD_REACTORS
330
12
102
}
330
12
100
AcDbXrecord
280
     1
270
     1
271
     1
  0
XRECORD
  5
16
102
{ACAD_REACTORS
330
12
102
}
330
12
100
AcDbXrecord
280
     1
270
     1
271
     1
  0
XRECORD
  5
18
102
{ACAD_REACTORS
330
12
102
}
330
12
100
AcDbXrecord
280
     1
270
     1
271
     1
  0
XRECORD
  5
15
102
{ACAD_REACTORS
330
12
102
}
330
12
100
AcDbXrecord
280
     1
270
     1
271
     1
  0
XRECORD
  5
3C7
102
{ACAD_REACTORS
330
22
102
}
330
22
100
AcDbXrecord
280
     1
102
MATERIAL
148
0.0
149
0.0
149
0.0
 93
        0
 94
      127
282
     0
 72
     0
 77
     0
171
     0
175
     0
179
     0
273
     0
  0
XRECORD
  5
24
102
{ACAD_REACTORS
330
22
102
}
330
22
100
AcDbXrecord
280
     1
270
     1
271
     1
  0
XRECORD
  5
23
102
{ACAD_REACTORS
330
22
102
}
330
22
100
AcDbXrecord
280
     1
270
     1
271
     1
  0
XRECORD
  5
27
102
{ACAD_REACTORS
330
22
102
}
330
22
100
AcDbXrecord
280
     1
270
     1
271
     1
  0
XRECORD
  5
26
102
{ACAD_REACTORS
330
22
102
}
330
22
100
AcDbXrecord
280
     1
270
     1
271
     1
  0
XRECORD
  5
28
102
{ACAD_REACTORS
330
22
102
}
330
22
100
AcDbXrecord
280
     1
270
     1
271
     1
  0
XRECORD
  5
25
102
{ACAD_REACTORS
330
22
102
}
330
22
100
AcDbXrecord
280
     1
270
     1
271
     1
  0
CELLSTYLEMAP
  5
990
102
{ACAD_REACTORS
330
3C1
102
}
330
3C1
100
AcDbCellStyleMap
 90
        3
300
CELLSTYLE
  1
TABLEFORMAT_BEGIN
 90
        5
170
     1
 91
        0
 92
    32768
 62
   257
 93
        1
300
CONTENTFORMAT
  1
CONTENTFORMAT_BEGIN
 90
        0
 91
        0
 92
      512
 93
        0
300

 40
0.0
140
1.0
 94
        5
 62
     0
340
55
144
0.25
309
CONTENTFORMAT_END
171
     1
301
MARGIN
  1
CELLMARGIN_BEGIN
 40
0.06
 40
0.06
 40
0.06
 40
0.06
 40
0.18
 40
0.18
309
CELLMARGIN_END
 94
        6
 95
        1
302
GRIDFORMAT
  1
GRIDFORMAT_BEGIN
 90
        0
 91
        1
 62
     0
 92
       -2
340
0
 93
        0
 40
0.045
309
GRIDFORMAT_END
 95
        2
302
GRIDFORMAT
  1
GRIDFORMAT_BEGIN
 90
        0
 91
        1
 62
     0
 92
       -2
340
0
 93
        0
 40
0.045
309
GRIDFORMAT_END
 95
        4
302
GRIDFORMAT
  1
GRIDFORMAT_BEGIN
 90
        0
 91
        1
 62
     0
 92
       -2
340
0
 93
        0
 40
0.045
309
GRIDFORMAT_END
 95
        8
302
GRIDFORMAT
  1
GRIDFORMAT_BEGIN
 90
        0
 91
        1
 62
     0
 92
       -2
340
0
 93
        0
 40
0.045
309
GRIDFORMAT_END
 95
       16
302
GRIDFORMAT
  1
GRIDFORMAT_BEGIN
 90
        0
 91
        1
 62
     0
 92
       -2
340
0
 93
        0
 40
0.045
309
GRIDFORMAT_END
 95
       32
302
GRIDFORMAT
  1
GRIDFORMAT_BEGIN
 90
        0
 91
        1
 62
     0
 92
       -2
340
0
 93
        0
 40
0.045
309
GRIDFORMAT_END
309
TABLEFORMAT_END
  1
CELLSTYLE_BEGIN
 90
        1
 91
        1
300
_TITLE
309
CELLSTYLE_END
300
CELLSTYLE
  1
TABLEFORMAT_BEGIN
 90
        5
170
     1
 91
        0
 92
        0
 62
   257
 93
        1
300
CONTENTFORMAT
  1
CONTENTFORMAT_BEGIN
 90
        0
 91
        0
 92
      512
 93
        0
300

 40
0.0
140
1.0
 94
        5
 62
     0
340
55
144
0.18
309
CONTENTFORMAT_END
171
     1
301
MARGIN
  1
CELLMARGIN_BEGIN
 40
0.06
 40
0.06
 40
0.06
 40
0.06
 40
0.18
 40
0.18
309
CELLMARGIN_END
 94
        6
 95
        1
302
GRIDFORMAT
  1
GRIDFORMAT_BEGIN
 90
        0
 91
        1
 62
     0
 92
       -2
340
0
 93
        0
 40
0.045
309
GRIDFORMAT_END
 95
        2
302
GRIDFORMAT
  1
GRIDFORMAT_BEGIN
 90
        0
 91
        1
 62
     0
 92
       -2
340
0
 93
        0
 40
0.045
309
GRIDFORMAT_END
 95
        4
302
GRIDFORMAT
  1
GRIDFORMAT_BEGIN
 90
        0
 91
        1
 62
     0
 92
       -2
340
0
 93
        0
 40
0.045
309
GRIDFORMAT_END
 95
        8
302
GRIDFORMAT
  1
GRIDFORMAT_BEGIN
 90
        0
 91
        1
 62
     0
 92
       -2
340
0
 93
        0
 40
0.045
309
GRIDFORMAT_END
 95
       16
302
GRIDFORMAT
  1
GRIDFORMAT_BEGIN
 90
        0
 91
        1
 62
     0
 92
       -2
340
0
 93
        0
 40
0.045
309
GRIDFORMAT_END
 95
       32
302
GRIDFORMAT
  1
GRIDFORMAT_BEGIN
 90
        0
 91
        1
 62
     0
 92
       -2
340
0
 93
        0
 40
0.045
309
GRIDFORMAT_END
309
TABLEFORMAT_END
  1
CELLSTYLE_BEGIN
 90
        2
 91
        1
300
_HEADER
309
CELLSTYLE_END
300
CELLSTYLE
  1
TABLEFORMAT_BEGIN
 90
        5
170
     1
 91
        0
 92
        0
 62
   257
 93
        1
300
CONTENTFORMAT
  1
CONTENTFORMAT_BEGIN
 90
        0
 91
        0
 92
      512
 93
        0
300

 40
0.0
140
1.0
 94
        2
 62
     0
340
55
144
0.18
309
CONTENTFORMAT_END
171
     1
301
MARGIN
  1
CELLMARGIN_BEGIN
 40
0.06
 40
0.06
 40
0.06
 40
0.06
 40
0.18
 40
0.18
309
CELLMARGIN_END
 94
        6
 95
        1
302
GRIDFORMAT
  1
GRIDFORMAT_BEGIN
 90
        0
 91
        1
 62
     0
 92
       -2
340
0
 93
        0
 40
0.045
309
GRIDFORMAT_END
 95
        2
302
GRIDFORMAT
  1
GRIDFORMAT_BEGIN
 90
        0
 91
        1
 62
     0
 92
       -2
340
0
 93
        0
 40
0.045
309
GRIDFORMAT_END
 95
        4
302
GRIDFORMAT
  1
GRIDFORMAT_BEGIN
 90
        0
 91
        1
 62
     0
 92
       -2
340
0
 93
        0
 40
0.045
309
GRIDFORMAT_END
 95
        8
302
GRIDFORMAT
  1
GRIDFORMAT_BEGIN
 90
        0
 91
        1
 62
     0
 92
       -2
340
0
 93
        0
 40
0.045
309
GRIDFORMAT_END
 95
       16
302
GRIDFORMAT
  1
GRIDFORMAT_BEGIN
 90
        0
 91
        1
 62
     0
 92
       -2
340
0
 93
        0
 40
0.045
309
GRIDFORMAT_END
 95
       32
302
GRIDFORMAT
  1
GRIDFORMAT_BEGIN
 90
        0
 91
        1
 62
     0
 92
       -2
340
0
 93
        0
 40
0.045
309
GRIDFORMAT_END
309
TABLEFORMAT_END
  1
CELLSTYLE_BEGIN
 90
        3
 91
        2
300
_DATA
309
CELLSTYLE_END
  0
ENDSEC
  0
EOF
