  0
SECTION
  2
HEADER
  9
$ACADVER
  1
AC1015
  9
$ACADMAINTVER
 70
    20
  9
$DWGCODEPAGE
  3
ANSI_1252
  9
$INSBASE
 10
0.0
 20
0.0
 30
0.0
  9
$EXTMIN
 10
-0.0128164049386896
 20
-0.0090630292066862
 30
-0.0015258207003583
  9
$EXTMAX
 10
117.9071051183938
 20
243.6464087104499
 30
0.0000000349246037
  9
$LIMMIN
 10
0.0
 20
0.0
  9
$LIMMAX
 10
420.0
 20
297.0
  9
$ORTHOMODE
 70
     0
  9
$REGENMODE
 70
     1
  9
$FILLMODE
 70
     1
  9
$QTEXTMODE
 70
     0
  9
$MIRRTEXT
 70
     0
  9
$LTSCALE
 40
1.0
  9
$ATTMODE
 70
     1
  9
$TEXTSIZE
 40
3.5
  9
$TRACEWID
 40
1.0
  9
$TEXTSTYLE
  7
STANDARD
  9
$CLAYER
  8
AM_0
  9
$CELTYPE
  6
BYLAYER
  9
$CECOLOR
 62
   256
  9
$CELTSCALE
 40
1.0
  9
$DISPSILH
 70
     0
  9
$DIMSCALE
 40
1.0
  9
$DIMASZ
 40
2.5
  9
$DIMEXO
 40
1.0
  9
$DIMDLI
 40
10.0
  9
$DIMRND
 40
0.0
  9
$DIMDLE
 40
0.0
  9
$DIMEXE
 40
1.0
  9
$DIMTP
 40
0.1
  9
$DIMTM
 40
0.1
  9
$DIMTXT
 40
3.5
  9
$DIMCEN
 40
0.0
  9
$DIMTSZ
 40
0.0
  9
$DIMTOL
 70
     0
  9
$DIMLIM
 70
     0
  9
$DIMTIH
 70
     0
  9
$DIMTOH
 70
     0
  9
$DIMSE1
 70
     0
  9
$DIMSE2
 70
     0
  9
$DIMTAD
 70
     1
  9
$DIMZIN
 70
     8
  9
$DIMBLK
  1

  9
$DIMASO
 70
     1
  9
$DIMSHO
 70
     1
  9
$DIMPOST
  1

  9
$DIMAPOST
  1
"
  9
$DIMALT
 70
     0
  9
$DIMALTD
 70
     3
  9
$DIMALTF
 40
0.0393701
  9
$DIMLFAC
 40
1.0
  9
$DIMTOFL
 70
     1
  9
$DIMTVP
 40
0.0
  9
$DIMTIX
 70
     0
  9
$DIMSOXD
 70
     0
  9
$DIMSAH
 70
     0
  9
$DIMBLK1
  1

  9
$DIMBLK2
  1

  9
$DIMSTYLE
  2
AM_ISO
  9
$DIMCLRD
 70
   256
  9
$DIMCLRE
 70
   256
  9
$DIMCLRT
 70
     2
  9
$DIMTFAC
 40
0.71
  9
$DIMGAP
 40
1.5
  9
$DIMJUST
 70
     0
  9
$DIMSD1
 70
     0
  9
$DIMSD2
 70
     0
  9
$DIMTOLJ
 70
     0
  9
$DIMTZIN
 70
     8
  9
$DIMALTZ
 70
     0
  9
$DIMALTTZ
 70
     0
  9
$DIMUPT
 70
     0
  9
$DIMDEC
 70
     2
  9
$DIMTDEC
 70
     2
  9
$DIMALTU
 70
     2
  9
$DIMALTTD
 70
     3
  9
$DIMTXSTY
  7
STANDARD
  9
$DIMAUNIT
 70
     0
  9
$DIMADEC
 70
     0
  9
$DIMALTRND
 40
0.0
  9
$DIMAZIN
 70
     2
  9
$DIMDSEP
 70
    46
  9
$DIMATFIT
 70
     3
  9
$DIMFRAC
 70
     0
  9
$DIMLDRBLK
  1

  9
$DIMLUNIT
 70
     2
  9
$DIMLWD
 70
    -1
  9
$DIMLWE
 70
    -1
  9
$DIMTMOVE
 70
     0
  9
$LUNITS
 70
     2
  9
$LUPREC
 70
     2
  9
$SKETCHINC
 40
1.0
  9
$FILLETRAD
 40
2.5
  9
$AUNITS
 70
     0
  9
$AUPREC
 70
     0
  9
$MENU
  1
.
  9
$ELEVATION
 40
0.0
  9
$PELEVATION
 40
0.0
  9
$THICKNESS
 40
0.0
  9
$LIMCHECK
 70
     0
  9
$CHAMFERA
 40
2.5
  9
$CHAMFERB
 40
2.5
  9
$CHAMFERC
 40
20.0
  9
$CHAMFERD
 40
0.0
  9
$SKPOLY
 70
     1
  9
$TDCREATE
 40
2456269.647187732
  9
$TDUCREATE
 40
2456269.605521065
  9
$TDUPDATE
 40
2456269.648334213
  9
$TDUUPDATE
 40
2456269.606667546
  9
$TDINDWG
 40
0.0011488889
  9
$TDUSRTIMER
 40
0.0011488426
  9
$USRTIMER
 70
     1
  9
$ANGBASE
 50
0.0
  9
$ANGDIR
 70
     0
  9
$PDMODE
 70
     0
  9
$PDSIZE
 40
0.0
  9
$PLINEWID
 40
0.0
  9
$SPLFRAME
 70
     0
  9
$SPLINETYPE
 70
     6
  9
$SPLINESEGS
 70
     8
  9
$HANDSEED
  5
1604
  9
$SURFTAB1
 70
     6
  9
$SURFTAB2
 70
     6
  9
$SURFTYPE
 70
     6
  9
$SURFU
 70
     6
  9
$SURFV
 70
     6
  9
$UCSBASE
  2

  9
$UCSNAME
  2

  9
$UCSORG
 10
0.0
 20
0.0
 30
0.0
  9
$UCSXDIR
 10
1.0
 20
0.0
 30
0.0
  9
$UCSYDIR
 10
0.0
 20
1.0
 30
0.0
  9
$UCSORTHOREF
  2

  9
$UCSORTHOVIEW
 70
     0
  9
$UCSORGTOP
 10
0.0
 20
0.0
 30
0.0
  9
$UCSORGBOTTOM
 10
0.0
 20
0.0
 30
0.0
  9
$UCSORGLEFT
 10
0.0
 20
0.0
 30
0.0
  9
$UCSORGRIGHT
 10
0.0
 20
0.0
 30
0.0
  9
$UCSORGFRONT
 10
0.0
 20
0.0
 30
0.0
  9
$UCSORGBACK
 10
0.0
 20
0.0
 30
0.0
  9
$PUCSBASE
  2

  9
$PUCSNAME
  2

  9
$PUCSORG
 10
0.0
 20
0.0
 30
0.0
  9
$PUCSXDIR
 10
1.0
 20
0.0
 30
0.0
  9
$PUCSYDIR
 10
0.0
 20
1.0
 30
0.0
  9
$PUCSORTHOREF
  2

  9
$PUCSORTHOVIEW
 70
     0
  9
$PUCSORGTOP
 10
0.0
 20
0.0
 30
0.0
  9
$PUCSORGBOTTOM
 10
0.0
 20
0.0
 30
0.0
  9
$PUCSORGLEFT
 10
0.0
 20
0.0
 30
0.0
  9
$PUCSORGRIGHT
 10
0.0
 20
0.0
 30
0.0
  9
$PUCSORGFRONT
 10
0.0
 20
0.0
 30
0.0
  9
$PUCSORGBACK
 10
0.0
 20
0.0
 30
0.0
  9
$USERI1
 70
     0
  9
$USERI2
 70
     0
  9
$USERI3
 70
     0
  9
$USERI4
 70
     0
  9
$USERI5
 70
     0
  9
$USERR1
 40
0.0
  9
$USERR2
 40
0.0
  9
$USERR3
 40
0.0
  9
$USERR4
 40
0.0
  9
$USERR5
 40
0.0
  9
$WORLDVIEW
 70
     1
  9
$SHADEDGE
 70
     3
  9
$SHADEDIF
 70
    70
  9
$TILEMODE
 70
     1
  9
$MAXACTVP
 70
    48
  9
$PINSBASE
 10
0.0
 20
0.0
 30
0.0
  9
$PLIMCHECK
 70
     0
  9
$PEXTMIN
 10
1.000000000000000E+20
 20
1.000000000000000E+20
 30
1.000000000000000E+20
  9
$PEXTMAX
 10
-1.000000000000000E+20
 20
-1.000000000000000E+20
 30
-1.000000000000000E+20
  9
$PLIMMIN
 10
-0.2500002402958907
 20
-0.2499999962453767
  9
$PLIMMAX
 10
10.74999951940821
 20
8.249999763458731
  9
$UNITMODE
 70
     0
  9
$VISRETAIN
 70
     1
  9
$PLINEGEN
 70
     0
  9
$PSLTSCALE
 70
     1
  9
$TREEDEPTH
 70
  3020
  9
$CMLSTYLE
  2
STANDARD
  9
$CMLJUST
 70
     0
  9
$CMLSCALE
 40
1.0
  9
$PROXYGRAPHICS
 70
     1
  9
$MEASUREMENT
 70
     1
  9
$CELWEIGHT
370
    -1
  9
$ENDCAPS
280
     0
  9
$JOINSTYLE
280
     0
  9
$LWDISPLAY
290
     0
  9
$INSUNITS
 70
     4
  9
$HYPERLINKBASE
  1

  9
$STYLESHEET
  1
@Layout.ctb
  9
$XEDIT
290
     1
  9
$CEPSNTYPE
380
     0
  9
$PSTYLEMODE
290
     1
  9
$FINGERPRINTGUID
  2
{E8ECF3DA-59F9-4AB8-B054-0A6A27F88DA5}
  9
$VERSIONGUID
  2
{D4CC2DBA-E9D3-4FAD-B65F-CE631FB77E14}
  9
$EXTNAMES
290
     1
  9
$PSVPSCALE
 40
0.0
  9
$OLESTARTUP
290
     0
  0
ENDSEC
  0
SECTION
  2
CLASSES
  0
CLASS
  1
DICTIONARYVAR
  2
AcDbDictionaryVar
  3
ObjectDBX Classes
 90
        0
280
     0
281
     0
  0
CLASS
  1
ACMESTATEMGR
  2
AcMeStateMgr
  3
AcMeServices
 90
     1024
280
     0
281
     0
  0
CLASS
  1
ACMESCOPE
  2
AcMeScope
  3
AcMeServices
 90
     1024
280
     0
281
     0
  0
CLASS
  1
ACMECOMMANDHISTORY
  2
AcMeCommandHistory
  3
AcMeServices
 90
     1024
280
     0
281
     0
  0
CLASS
  1
ACRFINSADJUSTERMGR
  2
AcRfInsAdjusterMgr
  3
AcMeServices
 90
     1024
280
     0
281
     0
  0
CLASS
  1
ACMEDRAWINGMAN
  2
AcMeDrawingMan
  3
AcMeServices
 90
     1024
280
     0
281
     0
  0
CLASS
  1
AMATTR
  2
AcMeAttribute
  3
AcMeServices
 90
    33792
280
     0
281
     0
  0
CLASS
  1
ACMEBOMCOLUMN
  2
AcMeBOMColumn
  3
AcMeServices
 90
    33792
280
     0
281
     0
  0
CLASS
  1
ACMEBOMCONF
  2
AcMeBOMConf
  3
AcMeServices
 90
    33792
280
     0
281
     0
  0
CLASS
  1
ACMEBOMTABLE
  2
AcMeBOMTable
  3
AcMeServices
 90
    33792
280
     0
281
     0
  0
CLASS
  1
ACMEBOMENTRY
  2
AcMeBOMEntry
  3
AcMeServices
 90
    33792
280
     0
281
     0
  0
CLASS
  1
ACMEVIEW
  2
AcMeView
  3
AcMeServices
 90
    33792
280
     0
281
     0
  0
CLASS
  1
ACGREFMASTER
  2
AcGrefMaster
  3
AcAttribServices
 90
     1024
280
     0
281
     0
  0
CLASS
  1
AMIMASTER
  2
AmiMaster
  3
AmiServices
 90
     1024
280
     0
281
     0
  0
CLASS
  1
ACASGREFMASTER
  2
AcAsGrefMaster
  3
AutoSurfResolverServices
 90
     1024
280
     0
281
     0
  0
CLASS
  1
ADAPPL
  2
AcAdAppl
  3
DesignerServices
 90
     1024
280
     0
281
     0
  0
CLASS
  1
DEPMGR
  2
AcAdDepMgr
  3
DesignerServices
 90
     1024
280
     0
281
     0
  0
CLASS
  1
PARAMMGR
  2
AcAdParamMgr
  3
DesignerServices
 90
     1024
280
     0
281
     0
  0
CLASS
  1
PARAMSCOPE
  2
AcAdParamScope
  3
DesignerServices
 90
     1024
280
     0
281
     0
  0
CLASS
  1
ACIMSYSVARMAN
  2
AcImSysVarManager
  3
AcMeServices
 90
     1024
280
     0
281
     0
  0
CLASS
  1
ACIMINTSYSVAR
  2
AcImIntSysVar
  3
AcMeServices
 90
     1024
280
     0
281
     0
  0
CLASS
  1
ACIMREALSYSVAR
  2
AcImRealSysVar
  3
AcMeServices
 90
     1024
280
     0
281
     0
  0
CLASS
  1
ACIMSTRSYSVAR
  2
AcImStrSysVar
  3
AcMeServices
 90
     1024
280
     0
281
     0
  0
CLASS
  1
NAMEDAPPL
  2
AcAdNamedAppl
  3
DesignerServices
 90
     1024
280
     0
281
     0
  0
CLASS
  1
ADHNTMPLT
  2
AdHoleNoteTemplateMgr
  3
DesignerServices
 90
    33792
280
     0
281
     0
  0
CLASS
  1
AM_HNTEMPLATE_MGR_NAME
  2
AdHoleNoteTemplateMgrName
  3
DesignerServices
 90
    33792
280
     0
281
     0
  0
CLASS
  1
ACADGREFMODULE
  2
AcAdGrefModule
  3
AdGrefServices
 90
     1024
280
     0
281
     0
  0
CLASS
  1
AM_DRAWING_MGR
  2
AcDmDwgMgr
  3
AcMechDwgViewMgmt
 90
     1024
280
     0
281
     0
  0
CLASS
  1
AM_DWG_DOCUMENT
  2
AcDmDwgDocument
  3
AcMechDwgViewMgmt
 90
     1024
280
     0
281
     0
  0
CLASS
  1
AM_DWG_SHEET
  2
AcDmSheet
  3
AcMechDwgViewMgmt
 90
     1024
280
     0
281
     0
  0
CLASS
  1
AM_VIEWDIMPARMAP
  2
AcDmViewDimParMap
  3
AcMechDwgViewMgmt
 90
     1024
280
     0
281
     0
  0
CLASS
  1
AM_DWGMGR_NAME
  2
AcDmDwgMgrName
  3
AcMechDwgViewMgmt
 90
     1024
280
     0
281
     0
  0
CLASS
  1
ACAMPROJECT
  2
AcAmProject
  3
DesignerAssemblies
 90
     1024
280
     0
281
     0
  0
CLASS
  1
ACAMGRCOMPSET
  2
AcAmGrCompSet
  3
DesignerAssemblies
 90
    32768
280
     0
281
     0
  0
CLASS
  1
ACAMGRCOMPDEFSET
  2
AcAmGrCompDefSet
  3
DesignerAssemblies
 90
     1024
280
     0
281
     0
  0
CLASS
  1
ACAMGRCOMPDEF
  2
AcAmGrCompDef
  3
DesignerAssemblies
 90
     1024
280
     0
281
     0
  0
CLASS
  1
ACCMCONTEXT
  2
AcCmContext
  3
DesignerAssemblies
 90
     1024
280
     0
281
     0
  0
CLASS
  1
ACAMCOMPDEF
  2
AcAmCompDef
  3
DesignerAssemblies
 90
     1024
280
     0
281
     0
  0
CLASS
  1
ACAMCOMPDEFMGR
  2
AcAmCompDefMgr
  3
DesignerAssemblies
 90
     1024
280
     0
281
     0
  0
CLASS
  1
AMCONTEXTMGR
  2
AcAmContextMgr
  3
DesignerAssemblies
 90
     1024
280
     0
281
     0
  0
CLASS
  1
ACAMCONTEXTMODELER
  2
AcAmContextModeler
  3
DesignerAssemblies
 90
     1024
280
     0
281
     0
  0
CLASS
  1
ACDMVIEWGEOM
  2
AcDmViewGeometry
  3
AcMechDwgViewMgmt
 90
     1024
280
     0
281
     1
  0
CLASS
  1
CBROWSERAPPOBJECT
  2
CBrowserAppObject
  3
McadcomServices
 90
     1024
280
     0
281
     0
  0
CLASS
  1
IM_STATIC_MAN
  2
AcImStaticVarManager
  3
AcMeServices
 90
     1024
280
     0
281
     0
  0
CLASS
  1
ASAPP
  2
AcAsAppObject
  3
AutoSurfServices
 90
     1024
280
     0
281
     0
  0
CLASS
  1
ACIMDBLSTATICVAR
  2
AcImDblStaticVar
  3
AcMeServices
 90
     1024
280
     0
281
     0
  0
CLASS
  1
ACIMSTRSTATICVAR
  2
AcImStrStaticVar
  3
AcMeServices
 90
     1024
280
     0
281
     0
  0
CLASS
  1
ACIMINTSTATICVAR
  2
AcImIntStaticVar
  3
AcMeServices
 90
     1024
280
     0
281
     0
  0
CLASS
  1
CATALOGSTATE
  2
AcAmCatalogState
  3
DesignerAssemblies
 90
     1024
280
     0
281
     0
  0
CLASS
  1
DM_PLACEHOLDER
  2
AcDmSelsetPlaceholder
  3
AcMechDwgViewMgmt
 90
     1024
280
     0
281
     0
  0
CLASS
  1
LAYER_INDEX
  2
AcDbLayerIndex
  3
ObjectDBX Classes
 90
        0
280
     0
281
     0
  0
CLASS
  1
IDBUFFER
  2
AcDbIdBuffer
  3
ObjectDBX Classes
 90
        0
280
     0
281
     0
  0
CLASS
  1
ACMSTANDARDJIS
  2
AcmStandardJIS
  3
"Amdt_StdImp|Product Description: AutoCAD Mechanical|Company: Autodesk, Inc."
 90
    33792
280
     0
281
     0
  0
CLASS
  1
ACMSTANDARDANSI
  2
AcmStandardANSI
  3
"Amdt_StdImp|Product Description: AutoCAD Mechanical|Company: Autodesk, Inc."
 90
     1024
280
     0
281
     0
  0
CLASS
  1
ACMSTANDARDBSI
  2
AcmStandardBSI
  3
"Amdt_StdImp|Product Description: AutoCAD Mechanical|Company: Autodesk, Inc."
 90
    33792
280
     0
281
     0
  0
CLASS
  1
ACMSTANDARDDIN
  2
AcmStandardDIN
  3
"Amdt_StdImp|Product Description: AutoCAD Mechanical|Company: Autodesk, Inc."
 90
    33792
280
     0
281
     0
  0
CLASS
  1
ACMSTANDARDISO
  2
AcmStandardISO
  3
"Amdt_StdImp|Product Description: AutoCAD Mechanical|Company: Autodesk, Inc."
 90
     1024
280
     0
281
     0
  0
CLASS
  1
ACDBDICTIONARYWDFLT
  2
AcDbDictionaryWithDefault
  3
ObjectDBX Classes
 90
        0
280
     0
281
     0
  0
CLASS
  1
ACDBPLACEHOLDER
  2
AcDbPlaceHolder
  3
ObjectDBX Classes
 90
        0
280
     0
281
     0
  0
CLASS
  1
LAYOUT
  2
AcDbLayout
  3
ObjectDBX Classes
 90
        0
280
     0
281
     0
  0
CLASS
  1
ACME_DOCUMENT
  2
AcMeDbDoc
  3
AcMeServices
 90
     1024
280
     0
281
     0
  0
CLASS
  1
AMGSETTINGSOBJ
  2
AmgSettingsObj
  3
"AcadM|Product Description: AutoCAD Mechanical|Company: Autodesk, Inc."
 90
     1024
280
     0
281
     0
  0
CLASS
  1
AMGOBJPROPCFG
  2
AmgObjPropCfg
  3
"AmgLay|Product Description: AutoCAD Mechanical|Company: Autodesk, Inc."
 90
     1025
280
     0
281
     0
  0
CLASS
  1
ACDBENTITYCACHE
  2
AcMeEntityCache
  3
AcMeServices
 90
     1024
280
     0
281
     0
  0
CLASS
  1
GSMANAGER
  2
AcMeGSManager
  3
AcMeServices
 90
     1024
280
     0
281
     0
  0
CLASS
  1
AMDTINTERNALREACTOR
  2
AmdtInternalReactor
  3
AcMeServices
 90
     1024
280
     0
281
     0
  0
CLASS
  1
ACME_DATABASE
  2
AcMeDbDatabase
  3
AcMeServices
 90
     1024
280
     0
281
     0
  0
CLASS
  1
ACGREFACADMASTER
  2
AcGrefacadMaster
  3
AcGrefServices
 90
     1024
280
     0
281
     0
  0
CLASS
  1
AMDTMENUSTATEMGR
  2
AmdtMenuStateMgr
  3
McadcomServices
 90
     1024
280
     0
281
     0
  0
CLASS
  1
AMDTMCOMMENUSTATE
  2
AmdtMcomMenuState
  3
McadcomServices
 90
     1024
280
     0
281
     0
  0
CLASS
  1
MAPIADMODULE
  2
MApiAdModule
  3
MApiAdServices
 90
     1024
280
     0
281
     0
  0
CLASS
  1
AMDTDMMENUSTATE
  2
AmdtDmMenuState
  3
AcMechDwgViewMgmt
 90
     1024
280
     0
281
     0
  0
CLASS
  1
AMDTADMENUSTATE
  2
AmdtAdMenuState
  3
DesignerServices
 90
     1024
280
     0
281
     0
  0
CLASS
  1
AMDTAMMENUSTATE
  2
AmdtAmMenuState
  3
DesignerAssemblies
 90
     1024
280
     0
281
     0
  0
CLASS
  1
ACMDATADICTIONARY
  2
AcmDataDictionary
  3
"AcmSymBB|Product Description: AutoCAD Mechanical|Company: Autodesk, Inc."
 90
     1024
280
     0
281
     0
  0
CLASS
  1
ACMDATAENTRYBLOCK
  2
AcmDataEntryBlock
  3
AcmSymBB|Product Description: AutoCAD Mechanical|Company: Autodesk, Inc.
 90
     1024
280
     0
281
     0
  0
CLASS
  1
ACMSURFSTANDARDJIS
  2
AcmSurfTextStdJIS
  3
"Amdt_StdImp|Product Description: AutoCAD Mechanical|Company: Autodesk, Inc."
 90
    33792
280
     0
281
     0
  0
CLASS
  1
ACMFCFSTANDARDJIS
  2
AcmFCFStdJIS
  3
"Amdt_StdImp|Product Description: AutoCAD Mechanical|Company: Autodesk, Inc."
 90
    33792
280
     0
281
     0
  0
CLASS
  1
ACMWELDSTANDARDJIS
  2
AcmWeldingStdJIS
  3
"Amdt_StdImp|Product Description: AutoCAD Mechanical|Company: Autodesk, Inc."
 90
    33792
280
     0
281
     0
  0
CLASS
  1
ACMIDSTANDARDJIS
  2
AcmIdStdJIS
  3
"Amdt_StdImp|Product Description: AutoCAD Mechanical|Company: Autodesk, Inc."
 90
    33792
280
     0
281
     0
  0
CLASS
  1
ACMDATUMSTANDARDJIS
  2
AcmDatumStdJIS
  3
"Amdt_StdImp|Product Description: AutoCAD Mechanical|Company: Autodesk, Inc."
 90
    33792
280
     0
281
     0
  0
CLASS
  1
ACMBOMSTANDARDJIS
  2
AcmBOMStdJIS
  3
"Amdt_StdImp|Product Description: AutoCAD Mechanical|Company: Autodesk, Inc."
 90
    33792
280
     0
281
     0
  0
CLASS
  1
ACMSURFSTANDARDANSI
  2
AcmSurfTextStdANSI
  3
"Amdt_StdImp|Product Description: AutoCAD Mechanical|Company: Autodesk, Inc."
 90
     1024
280
     0
281
     0
  0
CLASS
  1
ACMFCFSTANDARDANSI
  2
AcmFCFStdANSI
  3
"Amdt_StdImp|Product Description: AutoCAD Mechanical|Company: Autodesk, Inc."
 90
     1024
280
     0
281
     0
  0
CLASS
  1
ACMWELDSTANDARDANSI
  2
AcmWeldingStdANSI
  3
"Amdt_StdImp|Product Description: AutoCAD Mechanical|Company: Autodesk, Inc."
 90
     1024
280
     0
281
     0
  0
CLASS
  1
ACMIDSTANDARDANSI
  2
AcmIdStdANSI
  3
"Amdt_StdImp|Product Description: AutoCAD Mechanical|Company: Autodesk, Inc."
 90
     1024
280
     0
281
     0
  0
CLASS
  1
ACMDATUMSTANDARDANSI
  2
AcmDatumStdANSI
  3
"Amdt_StdImp|Product Description: AutoCAD Mechanical|Company: Autodesk, Inc."
 90
     1024
280
     0
281
     0
  0
CLASS
  1
ACMBOMSTANDARDANSI
  2
AcmBOMStdANSI
  3
"Amdt_StdImp|Product Description: AutoCAD Mechanical|Company: Autodesk, Inc."
 90
     1024
280
     0
281
     0
  0
CLASS
  1
ACMSURFSTANDARDBSI
  2
AcmSurfTextStdBSI
  3
"Amdt_StdImp|Product Description: AutoCAD Mechanical|Company: Autodesk, Inc."
 90
    33792
280
     0
281
     0
  0
CLASS
  1
ACMFCFSTANDARDBSI
  2
AcmFCFStdBSI
  3
"Amdt_StdImp|Product Description: AutoCAD Mechanical|Company: Autodesk, Inc."
 90
    33792
280
     0
281
     0
  0
CLASS
  1
ACMWELDSTANDARDBSI
  2
AcmWeldingStdBSI
  3
"Amdt_StdImp|Product Description: AutoCAD Mechanical|Company: Autodesk, Inc."
 90
    33792
280
     0
281
     0
  0
CLASS
  1
ACMIDSTANDARDBSI
  2
AcmIdStdBSI
  3
"Amdt_StdImp|Product Description: AutoCAD Mechanical|Company: Autodesk, Inc."
 90
    33792
280
     0
281
     0
  0
CLASS
  1
ACMDATUMSTANDARDBSI
  2
AcmDatumStdBSI
  3
"Amdt_StdImp|Product Description: AutoCAD Mechanical|Company: Autodesk, Inc."
 90
    33792
280
     0
281
     0
  0
CLASS
  1
ACMBOMSTANDARDBSI
  2
AcmBOMStdBSI
  3
"Amdt_StdImp|Product Description: AutoCAD Mechanical|Company: Autodesk, Inc."
 90
    33792
280
     0
281
     0
  0
CLASS
  1
AMDTEDGESTANDARDDIN
  2
AmdtEdgeStdDIN
  3
"Amdt_StdImp|Product Description: AutoCAD Mechanical|Company: Autodesk, Inc."
 90
    33792
280
     0
281
     0
  0
CLASS
  1
ACMSURFSTANDARDDIN
  2
AcmSurfTextStdDIN
  3
"Amdt_StdImp|Product Description: AutoCAD Mechanical|Company: Autodesk, Inc."
 90
    33792
280
     0
281
     0
  0
CLASS
  1
ACMFCFSTANDARDDIN
  2
AcmFCFStdDIN
  3
"Amdt_StdImp|Product Description: AutoCAD Mechanical|Company: Autodesk, Inc."
 90
    33792
280
     0
281
     0
  0
CLASS
  1
ACMWELDSTANDARDDIN
  2
AcmWeldingStdDIN
  3
"Amdt_StdImp|Product Description: AutoCAD Mechanical|Company: Autodesk, Inc."
 90
    33792
280
     0
281
     0
  0
CLASS
  1
ACMIDSTANDARDDIN
  2
AcmIdStdDIN
  3
"Amdt_StdImp|Product Description: AutoCAD Mechanical|Company: Autodesk, Inc."
 90
    33792
280
     0
281
     0
  0
CLASS
  1
ACMDATUMSTANDARDDIN
  2
AcmDatumStdDIN
  3
"Amdt_StdImp|Product Description: AutoCAD Mechanical|Company: Autodesk, Inc."
 90
    33792
280
     0
281
     0
  0
CLASS
  1
ACMBOMSTANDARDDIN
  2
AcmBOMStdDIN
  3
"Amdt_StdImp|Product Description: AutoCAD Mechanical|Company: Autodesk, Inc."
 90
    33792
280
     0
281
     0
  0
CLASS
  1
ACMSURFSTANDARDISO
  2
AcmSurfTextStdISO
  3
"Amdt_StdImp|Product Description: AutoCAD Mechanical|Company: Autodesk, Inc."
 90
     1024
280
     0
281
     0
  0
CLASS
  1
ACMFCFSTANDARDISO
  2
AcmFCFStdISO
  3
"Amdt_StdImp|Product Description: AutoCAD Mechanical|Company: Autodesk, Inc."
 90
     1024
280
     0
281
     0
  0
CLASS
  1
ACMWELDSTANDARDISO
  2
AcmWeldingStdISO
  3
"Amdt_StdImp|Product Description: AutoCAD Mechanical|Company: Autodesk, Inc."
 90
     1024
280
     0
281
     0
  0
CLASS
  1
ACMIDSTANDARDISO
  2
AcmIdStdISO
  3
"Amdt_StdImp|Product Description: AutoCAD Mechanical|Company: Autodesk, Inc."
 90
     1024
280
     0
281
     0
  0
CLASS
  1
ACMDATUMSTANDARDISO
  2
AcmDatumStdISO
  3
"Amdt_StdImp|Product Description: AutoCAD Mechanical|Company: Autodesk, Inc."
 90
     1024
280
     0
281
     0
  0
CLASS
  1
ACMBOMSTANDARDISO
  2
AcmBOMStdISO
  3
"Amdt_StdImp|Product Description: AutoCAD Mechanical|Company: Autodesk, Inc."
 90
     1024
280
     0
281
     0
  0
CLASS
  1
AMDTBROWSERDBTAB
  2
AmdtBrowserDbTab
  3
McadcomServices
 90
     1024
280
     0
281
     0
  0
CLASS
  1
ACAMGFILTERDAT
  2
AcAmgFilterDat
  3
"AcadM|Product Description: AutoCAD Mechanical|Company: Autodesk, Inc."
 90
     1024
280
     0
281
     0
  0
CLASS
  1
MAPIAMMOUDLE
  2
MApiAmModule
  3
MApiAmServices
 90
     1024
280
     0
281
     0
  0
CLASS
  1
AMDTMAPISURFMOUDULE
  2
AmdtMApiSurfModule
  3
MApiSurfServices
 90
     1024
280
     0
281
     0
  0
CLASS
  1
ACAMGLAYSTD
  2
AcAmgLayStd
  3
"AmgLay|Product Description: AutoCAD Mechanical|Company: Autodesk, Inc."
 90
     1024
280
     0
281
     0
  0
CLASS
  1
ACAMGDIMSTD
  2
AcAmgDimStd
  3
"AmgDim|Product Description: AutoCAD Mechanical|Company: Autodesk, Inc."
 90
     1024
280
     0
281
     0
  0
CLASS
  1
ACAMGTITLESTD
  2
AcAmgTitleStd
  3
"AmgTitle|Product Description: AutoCAD Mechanical|Company: Autodesk, Inc."
 90
     4095
280
     0
281
     0
  0
CLASS
  1
ACMDETAILSTANDARDJIS
  2
AmdtDetailSymStdJIS
  3
"Amdt_StdImp|Product Description: AutoCAD Mechanical|Company: Autodesk, Inc."
 90
    33792
280
     0
281
     0
  0
CLASS
  1
ACMSECTIONSTANDARDJIS
  2
AmdtSectionSymStdJIS
  3
"Amdt_StdImp|Product Description: AutoCAD Mechanical|Company: Autodesk, Inc."
 90
    33792
280
     0
281
     0
  0
CLASS
  1
ACMCENTERLINESTANDARDJIS
  2
AmdtCenterLineStdJIS
  3
"Amdt_StdImp|Product Description: AutoCAD Mechanical|Company: Autodesk, Inc."
 90
    33792
280
     0
281
     0
  0
CLASS
  1
ACMTHREADLINESTANDARDJIS
  2
AmdtThreadLineStdJIS
  3
"Amdt_StdImp|Product Description: AutoCAD Mechanical|Company: Autodesk, Inc."
 90
    33792
280
     0
281
     0
  0
CLASS
  1
ACMDETAILSTANDARDANSI
  2
AmdtDetailSymStdANSI
  3
"Amdt_StdImp|Product Description: AutoCAD Mechanical|Company: Autodesk, Inc."
 90
     1024
280
     0
281
     0
  0
CLASS
  1
ACMSECTIONSTANDARDANSI
  2
AmdtSectionSymStdANSI
  3
"Amdt_StdImp|Product Description: AutoCAD Mechanical|Company: Autodesk, Inc."
 90
     1024
280
     0
281
     0
  0
CLASS
  1
ACMCENTERLINESTANDARDANSI
  2
AmdtCenterLineStdANSI
  3
"Amdt_StdImp|Product Description: AutoCAD Mechanical|Company: Autodesk, Inc."
 90
     1024
280
     0
281
     0
  0
CLASS
  1
ACMTHREADLINESTANDARDANSI
  2
AmdtThreadLineStdANSI
  3
"Amdt_StdImp|Product Description: AutoCAD Mechanical|Company: Autodesk, Inc."
 90
     1024
280
     0
281
     0
  0
CLASS
  1
ACMDETAILSTANDARDBSI
  2
AmdtDetailSymStdBSI
  3
"Amdt_StdImp|Product Description: AutoCAD Mechanical|Company: Autodesk, Inc."
 90
    33792
280
     0
281
     0
  0
CLASS
  1
ACMSECTIONSTANDARDBSI
  2
AmdtSectionSymStdBSI
  3
"Amdt_StdImp|Product Description: AutoCAD Mechanical|Company: Autodesk, Inc."
 90
    33792
280
     0
281
     0
  0
CLASS
  1
ACMCENTERLINESTANDARDBSI
  2
AmdtCenterLineStdBSI
  3
"Amdt_StdImp|Product Description: AutoCAD Mechanical|Company: Autodesk, Inc."
 90
    33792
280
     0
281
     0
  0
CLASS
  1
ACMTHREADLINESTANDARDBSI
  2
AmdtThreadLineStdBSI
  3
"Amdt_StdImp|Product Description: AutoCAD Mechanical|Company: Autodesk, Inc."
 90
    33792
280
     0
281
     0
  0
CLASS
  1
ACMDETAILSTANDARDDIN
  2
AmdtDetailSymStdDIN
  3
"Amdt_StdImp|Product Description: AutoCAD Mechanical|Company: Autodesk, Inc."
 90
    33792
280
     0
281
     0
  0
CLASS
  1
ACMSECTIONSTANDARDDIN
  2
AmdtSectionSymStdDIN
  3
"Amdt_StdImp|Product Description: AutoCAD Mechanical|Company: Autodesk, Inc."
 90
    33792
280
     0
281
     0
  0
CLASS
  1
ACMCENTERLINESTANDARDDIN
  2
AmdtCenterLineStdDIN
  3
"Amdt_StdImp|Product Description: AutoCAD Mechanical|Company: Autodesk, Inc."
 90
    33792
280
     0
281
     0
  0
CLASS
  1
ACMTHREADLINESTANDARDDIN
  2
AmdtThreadLineStdDIN
  3
"Amdt_StdImp|Product Description: AutoCAD Mechanical|Company: Autodesk, Inc."
 90
    33792
280
     0
281
     0
  0
CLASS
  1
AMDTEDGESTANDARDISO
  2
AmdtEdgeStdISO
  3
"Amdt_StdImp|Product Description: AutoCAD Mechanical|Company: Autodesk, Inc."
 90
     1024
280
     0
281
     0
  0
CLASS
  1
ACMDETAILSTANDARDISO
  2
AmdtDetailSymStdISO
  3
"Amdt_StdImp|Product Description: AutoCAD Mechanical|Company: Autodesk, Inc."
 90
     1024
280
     0
281
     0
  0
CLASS
  1
ACMSECTIONSTANDARDISO
  2
AmdtSectionSymStdISO
  3
"Amdt_StdImp|Product Description: AutoCAD Mechanical|Company: Autodesk, Inc."
 90
     1024
280
     0
281
     0
  0
CLASS
  1
ACMCENTERLINESTANDARDISO
  2
AmdtCenterLineStdISO
  3
"Amdt_StdImp|Product Description: AutoCAD Mechanical|Company: Autodesk, Inc."
 90
     1024
280
     0
281
     0
  0
CLASS
  1
ACMTHREADLINESTANDARDISO
  2
AmdtThreadLineStdISO
  3
"Amdt_StdImp|Product Description: AutoCAD Mechanical|Company: Autodesk, Inc."
 90
     1024
280
     0
281
     0
  0
CLASS
  1
ACMNOTESTANDARDISO
  2
AmdtNoteStdISO
  3
"Amdt_StdImp|Product Description: AutoCAD Mechanical|Company: Autodesk, Inc."
 90
     1024
280
     0
281
     0
  0
CLASS
  1
ACAMGHOLECHARTSTDISO
  2
AcAmgHoleChartStdISO
  3
AmgDim|Product Description: AutoCAD Mechanical|Company: Autodesk, Inc.
 90
     1024
280
     0
281
     0
  0
CLASS
  1
ACMNOTESTANDARDANSI
  2
AmdtNoteStdANSI
  3
"Amdt_StdImp|Product Description: AutoCAD Mechanical|Company: Autodesk, Inc."
 90
     1024
280
     0
281
     0
  0
CLASS
  1
AMDTNOTETEMPLATEDB
  2
AmdtNoteTemplateDB
  3
AcmSymBB|Product Description: AutoCAD Mechanical|Company: Autodesk, Inc.
 90
     1024
280
     0
281
     0
  0
CLASS
  1
ACAMGHOLECHARTSTDANSI
  2
AcAmgHoleChartStdANSI
  3
AmgDim|Product Description: AutoCAD Mechanical|Company: Autodesk, Inc.
 90
     1024
280
     0
281
     0
  0
CLASS
  1
TABLESTYLE
  2
AcDbTableStyle
  3
ObjectDBX Classes
 90
     4095
280
     0
281
     0
  0
CLASS
  1
ACAD_TABLE
  2
AcDbTable
  3
ObjectDBX Classes
 90
    33793
280
     0
281
     1
  0
CLASS
  1
MATERIAL
  2
AcDbMaterial
  3
ObjectDBX Classes
 90
     1153
280
     0
281
     0
  0
CLASS
  1
VISUALSTYLE
  2
AcDbVisualStyle
  3
ObjectDBX Classes
 90
     4095
280
     0
281
     0
  0
CLASS
  1
SCALE
  2
AcDbScale
  3
ObjectDBX Classes
 90
     1153
280
     0
281
     0
  0
CLASS
  1
MLEADERSTYLE
  2
AcDbMLeaderStyle
  3
ACDB_MLEADERSTYLE_CLASS
 90
     4095
280
     0
281
     0
  0
CLASS
  1
ACRFATTGENMGR
  2
AcRfAttGeneralMgr
  3
AcAttribServices
 90
     1024
280
     0
281
     0
  0
CLASS
  1
ACRFOBJATTMGR
  2
AcRfObjAttGroupMgr
  3
AcAttribServices
 90
     1024
280
     0
281
     0
  0
CLASS
  1
ACRFMCADAPIATTHOLDER
  2
AcRfMCADAPIAttHolder
  3
AcAttribServices
 90
     1024
280
     0
281
     0
  0
CLASS
  1
AMDTSYSATTR
  2
AmdtSystemAttribute
  3
AcAttribServices
 90
     1024
280
     0
281
     0
  0
CLASS
  1
ACMTAPERSTANDARDISO
  2
AcmTaperStdISO
  3
"Amdt_StdImp|Product Description: AutoCAD Mechanical|Company: Autodesk, Inc."
 90
     1024
280
     0
281
     0
  0
CLASS
  1
ACMANOOTATIONVIEWSTANDARDISO
  2
AmdtAnViewStdISO
  3
"Amdt_StdImp|Product Description: AutoCAD Mechanical|Company: Autodesk, Inc."
 90
     1024
280
     0
281
     0
  0
CLASS
  1
ACMTAPERSTANDARDANSI
  2
AcmTaperStdANSI
  3
"Amdt_StdImp|Product Description: AutoCAD Mechanical|Company: Autodesk, Inc."
 90
     1024
280
     0
281
     0
  0
CLASS
  1
ACMANOOTATIONVIEWSTANDARDANSI
  2
AmdtAnViewStdANSI
  3
"Amdt_StdImp|Product Description: AutoCAD Mechanical|Company: Autodesk, Inc."
 90
     1024
280
     0
281
     0
  0
CLASS
  1
CELLSTYLEMAP
  2
AcDbCellStyleMap
  3
ObjectDBX Classes
 90
     1152
280
     0
281
     0
  0
CLASS
  1
CAMSSTRUCTBTNSTATE
  2
StructBtnState
  3
DesignerAssemblies
 90
     1024
280
     0
281
     0
  0
CLASS
  1
DIMASSOC
  2
AcDbDimAssoc
  3
"AcDbDimAssoc|Product Desc:     AcDim ARX App For Dimension|Company:          Autodesk, Inc.|WEB Address:      www.autodesk.com"
 90
        0
280
     0
281
     0
  0
CLASS
  1
SORTENTSTABLE
  2
AcDbSortentsTable
  3
ObjectDBX Classes
 90
        0
280
     0
281
     0
  0
ENDSEC
  0
SECTION
  2
TABLES
  0
TABLE
  2
VPORT
  5
8
330
0
100
AcDbSymbolTable
 70
     1
  0
VPORT
  5
A35
330
8
100
AcDbSymbolTableRecord
100
AcDbViewportTableRecord
  2
*Active
 70
     0
 10
0.0
 20
0.0
 11
1.0
 21
1.0
 12
73.38532439382959
 22
88.60489959485812
 13
0.0
 23
0.0
 14
2.5
 24
2.5
 15
10.0
 25
10.0
 16
0.0
 26
0.0
 36
1.0
 17
0.0
 27
0.0
 37
0.0
 40
435.7666399321142
 41
1.521573604060913
 42
50.0
 43
0.0
 44
0.0
 50
0.0
 51
0.0
 71
     0
 72
   100
 73
     1
 74
     1
 75
     0
 76
     0
 77
     0
 78
     0
281
     0
 65
     0
110
0.0
120
0.0
130
0.0
111
1.0
121
0.0
131
0.0
112
0.0
122
1.0
132
0.0
 79
     0
146
0.0
  0
ENDTAB
  0
TABLE
  2
LTYPE
  5
5
330
0
100
AcDbSymbolTable
 70
    21
  0
LTYPE
  5
14
330
5
100
AcDbSymbolTableRecord
100
AcDbLinetypeTableRecord
  2
BYBLOCK
 70
     0
  3

 72
    65
 73
     0
 40
0.0
  0
LTYPE
  5
15
330
5
100
AcDbSymbolTableRecord
100
AcDbLinetypeTableRecord
  2
BYLAYER
 70
     0
  3

 72
    65
 73
     0
 40
0.0
  0
LTYPE
  5
16
330
5
100
AcDbSymbolTableRecord
100
AcDbLinetypeTableRecord
  2
CONTINUOUS
 70
     0
  3
Solid line
 72
    65
 73
     0
 40
0.0
  0
LTYPE
  5
BD
330
5
100
AcDbSymbolTableRecord
100
AcDbLinetypeTableRecord
  2
HIDDEN
 70
     0
  3
__ __ __ __ __ __ __ __ __ __ __ __ __ __ __ __
 72
    65
 73
     2
 40
0.375
 49
0.25
 74
     0
 49
-0.125
 74
     0
  0
LTYPE
  5
BF
330
5
100
AcDbSymbolTableRecord
100
AcDbLinetypeTableRecord
  2
PHANTOM2
 70
     0
  3
___ _ _ ___ _ _ ___ _ _ ___ _ _ ___ _ _ ___ _ _
 72
    65
 73
     6
 40
1.25
 49
0.625
 74
     0
 49
-0.125
 74
     0
 49
0.125
 74
     0
 49
-0.125
 74
     0
 49
0.125
 74
     0
 49
-0.125
 74
     0
  0
LTYPE
  5
CA
330
5
100
AcDbSymbolTableRecord
100
AcDbLinetypeTableRecord
  2
CENTER
 70
     0
  3
____ _ ____ _ ____ _ ____ _ ____ _ ____ _ ____ 
 72
    65
 73
     4
 40
2.0
 49
1.25
 74
     0
 49
-0.25
 74
     0
 49
0.25
 74
     0
 49
-0.25
 74
     0
  0
LTYPE
  5
14D
330
5
100
AcDbSymbolTableRecord
100
AcDbLinetypeTableRecord
  2
ACANSTGB
 70
     0
  3
__ . . __ . .
 72
    65
 73
     6
 40
0.35433070866
 49
0.15748031496
 74
     0
 49
-0.03937007874
 74
     0
 49
0.03937007874
 74
     0
 49
-0.03937007874
 74
     0
 49
0.03937007874
 74
     0
 49
-0.03937007874
 74
     0
  0
LTYPE
  5
14E
330
5
100
AcDbSymbolTableRecord
100
AcDbLinetypeTableRecord
  2
ACANSTGL
 70
     0
  3
_ _ _ _ _
 72
    65
 73
     2
 40
0.11811023622
 49
0.07874015748
 74
     0
 49
-0.03937007874
 74
     0
  0
LTYPE
  5
15B
330
5
100
AcDbSymbolTableRecord
100
AcDbLinetypeTableRecord
  2
ACISOWELD
 70
     0
  3
_ _ _ _ _
 72
    65
 73
     2
 40
2.0
 49
2.0
 74
     0
 49
-1.0
 74
     0
  0
LTYPE
  5
15C
330
5
100
AcDbSymbolTableRecord
100
AcDbLinetypeTableRecord
  2
ACISOTGB
 70
     0
  3
__ . . __ . .
 72
    65
 73
     6
 40
9.0
 49
4.0
 74
     0
 49
-1.0
 74
     0
 49
1.0
 74
     0
 49
-1.0
 74
     0
 49
1.0
 74
     0
 49
-1.0
 74
     0
  0
LTYPE
  5
15D
330
5
100
AcDbSymbolTableRecord
100
AcDbLinetypeTableRecord
  2
ACISOTGL
 70
     0
  3
_ _ _ _ _
 72
    65
 73
     2
 40
3.0
 49
2.0
 74
     0
 49
-1.0
 74
     0
  0
LTYPE
  5
175
330
5
100
AcDbSymbolTableRecord
100
AcDbLinetypeTableRecord
  2
AM_ISO02W050
 70
     0
  3
__ __ __ __ __ __ __ __ __ __ __ __ __ __ __
 72
    65
 73
     2
 40
7.5
 49
6.0
 74
     0
 49
-1.5
 74
     0
  0
LTYPE
  5
176
330
5
100
AcDbSymbolTableRecord
100
AcDbLinetypeTableRecord
  2
AM_ISO08W050
 70
     0
  3
____ . ____ . ____ . ____ . ____ . ____ . ____
 72
    65
 73
     4
 40
18.0
 49
12.0
 74
     0
 49
-1.5
 74
     0
 49
3.0
 74
     0
 49
-1.5
 74
     0
  0
LTYPE
  5
177
330
5
100
AcDbSymbolTableRecord
100
AcDbLinetypeTableRecord
  2
AM_ISO09W050
 70
     0
  3
_____ . . _____ . . _____ . . ____ .. ____
 72
    65
 73
     6
 40
22.5
 49
12.0
 74
     0
 49
-1.5
 74
     0
 49
3.0
 74
     0
 49
-1.5
 74
     0
 49
3.0
 74
     0
 49
-1.5
 74
     0
  0
LTYPE
  5
178
330
5
100
AcDbSymbolTableRecord
100
AcDbLinetypeTableRecord
  2
AM_ISO02W050x2
 70
     0
  3
 _ _ _ _ _ _ _ _ _ _ _ _
 72
    65
 73
     2
 40
3.75
 49
3.0
 74
     0
 49
-0.75
 74
     0
  0
LTYPE
  5
179
330
5
100
AcDbSymbolTableRecord
100
AcDbLinetypeTableRecord
  2
AM_ISO08W050x2
 70
     0
  3
__ . __ . __ . __ . __ . __
 72
    65
 73
     4
 40
9.0
 49
6.0
 74
     0
 49
-0.75
 74
     0
 49
1.5
 74
     0
 49
-0.75
 74
     0
  0
LTYPE
  5
17C
330
5
100
AcDbSymbolTableRecord
100
AcDbLinetypeTableRecord
  2
Amzigzag
 70
     0
  3
/\/-/\/-/\/-/\/-/\/-/\/
 72
    65
 73
     2
 40
11.0001
 49
0.0001
 74
     4
 75
   135
340
17B
 46
0.04
 50
0.0
 44
0.0
 45
0.0
 49
-11.0
 74
     0
  0
LTYPE
  5
2ED
330
5
100
AcDbSymbolTableRecord
100
AcDbLinetypeTableRecord
  2
Amconstr
 70
     0
  3
_______________________
 72
    65
 73
     2
 40
9999.0
 49
9999.0
 74
     0
 49
0.0
 74
     0
  0
LTYPE
  5
2F8
330
5
100
AcDbSymbolTableRecord
100
AcDbLinetypeTableRecord
  2
CENTER2
 70
     0
  3
Center (.5x) ___ _ ___ _ ___ _ ___ _ ___ _ ___
 72
    65
 73
     4
 40
1.125
 49
0.75
 74
     0
 49
-0.125
 74
     0
 49
0.125
 74
     0
 49
-0.125
 74
     0
  0
LTYPE
  5
2F9
330
5
100
AcDbSymbolTableRecord
100
AcDbLinetypeTableRecord
  2
HIDDEN2
 70
     0
  3
Hidden (.5x) _ _ _ _ _ _ _ _ _ _ _ _ _ _ _ _ _
 72
    65
 73
     2
 40
0.1875
 49
0.125
 74
     0
 49
-0.0625
 74
     0
  0
LTYPE
  5
2FA
330
5
100
AcDbSymbolTableRecord
100
AcDbLinetypeTableRecord
  2
Amzigzag2
 70
     0
  3
/\/-/\/-/\/-/\/-/\/-/\/
 72
    65
 73
     2
 40
0.4401
 49
0.0001
 74
     4
 75
   135
340
17B
 46
0.0016
 50
0.0
 44
0.0
 45
0.0
 49
-0.4400000000000001
 74
     0
  0
ENDTAB
  0
TABLE
  2
LAYER
  5
2
102
{ACAD_XDICTIONARY
360
592
102
}
330
0
100
AcDbSymbolTable
 70
     8
  0
LAYER
  5
F
102
{ACAD_XDICTIONARY
360
AB7
102
}
330
2
100
AcDbSymbolTableRecord
100
AcDbLayerTableRecord
  2
0
 70
     0
 62
     7
  6
CONTINUOUS
370
    -3
390
166
  0
LAYER
  5
5CF
102
{ACAD_XDICTIONARY
360
AB9
102
}
330
2
100
AcDbSymbolTableRecord
100
AcDbLayerTableRecord
  2
AM_0
 70
     0
 62
     7
  6
CONTINUOUS
370
    50
390
166
  0
LAYER
  5
C7A
102
{ACAD_XDICTIONARY
360
15F5
102
}
330
2
100
AcDbSymbolTableRecord
100
AcDbLayerTableRecord
  2
AM_5
 70
     0
 62
     3
  6
CONTINUOUS
370
    25
390
166
1001
AcAecLayerStandard
1000

1000

  0
LAYER
  5
D0F
330
2
100
AcDbSymbolTableRecord
100
AcDbLayerTableRecord
  2
Defpoints
 70
     0
 62
     7
  6
CONTINUOUS
290
     0
370
    -3
390
166
  0
ENDTAB
  0
TABLE
  2
STYLE
  5
3
330
0
100
AcDbSymbolTable
 70
     9
  0
STYLE
  5
10
330
3
100
AcDbSymbolTableRecord
100
AcDbTextStyleTableRecord
  2
STANDARD
 70
     0
 40
0.0
 41
1.0
 50
0.0
 71
     0
 42
3.5
  3
ISOCP.SHX
  4

  0
STYLE
  5
14C
330
3
100
AcDbSymbolTableRecord
100
AcDbTextStyleTableRecord
  2
ACANSGDT
 70
     0
 40
0.0
 41
1.0
 50
0.0
 71
     0
 42
3.5
  3
amgdt.shx
  4

  0
STYLE
  5
159
330
3
100
AcDbSymbolTableRecord
100
AcDbTextStyleTableRecord
  2
ACISOTS
 70
     0
 40
1.0
 41
1.0
 50
0.0
 71
     0
 42
2.5
  3
isocp.shx
  4

  0
STYLE
  5
15A
330
3
100
AcDbSymbolTableRecord
100
AcDbTextStyleTableRecord
  2
ACISOGDT
 70
     0
 40
0.0
 41
1.0
 50
0.0
 71
     0
 42
2.5
  3
amgdt.shx
  4

  0
STYLE
  5
17B
330
3
100
AcDbSymbolTableRecord
100
AcDbTextStyleTableRecord
  2

 70
     1
 40
0.0
 41
1.0
 50
0.0
 71
     0
 42
3.5
  3
ltypeshp.shx
  4

  0
STYLE
  5
425
330
3
100
AcDbSymbolTableRecord
100
AcDbTextStyleTableRecord
  2
ACANSTS
 70
     0
 40
1.0
 41
1.0
 50
0.0
 71
     0
 42
3.5
  3
romans.shx
  4

  0
ENDTAB
  0
TABLE
  2
VIEW
  5
6
330
0
100
AcDbSymbolTable
 70
     4
  0
VIEW
  5
1C8
330
6
100
AcDbSymbolTableRecord
100
AcDbViewTableRecord
  2
AMDTVIEW1
 70
     0
 40
329.0721649484536
 10
210.0
 20
164.5360824742268
 41
420.0
 11
0.0
 21
0.0
 31
1.0
 12
0.0
 22
0.0
 32
0.0
 42
50.0
 43
0.0
 44
0.0
 50
0.0
 71
     0
281
     0
 72
     0
  0
VIEW
  5
1C9
330
6
100
AcDbSymbolTableRecord
100
AcDbViewTableRecord
  2
AMDTVIEW2
 70
     0
 40
329.0721649484536
 10
210.0
 20
164.5360824742268
 41
420.0
 11
0.0
 21
0.0
 31
1.0
 12
0.0
 22
0.0
 32
0.0
 42
50.0
 43
0.0
 44
0.0
 50
0.0
 71
     0
281
     0
 72
     0
  0
VIEW
  5
1CA
330
6
100
AcDbSymbolTableRecord
100
AcDbViewTableRecord
  2
AMDTVIEW3
 70
     0
 40
329.0721649484536
 10
210.0
 20
164.5360824742268
 41
420.0
 11
0.0
 21
0.0
 31
1.0
 12
0.0
 22
0.0
 32
0.0
 42
50.0
 43
0.0
 44
0.0
 50
0.0
 71
     0
281
     0
 72
     0
  0
ENDTAB
  0
TABLE
  2
UCS
  5
7
330
0
100
AcDbSymbolTable
 70
     0
  0
ENDTAB
  0
TABLE
  2
APPID
  5
9
330
0
100
AcDbSymbolTable
 70
    20
  0
APPID
  5
11
330
9
100
AcDbSymbolTableRecord
100
AcDbRegAppTableRecord
  2
ACAD
 70
     0
  0
APPID
  5
CD
330
9
100
AcDbSymbolTableRecord
100
AcDbRegAppTableRecord
  2
AD_DRAW
 70
     0
  0
APPID
  5
E7
330
9
100
AcDbSymbolTableRecord
100
AcDbRegAppTableRecord
  2
DESIGNERASSEMBLIES
 70
     0
  0
APPID
  5
EB
330
9
100
AcDbSymbolTableRecord
100
AcDbRegAppTableRecord
  2
MCAD_NO_VIS
 70
     0
  0
APPID
  5
122
330
9
100
AcDbSymbolTableRecord
100
AcDbRegAppTableRecord
  2
ASURF_PCURVE_APPNAME
 70
     0
  0
APPID
  5
17F
330
9
100
AcDbSymbolTableRecord
100
AcDbRegAppTableRecord
  2
ACAD_TEMP_GRAPHIC
 70
     0
  0
APPID
  5
189
330
9
100
AcDbSymbolTableRecord
100
AcDbRegAppTableRecord
  2
ACATTRIBSERVICES
 70
     0
  0
APPID
  5
1C4
330
9
100
AcDbSymbolTableRecord
100
AcDbRegAppTableRecord
  2
ACADM_DIM_EDIT
 70
     0
  0
APPID
  5
1D5
330
9
100
AcDbSymbolTableRecord
100
AcDbRegAppTableRecord
  2
GENIUS_GENDIM_13
 70
     0
  0
APPID
  5
1D6
330
9
100
AcDbSymbolTableRecord
100
AcDbRegAppTableRecord
  2
GENIUS_GENDTOL_13
 70
     0
  0
APPID
  5
1D7
330
9
100
AcDbSymbolTableRecord
100
AcDbRegAppTableRecord
  2
GENIUS_GE3DTOL_13
 70
     0
  0
APPID
  5
2E9
330
9
100
AcDbSymbolTableRecord
100
AcDbRegAppTableRecord
  2
AMG_3D2D_5.0
 70
     0
  0
APPID
  5
3C0
330
9
100
AcDbSymbolTableRecord
100
AcDbRegAppTableRecord
  2
AMDT_DM_ADJ
 70
     0
  0
APPID
  5
82F
330
9
100
AcDbSymbolTableRecord
100
AcDbRegAppTableRecord
  2
ACAD_PSEXT
 70
     0
  0
APPID
  5
84A
330
9
100
AcDbSymbolTableRecord
100
AcDbRegAppTableRecord
  2
DCO15
 70
     0
  0
APPID
  5
892
330
9
100
AcDbSymbolTableRecord
100
AcDbRegAppTableRecord
  2
ACAD_DSTYLE_DIMTEXT_FILL
 70
     0
  0
APPID
  5
A74
330
9
100
AcDbSymbolTableRecord
100
AcDbRegAppTableRecord
  2
ACAD_MLEADERVER
 70
     0
  0
APPID
  5
AB1
330
9
100
AcDbSymbolTableRecord
100
AcDbRegAppTableRecord
  2
AcAecLayerStandard
 70
     0
  0
APPID
  5
D11
330
9
100
AcDbSymbolTableRecord
100
AcDbRegAppTableRecord
  2
ACAD_DSTYLE_DIMINSPECT
 70
     0
  0
APPID
  5
1603
330
9
100
AcDbSymbolTableRecord
100
AcDbRegAppTableRecord
  2
AcDbAttr
 70
     0
  0
ENDTAB
  0
TABLE
  2
DIMSTYLE
  5
A
330
0
100
AcDbSymbolTable
 70
    15
100
AcDbDimStyleTable
 71
     2
340
344
340
31B
  0
DIMSTYLE
105
31C
330
A
100
AcDbSymbolTableRecord
100
AcDbDimStyleTableRecord
  2
AM_ANSI$3
 70
     0
  4
mm
 41
0.1
 42
0.05
 43
0.5
 44
0.1
 47
0.1
 48
0.1
 78
     7
 79
     2
140
0.12
141
0.0
146
0.71
147
0.06
176
   256
177
   256
178
     2
274
     4
284
     7
288
     1
289
     0
340
10
371
    -1
372
    -1
  0
DIMSTYLE
105
31D
330
A
100
AcDbSymbolTableRecord
100
AcDbDimStyleTableRecord
  2
AM_ANSI$4
 70
     0
  4
mm
 41
0.1
 42
0.05
 43
0.5
 44
0.1
 47
0.1
 48
0.1
 78
     7
 79
     2
140
0.12
141
0.0
146
0.71
147
0.06
176
   256
177
   256
178
     2
274
     4
284
     7
288
     1
289
     0
340
10
371
    -1
372
    -1
  0
DIMSTYLE
105
31E
330
A
100
AcDbSymbolTableRecord
100
AcDbDimStyleTableRecord
  2
AM_ANSI$7
 70
     0
  4
mm
 41
0.1
 42
0.05
 43
0.5
 44
0.1
 47
0.1
 48
0.1
 78
     7
 79
     2
140
0.24
141
0.0
146
0.71
147
0.06
176
   256
177
   256
178
     2
274
     4
284
     7
340
10
371
    -1
372
    -1
  0
DIMSTYLE
105
31F
330
A
100
AcDbSymbolTableRecord
100
AcDbDimStyleTableRecord
  2
AM_ANSI$SF
 70
     0
  4
mm
 41
0.1
 42
0.05
 43
0.5
 44
0.1
 47
0.1
 48
0.1
 75
     1
 76
     1
 78
     7
 79
     2
140
0.12
141
0.0
146
0.71
147
0.06
176
   256
177
   256
178
     2
274
     4
284
     7
340
10
371
    -1
372
    -1
  0
DIMSTYLE
105
320
330
A
100
AcDbSymbolTableRecord
100
AcDbDimStyleTableRecord
  2
AM_ANSI$SH
 70
     0
  4
mm
 41
0.1
 42
0.05
 43
0.5
 44
0.1
 47
0.1
 48
0.1
 75
     1
 76
     1
 78
     7
 79
     2
140
0.12
141
0.0
146
0.71
147
0.06
173
     1
176
   256
177
   256
178
     2
274
     4
284
     7
340
10
343
2F4
371
    -1
372
    -1
  0
DIMSTYLE
105
344
330
A
100
AcDbSymbolTableRecord
100
AcDbDimStyleTableRecord
  2
AM_ISO
 70
     0
  4
"
 41
2.5
 42
1.0
 43
10.0
 44
1.0
 47
0.1
 48
0.1
 73
     0
 74
     0
 77
     1
 78
     8
 79
     2
140
3.5
141
0.0
143
0.0393701
146
0.71
147
1.5
171
     3
172
     1
176
   256
177
   256
178
     2
271
     2
272
     2
274
     3
283
     0
284
     8
340
10
371
    -1
372
    -1
  0
DIMSTYLE
105
345
330
A
100
AcDbSymbolTableRecord
100
AcDbDimStyleTableRecord
  2
AM_ISO$3
 70
     0
  4
"
 41
2.5
 42
1.0
 43
10.0
 44
1.0
 47
0.1
 48
0.1
 73
     0
 77
     1
 78
     8
 79
     2
140
3.5
141
0.0
143
0.0393701
146
0.71
147
1.5
176
   256
177
   256
178
     2
271
     2
272
     3
274
     4
283
     0
284
     8
288
     1
289
     0
340
10
371
    -1
372
    -1
  0
DIMSTYLE
105
346
330
A
100
AcDbSymbolTableRecord
100
AcDbDimStyleTableRecord
  2
AM_ISO$4
 70
     0
  4
"
 41
2.5
 42
1.0
 43
10.0
 44
1.0
 47
0.1
 48
0.1
 73
     0
 77
     1
 78
     8
 79
     2
140
3.5
141
0.0
143
0.0393701
146
0.71
147
1.5
176
   256
177
   256
178
     2
271
     2
272
     3
274
     4
283
     0
284
     8
288
     1
289
     0
340
10
371
    -1
372
    -1
  0
DIMSTYLE
105
347
330
A
100
AcDbSymbolTableRecord
100
AcDbDimStyleTableRecord
  2
AM_ISO$6
 70
     0
  4
"
 41
2.5
 42
1.0
 43
10.0
 44
1.0
 47
0.1
 48
0.1
 73
     0
 74
     0
 78
     8
 79
     2
140
3.5
141
0.0
143
0.0393701
146
0.71
147
1.5
172
     1
176
   256
177
   256
178
     2
271
     2
272
     3
274
     4
283
     0
284
     8
340
10
371
    -1
372
    -1
  0
DIMSTYLE
105
348
330
A
100
AcDbSymbolTableRecord
100
AcDbDimStyleTableRecord
  2
AM_ISO$7
 70
     0
  4
"
 41
2.5
 42
1.0
 43
10.0
 44
1.0
 47
0.1
 48
0.1
 73
     0
 74
     0
 77
     1
 78
     8
 79
     2
140
5.0
141
0.0
143
0.0393701
146
0.71
147
1.5
172
     1
176
   256
177
   256
178
     2
271
     2
272
     3
274
     4
283
     0
284
     8
340
10
371
    -1
372
    -1
  0
DIMSTYLE
105
349
330
A
100
AcDbSymbolTableRecord
100
AcDbDimStyleTableRecord
  2
AM_ISO$SF
 70
     0
  4
"
 41
2.5
 42
1.0
 43
10.0
 44
1.0
 47
0.1
 48
0.1
 73
     0
 74
     0
 75
     1
 76
     1
 77
     1
 78
     8
 79
     2
140
3.5
141
0.0
143
0.0393701
146
0.71
147
1.5
172
     1
176
   256
177
   256
178
     2
271
     2
272
     3
274
     4
283
     0
284
     8
340
10
371
    -1
372
    -1
  0
DIMSTYLE
105
34A
330
A
100
AcDbSymbolTableRecord
100
AcDbDimStyleTableRecord
  2
AM_ISO$SH
 70
     0
  4
"
 41
2.5
 42
1.0
 43
10.0
 44
1.0
 47
0.1
 48
0.1
 73
     0
 74
     0
 75
     1
 76
     1
 77
     1
 78
     8
 79
     2
140
3.5
141
0.0
143
0.0393701
144
2.0
146
0.71
147
1.5
172
     1
173
     1
176
   256
177
   256
178
     2
271
     2
272
     3
274
     4
283
     0
284
     8
340
10
343
2F4
371
    -1
372
    -1
  0
DIMSTYLE
105
31B
330
A
100
AcDbSymbolTableRecord
100
AcDbDimStyleTableRecord
  2
AM_ANSI
 70
     0
  4
mm
 41
0.1
 42
0.05
 43
0.5
 44
0.1
 47
0.1
 48
0.1
 78
     7
 79
     2
140
0.12
141
0.0
146
0.71
147
0.06
176
   256
177
   256
178
     2
274
     4
284
     7
340
10
371
    -1
372
    -1
  0
DIMSTYLE
105
11AC
102
{ACAD_REACTORS
330
13AE
330
13B1
330
13B4
330
13B7
102
}
330
A
100
AcDbSymbolTableRecord
100
AcDbDimStyleTableRecord
  2
AM_ISO$0
 70
     0
  4
"
 41
2.5
 42
1.0
 43
10.0
 44
1.0
 47
0.1
 48
0.1
 73
     0
 74
     0
 77
     1
 78
     8
 79
     2
140
3.5
141
0.0
143
0.0393701
146
0.71
147
1.5
171
     3
172
     1
176
   256
177
   256
178
     2
271
     2
272
     2
274
     3
283
     0
284
     8
340
10
371
    -1
372
    -1
  0
ENDTAB
  0
TABLE
  2
BLOCK_RECORD
  5
1
330
0
100
AcDbSymbolTable
 70
    19
  0
BLOCK_RECORD
  5
1A
102
{ACAD_XDICTIONARY
360
12A
102
}
330
1
100
AcDbSymbolTableRecord
100
AcDbBlockTableRecord
  2
*MODEL_SPACE
340
169
  0
BLOCK_RECORD
  5
17
330
1
100
AcDbSymbolTableRecord
100
AcDbBlockTableRecord
  2
*PAPER_SPACE
340
16A
  0
BLOCK_RECORD
  5
2F4
330
1
100
AcDbSymbolTableRecord
100
AcDbBlockTableRecord
  2
GENAXEH
340
0
  0
BLOCK_RECORD
  5
117C
330
1
100
AcDbSymbolTableRecord
100
AcDbBlockTableRecord
  2
*D11
340
0
  0
BLOCK_RECORD
  5
1188
330
1
100
AcDbSymbolTableRecord
100
AcDbBlockTableRecord
  2
*D12
340
0
  0
BLOCK_RECORD
  5
1194
330
1
100
AcDbSymbolTableRecord
100
AcDbBlockTableRecord
  2
*D13
340
0
  0
BLOCK_RECORD
  5
11A0
330
1
100
AcDbSymbolTableRecord
100
AcDbBlockTableRecord
  2
*D14
340
0
  0
BLOCK_RECORD
  5
11AD
330
1
100
AcDbSymbolTableRecord
100
AcDbBlockTableRecord
  2
A$C313D63AB
340
0
1001
ACAD
1000
DesignCenter Data
1002
{
1070
     1
1070
     4
1002
}
  0
BLOCK_RECORD
  5
13BE
330
1
100
AcDbSymbolTableRecord
100
AcDbBlockTableRecord
  2
info
340
0
310
2800000020000000200000000100080000000000000400000000000000000000000000000000000000000000000080000080000000808000800000008000800080800000C0C0C000C0DCC000F0CAA6000020400000206000002080000020A0000020C0000020E00000400000004020000040400000406000004080000040A0
310
000040C0000040E00000600000006020000060400000606000006080000060A0000060C0000060E00000800000008020000080400000806000008080000080A0000080C0000080E00000A0000000A0200000A0400000A0600000A0800000A0A00000A0C00000A0E00000C0000000C0200000C0400000C0600000C0800000C0
310
A00000C0C00000C0E00000E0000000E0200000E0400000E0600000E0800000E0A00000E0C00000E0E00040000000400020004000400040006000400080004000A0004000C0004000E00040200000402020004020400040206000402080004020A0004020C0004020E000404000004040200040404000404060004040800040
310
40A0004040C0004040E00040600000406020004060400040606000406080004060A0004060C0004060E00040800000408020004080400040806000408080004080A0004080C0004080E00040A0000040A0200040A0400040A0600040A0800040A0A00040A0C00040A0E00040C0000040C0200040C0400040C0600040C08000
310
40C0A00040C0C00040C0E00040E0000040E0200040E0400040E0600040E0800040E0A00040E0C00040E0E00080000000800020008000400080006000800080008000A0008000C0008000E00080200000802020008020400080206000802080008020A0008020C0008020E00080400000804020008040400080406000804080
310
008040A0008040C0008040E00080600000806020008060400080606000806080008060A0008060C0008060E00080800000808020008080400080806000808080008080A0008080C0008080E00080A0000080A0200080A0400080A0600080A0800080A0A00080A0C00080A0E00080C0000080C0200080C0400080C0600080C0
310
800080C0A00080C0C00080C0E00080E0000080E0200080E0400080E0600080E0800080E0A00080E0C00080E0E000C0000000C0002000C0004000C0006000C0008000C000A000C000C000C000E000C0200000C0202000C0204000C0206000C0208000C020A000C020C000C020E000C0400000C0402000C0404000C0406000C0
310
408000C040A000C040C000C040E000C0600000C0602000C0604000C0606000C0608000C060A000C060C000C060E000C0800000C0802000C0804000C0806000C0808000C080A000C080C000C080E000C0A00000C0A02000C0A04000C0A06000C0A08000C0A0A000C0A0C000C0A0E000C0C00000C0C02000C0C04000C0C06000
310
C0C08000C0C0A000F0FBFF00A4A0A000808080000000FF0000FF000000FFFF00FF000000FF00FF00FFFF0000FFFFFF00FFFFFFFFFFFFFFFFFFFFFFFFFFFFFFFFFFFFFFFFFFFFFFFFFFFFFFFFFFFFFFFFFFFFFFFFFFFFFFFFFFFFFFFFFFFFFFFFFFFFFFFFFFFFFFFFFFFFFFFFFFFFFFFFFFFFFFFFFFFFFFFFFFFFFFFFFFFFFF
310
FFFFFFFFFFFFFFFFFFFFFFFFFFFFFFFFFFFFFFFFFFFFFFFFFFFFFFFFFFFFFFFFFFFFFFFFFFFFFFFFFFFFFFFFFFFFFFFFFFFFFFFFFFFFFFFFFFFFFFFF00FFFFFFFFFFFFFFFFFFFFFFFFFFFFFFFFFFFFFFFFFFFFFFFFFFFFFFFFFFFF00FFFFFFFFFFFFFFFFFFFFFFFFFFFFFFFFFFFFFFFFFFFFFFFFFFFFFFFFFFFF00FFFFFFFF
310
FFFFFFFFFFFFFFFFFFFFFFFFFFFFFFFFFFFF0000000000FFFFFF00FFFFFFFF00FFFFFF00FFFF000000FFFF0000000000FFFFFFFFFFFFFF000000FFFFFFFFFF00FFFFFF00FF00FFFFFF00FFFFFF00FFFF00FFFFFFFFFFFFFF0000FFFFFFFFFF00FFFFFF00FFFFFFFFFF00FFFFFF00FFFF00FFFFFFFFFFFF00FF00FFFFFFFFFF
310
0000000000FFFFFFFFFF00FFFFFF00FFFF00FFFFFFFFFF00FFFFFF00FFFFFFFF00FFFFFF00FFFFFFFFFF00FFFFFF00FFFF00FFFFFFFF00FFFFFFFF00FFFFFFFF00FFFFFF00FFFFFFFFFF00FFFFFF00FFFF00FF00FF00FFFFFFFFFF00FFFFFFFF00FFFFFF00FFFFFFFFFF00FF0000000000FFFFFF00FFFFFFFFFFFFFF00FFFF
310
FFFFFFFFFFFFFFFFFFFFFFFFFFFFFFFFFFFFFFFF00FF00FFFFFFFFFF00FFFFFFFFFFFFFFFFFFFFFFFFFFFFFFFFFFFFFFFFFFFFFFFFFFFF00FFFFFFFF00FFFFFFFFFFFFFFFFFFFFFFFFFFFFFFFFFFFFFFFFFFFFFFFFFFFFFF00FFFFFF00FFFFFFFFFFFFFFFFFFFFFFFFFFFFFFFFFFFFFFFFFFFFFFFFFFFFFFFF00FF00FFFFFF
310
FFFF00000000FFFF00FFFFFF00FF0000000000FFFFFFFFFFFFFFFF0000FFFFFFFFFFFF00FFFF00FF00FFFF00FFFFFFFF00FFFF00FFFFFFFFFFFF000000FFFFFFFFFFFF00FFFF00FF00FF00FFFFFFFFFF00FFFF00FF0000000000FFFFFF00FFFFFFFFFF000000FFFF00000000FFFFFFFF00FFFF00FFFFFFFFFFFFFFFFFFFF00
310
FFFFFFFF00FFFF00FF00FFFFFF00FFFFFF00FFFF00FFFFFFFFFFFFFFFFFFFFFF00FFFFFF00FFFF00FF00FFFFFF00FFFFFF00FFFF00FFFFFFFFFFFFFFFFFFFFFFFF00FF00000000FFFF00000000FFFF0000000000FFFFFFFFFFFFFFFFFFFFFFFFFFFFFFFFFFFFFFFFFFFFFFFFFFFFFFFFFFFFFFFFFFFFFFFFFFFFFFFFFFFFFF
310
FFFFFFFFFFFFFFFFFFFFFFFFFFFFFFFFFFFFFFFFFFFFFFFFFFFFFFFFFFFFFFFFFFFFFFFFFFFFFFFFFFFFFFFFFFFFFFFFFFFFFFFFFFFFFFFFFFFFFFFFFFFFFFFFFFFFFFFFFFFFFFFFFFFFFFFFFFFFFFFFFFFFFFFFFFFFFFFFFFFFFFFFFFFFFFFFFFFFFFFFFFFFFFFFFFFFFFFFFFFFFFFFFFFFFFFFFFFFFFFFFFFFFFFFFFFFFF
310
FFFFFFFFFFFFFFFFFFFFFFFFFFFFFFFFFFFFFFFFFFFFFFFFFFFFFFFFFFFFFFFFFFFFFFFFFFFFFFFFFFFFFFFFFFFFFFFFFFFFFFFFFFFFFFFF
102
{BLKREFS
331
13C5
331
15EE
102
}
1001
ACAD
1000
DesignCenter Data
1002
{
1070
     1
1070
     4
1002
}
  0
BLOCK_RECORD
  5
13D3
330
1
100
AcDbSymbolTableRecord
100
AcDbBlockTableRecord
  2
COMSEALLW12FL21
340
0
310
2800000020000000200000000100080000000000000400000000000000000000000000000000000000000000000080000080000000808000800000008000800080800000C0C0C000C0DCC000F0CAA6000020400000206000002080000020A0000020C0000020E00000400000004020000040400000406000004080000040A0
310
000040C0000040E00000600000006020000060400000606000006080000060A0000060C0000060E00000800000008020000080400000806000008080000080A0000080C0000080E00000A0000000A0200000A0400000A0600000A0800000A0A00000A0C00000A0E00000C0000000C0200000C0400000C0600000C0800000C0
310
A00000C0C00000C0E00000E0000000E0200000E0400000E0600000E0800000E0A00000E0C00000E0E00040000000400020004000400040006000400080004000A0004000C0004000E00040200000402020004020400040206000402080004020A0004020C0004020E000404000004040200040404000404060004040800040
310
40A0004040C0004040E00040600000406020004060400040606000406080004060A0004060C0004060E00040800000408020004080400040806000408080004080A0004080C0004080E00040A0000040A0200040A0400040A0600040A0800040A0A00040A0C00040A0E00040C0000040C0200040C0400040C0600040C08000
310
40C0A00040C0C00040C0E00040E0000040E0200040E0400040E0600040E0800040E0A00040E0C00040E0E00080000000800020008000400080006000800080008000A0008000C0008000E00080200000802020008020400080206000802080008020A0008020C0008020E00080400000804020008040400080406000804080
310
008040A0008040C0008040E00080600000806020008060400080606000806080008060A0008060C0008060E00080800000808020008080400080806000808080008080A0008080C0008080E00080A0000080A0200080A0400080A0600080A0800080A0A00080A0C00080A0E00080C0000080C0200080C0400080C0600080C0
310
800080C0A00080C0C00080C0E00080E0000080E0200080E0400080E0600080E0800080E0A00080E0C00080E0E000C0000000C0002000C0004000C0006000C0008000C000A000C000C000C000E000C0200000C0202000C0204000C0206000C0208000C020A000C020C000C020E000C0400000C0402000C0404000C0406000C0
310
408000C040A000C040C000C040E000C0600000C0602000C0604000C0606000C0608000C060A000C060C000C060E000C0800000C0802000C0804000C0806000C0808000C080A000C080C000C080E000C0A00000C0A02000C0A04000C0A06000C0A08000C0A0A000C0A0C000C0A0E000C0C00000C0C02000C0C04000C0C06000
310
C0C08000C0C0A000F0FBFF00A4A0A000808080000000FF0000FF000000FFFF00FF000000FF00FF00FFFF0000FFFFFF000000000000000000000000000000000000000000000000000000000000000000000000000000000000000000FA000000000000000000FA000000000000000000000000000000000000000000FAFAFA
310
FAFBFBFBFAFAFAFA000000000000000000000000000000000000000000FA0000FAFBFBFBFAFA00FA000000000000000000000000000000000000000000FA0000FA00000000FA00FA000000000000000000000000000000000000FAFAFAFAFAFFFAFFFFFFFFFAFFFA000000000000000000000000000000000000FA0000FFFF
310
FFFA00000000FAFFFF000000000000000000000000000000000000FA0000FFFFFFFA00000000FAFFFF000000000000000000000000000000000000FA00FAFAFAFAFFFFFFFFFFFA00FF000000000000000000000000000000000000FA00FAFF00FFFF00000000FF00FF000000000000000000000000000000000000FA00FAFF
310
00FFFF00000000FF00FF000000000000000000000000000000000000FA00FAFF00FFFF00000000FF00FF000000000000000000000000000000000000FA00FAFF00FFFF00000000FF00FF000000000000000000000000000000000000FA00FAFF00FFFF00000000FF00FF000000000000000000000000000000000000FAFBFB
310
FF00FFFF00000000FF00FF000000000000000000000000000000000000FAFBFBFF00FFFF00000000FF00FF000000000000000000000000000000000000FBFBFBFF00FFFF00000000FF00FF000000000000000000000000000000000000FBFBFBFF00FFFF00000000FF00FF000000000000000000000000000000000000FB00
310
FAFF00FFFF00000000FF00FF000000000000000000000000000000000000FA00FAFF00FFFF00000000FF00FF000000000000000000000000000000000000FA00FAFF00FFFF00000000FF00FF000000000000000000000000000000000000FA00FAFF00FFFF00000000FF00FF000000000000000000000000000000000000FA
310
00FAFAFAFAFAFFFFFFFFFF00FF000000000000000000000000000000000000FA0000FF00FFFF00FFFF00FF00FF000000000000000000000000000000000000FA0000FF00FFFFFF00FF00FF00FF000000000000000000000000000000000000FA0000FF00FFFFFFFFFF00FF00FF000000000000000000000000000000000000
310
FA0000FF00FFFFFFFFFFFFFF00FF000000000000000000000000000000000000FA0000FF0000FFFFFFFFFFFF00FF000000000000000000000000000000000000FA0000FFFFFFFFFFFFFFFFFFFFFF000000000000000000000000000000000000FA0000FFFFFFFFFFFFFFFFFFFFFF0000000000000000000000000000000000
310
00FAFAFAFAFAFFFFFFFFFFFFFFFF000000000000000000000000000000000000000000000000000000000000000000000000000000000000
102
{BLKREFS
331
15F2
102
}
1001
ACAD
1000
DesignCenter Data
1002
{
1070
     1
1070
     4
1002
}
  0
ENDTAB
  0
ENDSEC
  0
SECTION
  2
BLOCKS
  0
BLOCK
  5
1B
330
1A
100
AcDbEntity
  8
0
100
AcDbBlockBegin
  2
*MODEL_SPACE
 70
     0
 10
0.0
 20
0.0
 30
0.0
  3
*MODEL_SPACE
  1

  0
ENDBLK
  5
1C
330
1A
100
AcDbEntity
  8
0
100
AcDbBlockEnd
  0
BLOCK
  5
18
330
17
100
AcDbEntity
 67
     1
  8
0
100
AcDbBlockBegin
  2
*PAPER_SPACE
 70
     0
 10
0.0
 20
0.0
 30
0.0
  3
*PAPER_SPACE
  1

  0
ENDBLK
  5
19
330
17
100
AcDbEntity
 67
     1
  8
0
100
AcDbBlockEnd
  0
BLOCK
  5
C49
330
2F4
100
AcDbEntity
  8
0
100
AcDbBlockBegin
  2
GENAXEH
 70
     0
 10
0.0
 20
0.0
 30
0.0
  3
GENAXEH
  1

  0
LINE
  5
C4A
330
2F4
100
AcDbEntity
  8
0
100
AcDbLine
 10
-1.0
 20
0.0
 30
0.0
 11
1.0
 21
0.0
 31
0.0
  0
ENDBLK
  5
C4B
330
2F4
100
AcDbEntity
  8
0
100
AcDbBlockEnd
  0
BLOCK
  5
117D
330
117C
100
AcDbEntity
  8
0
100
AcDbBlockBegin
  2
*D11
 70
     1
 10
0.0
 20
0.0
 30
0.0
  3
*D11
  1

  0
LINE
  5
117E
330
117C
100
AcDbEntity
  8
AM_5
100
AcDbLine
 10
173.378059642539
 20
150.1813091038517
 30
0.0
 11
173.378059642539
 21
100.3409314626753
 31
0.0
  0
LINE
  5
117F
330
117C
100
AcDbEntity
  8
AM_5
100
AcDbLine
 10
213.378059642539
 20
150.1813091038517
 30
0.0
 11
213.378059642539
 21
100.3409314626753
 31
0.0
  0
LINE
  5
1180
330
117C
100
AcDbEntity
  8
AM_5
100
AcDbLine
 10
175.878059642539
 20
101.3409314626753
 30
0.0
 11
210.878059642539
 21
101.3409314626753
 31
0.0
  0
SOLID
  5
1181
330
117C
100
AcDbEntity
  8
AM_5
100
AcDbTrace
 10
175.878059642539
 20
101.757598129342
 30
0.0
 11
175.878059642539
 21
100.9242647960087
 31
0.0
 12
173.378059642539
 22
101.3409314626753
 32
0.0
 13
173.378059642539
 23
101.3409314626753
 33
0.0
  0
SOLID
  5
1182
330
117C
100
AcDbEntity
  8
AM_5
100
AcDbTrace
 10
210.878059642539
 20
101.757598129342
 30
0.0
 11
210.878059642539
 21
100.9242647960087
 31
0.0
 12
213.378059642539
 22
101.3409314626753
 32
0.0
 13
213.378059642539
 23
101.3409314626753
 33
0.0
  0
MTEXT
  5
1183
330
117C
100
AcDbEntity
  8
AM_5
 62
     2
100
AcDbMText
 10
193.3780596425389
 20
104.7659314626753
 30
0.0
 40
3.5
 41
0.0
 71
     5
 72
     1
  1
40 [1.575"]
 73
     1
 44
1.0
1001
ACAD
1000
MTEXTBEGIN
1070
    73
1070
     1
1070
    44
1040
1.0
1070
    74
1070
     0
1000
MTEXTEND
  0
POINT
  5
1184
330
117C
100
AcDbEntity
  8
Defpoints
 62
     0
100
AcDbPoint
 10
173.378059642539
 20
151.1813091038517
 30
0.0
  0
POINT
  5
1185
330
117C
100
AcDbEntity
  8
Defpoints
 62
     0
100
AcDbPoint
 10
213.378059642539
 20
151.1813091038517
 30
0.0
  0
POINT
  5
1186
330
117C
100
AcDbEntity
  8
Defpoints
 62
     0
100
AcDbPoint
 10
213.378059642539
 20
101.3409314626753
 30
0.0
  0
ENDBLK
  5
1187
330
117C
100
AcDbEntity
  8
0
100
AcDbBlockEnd
  0
BLOCK
  5
1189
330
1188
100
AcDbEntity
  8
0
100
AcDbBlockBegin
  2
*D12
 70
     1
 10
0.0
 20
0.0
 30
0.0
  3
*D12
  1

  0
LINE
  5
118A
330
1188
100
AcDbEntity
  8
AM_5
100
AcDbLine
 10
237.378059642539
 20
124.9813091038517
 30
0.0
 11
237.378059642539
 21
90.34093146267519
 31
0.0
  0
LINE
  5
118B
330
1188
100
AcDbEntity
  8
AM_5
100
AcDbLine
 10
149.378059642539
 20
124.9813091038517
 30
0.0
 11
149.378059642539
 21
90.34093146267519
 31
0.0
  0
LINE
  5
118C
330
1188
100
AcDbEntity
  8
AM_5
100
AcDbLine
 10
234.878059642539
 20
91.34093146267519
 30
0.0
 11
151.878059642539
 21
91.34093146267519
 31
0.0
  0
SOLID
  5
118D
330
1188
100
AcDbEntity
  8
AM_5
100
AcDbTrace
 10
234.878059642539
 20
91.75759812934186
 30
0.0
 11
234.878059642539
 21
90.92426479600851
 31
0.0
 12
237.378059642539
 22
91.34093146267519
 32
0.0
 13
237.378059642539
 23
91.34093146267519
 33
0.0
  0
SOLID
  5
118E
330
1188
100
AcDbEntity
  8
AM_5
100
AcDbTrace
 10
151.878059642539
 20
91.75759812934186
 30
0.0
 11
151.878059642539
 21
90.92426479600851
 31
0.0
 12
149.378059642539
 22
91.34093146267519
 32
0.0
 13
149.378059642539
 23
91.34093146267519
 33
0.0
  0
MTEXT
  5
118F
330
1188
100
AcDbEntity
  8
AM_5
 62
     2
100
AcDbMText
 10
193.378059642539
 20
94.76593146267518
 30
0.0
 40
3.5
 41
0.0
 71
     5
 72
     1
  1
88 [3.465"]
 73
     1
 44
1.0
1001
ACAD
1000
MTEXTBEGIN
1070
    73
1070
     1
1070
    44
1040
1.0
1070
    74
1070
     0
1000
MTEXTEND
  0
POINT
  5
1190
330
1188
100
AcDbEntity
  8
Defpoints
 62
     0
100
AcDbPoint
 10
237.378059642539
 20
125.9813091038517
 30
0.0
  0
POINT
  5
1191
330
1188
100
AcDbEntity
  8
Defpoints
 62
     0
100
AcDbPoint
 10
149.378059642539
 20
125.9813091038517
 30
0.0
  0
POINT
  5
1192
330
1188
100
AcDbEntity
  8
Defpoints
 62
     0
100
AcDbPoint
 10
149.378059642539
 20
91.34093146267519
 30
0.0
  0
ENDBLK
  5
1193
330
1188
100
AcDbEntity
  8
0
100
AcDbBlockEnd
  0
BLOCK
  5
1195
330
1194
100
AcDbEntity
  8
0
100
AcDbBlockBegin
  2
*D13
 70
     1
 10
0.0
 20
0.0
 30
0.0
  3
*D13
  1

  0
LINE
  5
1196
330
1194
100
AcDbEntity
  8
AM_5
100
AcDbLine
 10
172.378059642539
 20
151.1813091038517
 30
0.0
 11
136.887759746389
 21
151.1813091038517
 31
0.0
  0
LINE
  5
1197
330
1194
100
AcDbEntity
  8
AM_5
100
AcDbLine
 10
172.378059642539
 20
271.1813091038517
 30
0.0
 11
136.887759746389
 21
271.1813091038517
 31
0.0
  0
LINE
  5
1198
330
1194
100
AcDbEntity
  8
AM_5
100
AcDbLine
 10
137.887759746389
 20
153.6813091038516
 30
0.0
 11
137.887759746389
 21
268.6813091038517
 31
0.0
  0
SOLID
  5
1199
330
1194
100
AcDbEntity
  8
AM_5
100
AcDbTrace
 10
137.4710930797223
 20
153.6813091038516
 30
0.0
 11
138.3044264130556
 21
153.6813091038516
 31
0.0
 12
137.887759746389
 22
151.1813091038517
 32
0.0
 13
137.887759746389
 23
151.1813091038517
 33
0.0
  0
SOLID
  5
119A
330
1194
100
AcDbEntity
  8
AM_5
100
AcDbTrace
 10
137.4710930797223
 20
268.6813091038517
 30
0.0
 11
138.3044264130556
 21
268.6813091038517
 31
0.0
 12
137.887759746389
 22
271.1813091038517
 32
0.0
 13
137.887759746389
 23
271.1813091038517
 33
0.0
  0
MTEXT
  5
119B
330
1194
100
AcDbEntity
  8
AM_5
 62
     2
100
AcDbMText
 10
134.4627597463889
 20
211.1813091038517
 30
0.0
 40
3.5
 41
0.0
 71
     5
 72
     1
  1
120 [4.724"]
 11
0.0000000000000001
 21
1.0
 31
0.0
 73
     1
 44
1.0
1001
ACAD
1000
MTEXTBEGIN
1070
    73
1070
     1
1070
    44
1040
1.0
1070
    74
1070
     0
1000
MTEXTEND
  0
POINT
  5
119C
330
1194
100
AcDbEntity
  8
Defpoints
 62
     0
100
AcDbPoint
 10
173.378059642539
 20
151.1813091038517
 30
0.0
  0
POINT
  5
119D
330
1194
100
AcDbEntity
  8
Defpoints
 62
     0
100
AcDbPoint
 10
173.378059642539
 20
271.1813091038517
 30
0.0
  0
POINT
  5
119E
330
1194
100
AcDbEntity
  8
Defpoints
 62
     0
100
AcDbPoint
 10
137.887759746389
 20
271.1813091038517
 30
0.0
  0
ENDBLK
  5
119F
330
1194
100
AcDbEntity
  8
0
100
AcDbBlockEnd
  0
BLOCK
  5
11A1
330
11A0
100
AcDbEntity
  8
0
100
AcDbBlockBegin
  2
*D14
 70
     1
 10
0.0
 20
0.0
 30
0.0
  3
*D14
  1

  0
LINE
  5
11A2
330
11A0
100
AcDbEntity
  8
AM_5
100
AcDbLine
 10
156.378059642539
 20
333.9813091038518
 30
0.0
 11
123.8402543880398
 21
333.9813091038518
 31
0.0
  0
LINE
  5
11A3
330
11A0
100
AcDbEntity
  8
AM_5
100
AcDbLine
 10
156.378059642539
 20
117.9813091038517
 30
0.0
 11
123.8402543880397
 21
117.9813091038517
 31
0.0
  0
LINE
  5
11A4
330
11A0
100
AcDbEntity
  8
AM_5
100
AcDbLine
 10
124.8402543880398
 20
331.4813091038518
 30
0.0
 11
124.8402543880397
 21
120.4813091038517
 31
0.0
  0
SOLID
  5
11A5
330
11A0
100
AcDbEntity
  8
AM_5
100
AcDbTrace
 10
124.4235877213731
 20
331.4813091038518
 30
0.0
 11
125.2569210547065
 21
331.4813091038518
 31
0.0
 12
124.8402543880398
 22
333.9813091038518
 32
0.0
 13
124.8402543880398
 23
333.9813091038518
 33
0.0
  0
SOLID
  5
11A6
330
11A0
100
AcDbEntity
  8
AM_5
100
AcDbTrace
 10
124.4235877213731
 20
120.4813091038517
 30
0.0
 11
125.2569210547064
 21
120.4813091038517
 31
0.0
 12
124.8402543880397
 22
117.9813091038517
 32
0.0
 13
124.8402543880397
 23
117.9813091038517
 33
0.0
  0
MTEXT
  5
11A7
330
11A0
100
AcDbEntity
  8
AM_5
 62
     2
100
AcDbMText
 10
121.4152543880397
 20
225.9813091038518
 30
0.0
 40
3.5
 41
0.0
 71
     5
 72
     1
  1
216 [8.504"]
 11
0.0000000000000001
 21
1.0
 31
0.0
 73
     1
 44
1.0
1001
ACAD
1000
MTEXTBEGIN
1070
    73
1070
     1
1070
    44
1040
1.0
1070
    74
1070
     0
1000
MTEXTEND
  0
POINT
  5
11A8
330
11A0
100
AcDbEntity
  8
Defpoints
 62
     0
100
AcDbPoint
 10
157.378059642539
 20
333.9813091038518
 30
0.0
  0
POINT
  5
11A9
330
11A0
100
AcDbEntity
  8
Defpoints
 62
     0
100
AcDbPoint
 10
157.378059642539
 20
117.9813091038517
 30
0.0
  0
POINT
  5
11AA
330
11A0
100
AcDbEntity
  8
Defpoints
 62
     0
100
AcDbPoint
 10
124.8402543880397
 20
117.9813091038517
 30
0.0
  0
ENDBLK
  5
11AB
330
11A0
100
AcDbEntity
  8
0
100
AcDbBlockEnd
  0
BLOCK
  5
13BA
330
11AD
100
AcDbEntity
  8
0
100
AcDbBlockBegin
  2
A$C313D63AB
 70
     0
 10
0.0
 20
0.0
 30
0.0
  3
A$C313D63AB
  1

  0
LINE
  5
11AE
330
11AD
100
AcDbEntity
  8
AM_0
100
AcDbLine
 10
76.90510832009929
 20
243.6403779140448
 30
0.0
 11
76.90510832009929
 21
241.6403779140448
 31
0.0
  0
LINE
  5
11AF
330
11AD
100
AcDbEntity
  8
AM_0
100
AcDbLine
 10
70.87050284633068
 20
241.6403779140448
 30
0.0
 11
70.87050284633068
 21
243.6403779140448
 31
0.0
  0
LINE
  5
11B0
330
11AD
100
AcDbEntity
  8
AM_0
100
AcDbLine
 10
29.887805583215
 20
212.6576806509292
 30
0.0
 11
31.887805583215
 21
212.6576806509292
 31
0.0
  0
LINE
  5
11B1
330
11AD
100
AcDbEntity
  8
AM_0
100
AcDbLine
 10
31.887805583215
 20
58.62307517716047
 30
0.0
 11
29.887805583215
 21
58.62307517716047
 31
0.0
  0
LINE
  5
11B2
330
11AD
100
AcDbEntity
  8
AM_0
100
AcDbLine
 10
70.87050284633068
 20
27.64037791404475
 30
0.0
 11
70.87050284633068
 21
29.64037791404475
 31
0.0
  0
LINE
  5
11B3
330
11AD
100
AcDbEntity
  8
AM_0
100
AcDbLine
 10
76.90510832009929
 20
29.64037791404475
 30
0.0
 11
76.90510832009929
 21
27.64037791404475
 31
0.0
  0
LINE
  5
11B4
330
11AD
100
AcDbEntity
  8
AM_0
100
AcDbLine
 10
117.887805583215
 20
58.62307517716047
 30
0.0
 11
115.8878055832151
 21
58.62307517716047
 31
0.0
  0
LINE
  5
11B5
330
11AD
100
AcDbEntity
  8
AM_0
100
AcDbLine
 10
115.887805583215
 20
212.6576806509292
 30
0.0
 11
117.887805583215
 21
212.6576806509292
 31
0.0
  0
LINE
  5
11B6
330
11AD
100
AcDbEntity
  8
AM_0
100
AcDbLine
 10
117.887805583215
 20
214.6579853070169
 30
0.0
 11
117.887805583215
 21
213.6581376118606
 31
0.0
  0
LINE
  5
11B7
330
11AD
100
AcDbEntity
  8
AM_0
100
AcDbLine
 10
117.887805583215
 20
212.6576806509292
 30
0.0
 11
117.887805583215
 21
213.6575283460854
 31
0.0
  0
LINE
  5
11B8
330
11AD
100
AcDbEntity
  8
AM_0
100
AcDbLine
 10
117.887805583215
 20
57.62322748200407
 30
0.0
 11
117.887805583215
 21
58.62307517716047
 31
0.0
  0
LINE
  5
11B9
330
11AD
100
AcDbEntity
  8
AM_0
100
AcDbLine
 10
117.887805583215
 20
57.62261821622906
 30
0.0
 11
117.887805583215
 21
56.62277052107265
 31
0.0
  0
LINE
  5
11BA
330
11AD
100
AcDbEntity
  8
AM_0
100
AcDbLine
 10
77.90556528103067
 20
243.6403779140448
 30
0.0
 11
78.90541297618708
 21
243.6403779140448
 31
0.0
  0
LINE
  5
11BB
330
11AD
100
AcDbEntity
  8
AM_0
100
AcDbLine
 10
77.90556528103067
 20
243.6403779140448
 30
0.0
 11
77.90556528103067
 21
241.6492570866792
 31
0.0
  0
ELLIPSE
  5
11BC
330
11AD
100
AcDbEntity
  8
AM_0
100
AcDbEllipse
 10
78.90541297618708
 20
241.6491047818356
 30
0.0
 11
1.0
 21
0.000000000000001
 31
0.0
210
0.0
220
0.0
230
1.0
 40
0.0087268677907588
 41
1.570796326795003
 42
3.124139359569187
  0
LINE
  5
11BD
330
11AD
100
AcDbEntity
  8
AM_0
100
AcDbLine
 10
78.90541297618708
 20
241.6578316496264
 30
0.0
 11
78.90541297618708
 21
243.6403779140448
 31
0.0
  0
ELLIPSE
  5
11BE
330
11AD
100
AcDbEntity
  8
AM_0
100
AcDbEllipse
 10
76.90510832009929
 20
241.6491047818356
 30
0.0
 11
0.9999999999999998
 21
0.000000000000001
 31
0.0
210
0.0
220
0.0
230
1.0
 40
0.0087268677907588
 41
4.712388980384795
 42
6.265732013152605
  0
LINE
  5
11BF
330
11AD
100
AcDbEntity
  8
AM_0
100
AcDbLine
 10
77.90495601525569
 20
241.6489524769919
 30
0.0
 11
77.90495601525569
 21
243.6403779140448
 31
0.0
  0
LINE
  5
11C0
330
11AD
100
AcDbEntity
  8
AM_0
100
AcDbLine
 10
77.90495601525569
 20
243.6403779140448
 30
0.0
 11
76.90510832009929
 21
243.6403779140448
 31
0.0
  0
ELLIPSE
  5
11C1
330
11AD
100
AcDbEntity
  8
AM_0
100
AcDbEllipse
 10
68.87019819024292
 20
241.6491047818356
 30
0.0
 11
1.0
 21
-0.000000000000011
 31
0.0
210
0.0
220
0.0
230
1.0
 40
0.0087268677907588
 41
0.0174533090139084
 42
1.570796326793653
  0
LINE
  5
11C2
330
11AD
100
AcDbEntity
  8
AM_0
100
AcDbLine
 10
69.87004588539932
 20
241.6492570866792
 30
0.0
 11
69.87004588539932
 21
243.6403779140448
 31
0.0
  0
LINE
  5
11C3
330
11AD
100
AcDbEntity
  8
AM_0
100
AcDbLine
 10
68.87019819024292
 20
243.6403779140448
 30
0.0
 11
69.87004588539932
 21
243.6403779140448
 31
0.0
  0
LINE
  5
11C4
330
11AD
100
AcDbEntity
  8
AM_0
100
AcDbLine
 10
68.87019819024292
 20
243.6403779140448
 30
0.0
 11
68.87019819024292
 21
241.6578316496264
 31
0.0
  0
LINE
  5
11C5
330
11AD
100
AcDbEntity
  8
AM_0
100
AcDbLine
 10
70.87050284633068
 20
243.6403779140448
 30
0.0
 11
69.8706551511743
 21
243.6403779140448
 31
0.0
  0
LINE
  5
11C6
330
11AD
100
AcDbEntity
  8
AM_0
100
AcDbLine
 10
69.8706551511743
 20
243.6403779140448
 30
0.0
 11
69.8706551511743
 21
241.6489524769919
 31
0.0
  0
ELLIPSE
  5
11C7
330
11AD
100
AcDbEntity
  8
AM_0
100
AcDbEllipse
 10
70.87050284633068
 20
241.6491047818356
 30
0.0
 11
0.9999999999999998
 21
-0.000000000000001
 31
0.0
210
0.0
220
0.0
230
1.0
 40
0.0087268677907588
 41
3.159045947616772
 42
4.712388980384583
  0
ELLIPSE
  5
11C8
330
11AD
100
AcDbEntity
  8
AM_0
100
AcDbEllipse
 10
115.8965324510058
 20
214.6579853070169
 30
0.0
 11
-0.0000000000000108
 21
-1.0
 31
0.0
210
0.0
220
0.0
230
1.0
 40
0.0087268677907588
 41
0.0174533090179789
 42
1.570796326793653
  0
LINE
  5
11C9
330
11AD
100
AcDbEntity
  8
AM_0
100
AcDbLine
 10
115.8966847558494
 20
213.6581376118606
 30
0.0
 11
117.887805583215
 21
213.6581376118606
 31
0.0
  0
LINE
  5
11CA
330
11AD
100
AcDbEntity
  8
AM_0
100
AcDbLine
 10
117.887805583215
 20
214.6579853070169
 30
0.0
 11
115.9052593187965
 21
214.6579853070169
 31
0.0
  0
LINE
  5
11CB
330
11AD
100
AcDbEntity
  8
AM_0
100
AcDbLine
 10
117.887805583215
 20
213.6575283460855
 30
0.0
 11
115.8963801461622
 21
213.6575283460855
 31
0.0
  0
ELLIPSE
  5
11CC
330
11AD
100
AcDbEntity
  8
AM_0
100
AcDbEllipse
 10
115.8965324510058
 20
212.6576806509292
 30
0.0
 11
-0.000000000000011
 21
-1.0
 31
0.0
210
0.0
220
0.0
230
1.0
 40
0.0087268677907588
 41
3.159045962840035
 42
4.71238898038341
  0
LINE
  5
11CD
330
11AD
100
AcDbEntity
  8
AM_0
100
AcDbLine
 10
117.887805583215
 20
57.62261821622906
 30
0.0
 11
115.8966847558494
 21
57.62261821622906
 31
0.0
  0
ELLIPSE
  5
11CE
330
11AD
100
AcDbEntity
  8
AM_0
100
AcDbEllipse
 10
115.8965324510058
 20
56.62277052107265
 30
0.0
 11
-0.0000000000000088
 21
-1.0
 31
0.0
210
0.0
220
0.0
230
1.0
 40
0.0087268677907588
 41
1.570796326793884
 42
3.124139374439102
  0
LINE
  5
11CF
330
11AD
100
AcDbEntity
  8
AM_0
100
AcDbLine
 10
115.9052593187965
 20
56.62277052107265
 30
0.0
 11
117.887805583215
 21
56.62277052107265
 31
0.0
  0
ELLIPSE
  5
11D0
330
11AD
100
AcDbEntity
  8
AM_0
100
AcDbEllipse
 10
115.8965324510058
 20
58.62307517716047
 30
0.0
 11
0.0000000000000111
 21
-1.0
 31
0.0
210
0.0
220
0.0
230
1.0
 40
0.0087268677907588
 41
4.712388980385949
 42
6.265731998161608
  0
LINE
  5
11D1
330
11AD
100
AcDbEntity
  8
AM_0
100
AcDbLine
 10
115.8963801461622
 20
57.62322748200407
 30
0.0
 11
117.887805583215
 21
57.62322748200407
 31
0.0
  0
ELLIPSE
  5
11D2
330
11AD
100
AcDbEntity
  8
AM_0
100
AcDbEllipse
 10
78.90541297618708
 20
29.63165104625405
 30
0.0
 11
-1.0
 21
0.0000000000000105
 31
0.0
210
0.0
220
0.0
230
1.0
 40
0.0087268677907588
 41
0.0174533090232298
 42
1.570796326793653
  0
LINE
  5
11D3
330
11AD
100
AcDbEntity
  8
AM_0
100
AcDbLine
 10
77.90556528103067
 20
29.63149874141034
 30
0.0
 11
77.90556528103067
 21
27.64037791404475
 31
0.0
  0
LINE
  5
11D4
330
11AD
100
AcDbEntity
  8
AM_0
100
AcDbLine
 10
78.90541297618717
 20
27.64037791404485
 30
0.0
 11
77.90556528103067
 21
27.64037791404485
 31
0.0
  0
LINE
  5
11D5
330
11AD
100
AcDbEntity
  8
AM_0
100
AcDbLine
 10
78.90541297618708
 20
27.64037791404475
 30
0.0
 11
78.90541297618708
 21
29.62292417846325
 31
0.0
  0
LINE
  5
11D6
330
11AD
100
AcDbEntity
  8
AM_0
100
AcDbLine
 10
76.90510832009929
 20
27.64037791404485
 30
0.0
 11
77.90495601525569
 21
27.64037791404485
 31
0.0
  0
LINE
  5
11D7
330
11AD
100
AcDbEntity
  8
AM_0
100
AcDbLine
 10
69.8706551511743
 20
27.64037791404475
 30
0.0
 11
70.87050284633068
 21
27.64037791404475
 31
0.0
  0
LINE
  5
11D8
330
11AD
100
AcDbEntity
  8
AM_0
100
AcDbLine
 10
69.87004588539932
 20
27.64037791404475
 30
0.0
 11
68.87019819024292
 21
27.64037791404475
 31
0.0
  0
LINE
  5
11D9
330
11AD
100
AcDbEntity
  8
AM_0
100
AcDbLine
 10
77.90495601525569
 20
27.64037791404475
 30
0.0
 11
77.90495601525569
 21
29.63180335109765
 31
0.0
  0
ELLIPSE
  5
11DA
330
11AD
100
AcDbEntity
  8
AM_0
100
AcDbEllipse
 10
76.90510832009929
 20
29.63165104625395
 30
0.0
 11
-0.9999999999999998
 21
0.0000000000000005
 31
0.0
210
0.0
220
0.0
230
1.0
 40
0.0087268677907588
 41
3.159045947620843
 42
4.712388980384583
  0
LINE
  5
11DB
330
11AD
100
AcDbEntity
  8
AM_0
100
AcDbLine
 10
69.87004588539932
 20
27.64037791404475
 30
0.0
 11
69.87004588539932
 21
29.63149874141034
 31
0.0
  0
ELLIPSE
  5
11DC
330
11AD
100
AcDbEntity
  8
AM_0
100
AcDbEllipse
 10
68.87019819024292
 20
29.63165104625395
 30
0.0
 11
-1.0
 21
-0.0000000000000015
 31
0.0
210
0.0
220
0.0
230
1.0
 40
0.0087268677907588
 41
1.570796326795003
 42
3.124139359549634
  0
LINE
  5
11DD
330
11AD
100
AcDbEntity
  8
AM_0
100
AcDbLine
 10
68.87019819024292
 20
29.62292417846325
 30
0.0
 11
68.87019819024292
 21
27.64037791404475
 31
0.0
  0
ELLIPSE
  5
11DE
330
11AD
100
AcDbEntity
  8
AM_0
100
AcDbEllipse
 10
70.87050284633068
 20
29.63165104625405
 30
0.0
 11
-0.9999999999999998
 21
-0.0000000000000015
 31
0.0
210
0.0
220
0.0
230
1.0
 40
0.0087268677907588
 41
4.712388980384795
 42
6.265732013148535
  0
LINE
  5
11DF
330
11AD
100
AcDbEntity
  8
AM_0
100
AcDbLine
 10
69.8706551511743
 20
29.63180335109765
 30
0.0
 11
69.8706551511743
 21
27.64037791404475
 31
0.0
  0
ELLIPSE
  5
11E0
330
11AD
100
AcDbEntity
  8
AM_0
100
AcDbEllipse
 10
31.87907871542419
 20
56.62277052107254
 30
0.0
 11
0.0000000000000109
 21
1.0
 31
0.0
210
0.0
220
0.0
230
1.0
 40
0.0087268677907588
 41
0.0174533090159441
 42
1.570796326793634
  0
LINE
  5
11E1
330
11AD
100
AcDbEntity
  8
AM_0
100
AcDbLine
 10
31.87892641058068
 20
57.62261821622894
 30
0.0
 11
29.887805583215
 21
57.62261821622906
 31
0.0
  0
LINE
  5
11E2
330
11AD
100
AcDbEntity
  8
AM_0
100
AcDbLine
 10
29.887805583215
 20
56.62277052107265
 30
0.0
 11
29.887805583215
 21
57.62261821622894
 31
0.0
  0
LINE
  5
11E3
330
11AD
100
AcDbEntity
  8
AM_0
100
AcDbLine
 10
29.887805583215
 20
56.62277052107265
 30
0.0
 11
31.87035184763349
 21
56.62277052107254
 31
0.0
  0
LINE
  5
11E4
330
11AD
100
AcDbEntity
  8
AM_0
100
AcDbLine
 10
29.887805583215
 20
58.62307517716047
 30
0.0
 11
29.887805583215
 21
57.62322748200407
 31
0.0
  0
LINE
  5
11E5
330
11AD
100
AcDbEntity
  8
AM_0
100
AcDbLine
 10
29.887805583215
 20
213.6575283460854
 30
0.0
 11
29.887805583215
 21
212.6576806509292
 31
0.0
  0
LINE
  5
11E6
330
11AD
100
AcDbEntity
  8
AM_0
100
AcDbLine
 10
29.887805583215
 20
213.6581376118606
 30
0.0
 11
29.887805583215
 21
214.6579853070169
 31
0.0
  0
LINE
  5
11E7
330
11AD
100
AcDbEntity
  8
AM_0
100
AcDbLine
 10
29.887805583215
 20
57.62322748200407
 30
0.0
 11
31.87923102026781
 21
57.62322748200407
 31
0.0
  0
ELLIPSE
  5
11E8
330
11AD
100
AcDbEntity
  8
AM_0
100
AcDbEllipse
 10
31.87907871542419
 20
58.62307517716047
 30
0.0
 11
0.0000000000000109
 21
1.0
 31
0.0
210
0.0
220
0.0
230
1.0
 40
0.0087268677907588
 41
3.159045962605736
 42
4.712388980383427
  0
LINE
  5
11E9
330
11AD
100
AcDbEntity
  8
AM_0
100
AcDbLine
 10
29.887805583215
 20
213.6581376118606
 30
0.0
 11
31.87892641058068
 21
213.6581376118607
 31
0.0
  0
ELLIPSE
  5
11EA
330
11AD
100
AcDbEntity
  8
AM_0
100
AcDbEllipse
 10
31.87907871542419
 20
214.6579853070169
 30
0.0
 11
0.0000000000000088
 21
1.0
 31
0.0
210
0.0
220
0.0
230
1.0
 40
0.0087268677907588
 41
1.570796326793865
 42
3.124139374439102
  0
LINE
  5
11EB
330
11AD
100
AcDbEntity
  8
AM_0
100
AcDbLine
 10
31.87035184763349
 20
214.6579853070169
 30
0.0
 11
29.887805583215
 21
214.6579853070169
 31
0.0
  0
ELLIPSE
  5
11EC
330
11AD
100
AcDbEntity
  8
AM_0
100
AcDbEllipse
 10
31.87907871542419
 20
212.6576806509292
 30
0.0
 11
-0.0000000000000112
 21
1.0
 31
0.0
210
0.0
220
0.0
230
1.0
 40
0.0087268677907588
 41
4.712388980385967
 42
6.265731997931379
  0
LINE
  5
11ED
330
11AD
100
AcDbEntity
  8
AM_0
100
AcDbLine
 10
31.87923102026781
 20
213.6575283460855
 30
0.0
 11
29.887805583215
 21
213.6575283460855
 31
0.0
  0
LINE
  5
11EE
330
11AD
100
AcDbEntity
  8
AM_0
100
AcDbLine
 10
70.87050284633068
 20
243.6403779140448
 30
0.0
 11
76.90510832009929
 21
243.6403779140448
 31
0.0
  0
LINE
  5
11EF
330
11AD
100
AcDbEntity
  8
AM_0
100
AcDbLine
 10
29.887805583215
 20
58.62307517716047
 30
0.0
 11
29.887805583215
 21
212.6576806509292
 31
0.0
  0
LINE
  5
11F0
330
11AD
100
AcDbEntity
  8
AM_0
100
AcDbLine
 10
76.90510832009929
 20
27.64037791404475
 30
0.0
 11
70.87050284633068
 21
27.64037791404475
 31
0.0
  0
LINE
  5
11F1
330
11AD
100
AcDbEntity
  8
AM_0
100
AcDbLine
 10
117.887805583215
 20
212.6576806509292
 30
0.0
 11
117.887805583215
 21
58.62307517716047
 31
0.0
  0
LINE
  5
11F2
330
11AD
100
AcDbEntity
  8
AM_0
100
AcDbLine
 10
70.87050284633068
 20
241.6403779140448
 30
0.0
 11
37.887805583215
 21
241.6403779140448
 31
0.0
  0
ARC
  5
11F3
330
11AD
100
AcDbEntity
  8
AM_0
100
AcDbCircle
 10
37.887805583215
 20
235.6403779140448
 30
0.0
 40
5.999999999999996
100
AcDbArc
 50
90.0
 51
180.0
  0
LINE
  5
11F4
330
11AD
100
AcDbEntity
  8
AM_0
100
AcDbLine
 10
31.887805583215
 20
235.6403779140448
 30
0.0
 11
31.887805583215
 21
212.6576806509292
 31
0.0
  0
LINE
  5
11F5
330
11AD
100
AcDbEntity
  8
AM_0
100
AcDbLine
 10
31.887805583215
 20
58.62307517716047
 30
0.0
 11
31.887805583215
 21
35.64037791404475
 31
0.0
  0
ARC
  5
11F6
330
11AD
100
AcDbEntity
  8
AM_0
100
AcDbCircle
 10
37.887805583215
 20
35.64037791404475
 30
0.0
 40
5.999999999999982
100
AcDbArc
 50
180.0
 51
270.0
  0
LINE
  5
11F7
330
11AD
100
AcDbEntity
  8
AM_0
100
AcDbLine
 10
37.887805583215
 20
29.64037791404475
 30
0.0
 11
70.87050284633068
 21
29.64037791404475
 31
0.0
  0
LINE
  5
11F8
330
11AD
100
AcDbEntity
  8
AM_0
100
AcDbLine
 10
76.90510832009929
 20
29.64037791404475
 30
0.0
 11
109.887805583215
 21
29.64037791404475
 31
0.0
  0
ARC
  5
11F9
330
11AD
100
AcDbEntity
  8
AM_0
100
AcDbCircle
 10
109.887805583215
 20
35.64037791404475
 30
0.0
 40
5.999999999999986
100
AcDbArc
 50
270.0
 51
0.0
  0
LINE
  5
11FA
330
11AD
100
AcDbEntity
  8
AM_0
100
AcDbLine
 10
115.8878055832151
 20
35.64037791404475
 30
0.0
 11
115.8878055832151
 21
58.62307517716047
 31
0.0
  0
LINE
  5
11FB
330
11AD
100
AcDbEntity
  8
AM_0
100
AcDbLine
 10
115.887805583215
 20
212.6576806509292
 30
0.0
 11
115.887805583215
 21
235.6403779140448
 31
0.0
  0
ARC
  5
11FC
330
11AD
100
AcDbEntity
  8
AM_0
100
AcDbCircle
 10
109.887805583215
 20
235.6403779140448
 30
0.0
 40
6.000000000000004
100
AcDbArc
 50
0.0
 51
90.0
  0
LINE
  5
11FD
330
11AD
100
AcDbEntity
  8
AM_0
100
AcDbLine
 10
109.887805583215
 20
241.6403779140448
 30
0.0
 11
76.90510832009929
 21
241.6403779140448
 31
0.0
  0
LINE
  5
11FE
330
11AD
100
AcDbEntity
  8
AM_0
100
AcDbLine
 10
117.887805583215
 20
235.6403779140448
 30
0.0
 11
117.887805583215
 21
214.6579853070169
 31
0.0
  0
LINE
  5
11FF
330
11AD
100
AcDbEntity
  8
AM_0
100
AcDbLine
 10
117.887805583215
 20
213.6575283460855
 30
0.0
 11
117.887805583215
 21
213.6581376118606
 31
0.0
  0
LINE
  5
1200
330
11AD
100
AcDbEntity
  8
AM_0
100
AcDbLine
 10
117.887805583215
 20
57.62322748200407
 30
0.0
 11
117.887805583215
 21
57.62261821622906
 31
0.0
  0
LINE
  5
1201
330
11AD
100
AcDbEntity
  8
AM_0
100
AcDbLine
 10
117.887805583215
 20
56.62277052107265
 30
0.0
 11
117.887805583215
 21
35.64037791404475
 31
0.0
  0
LINE
  5
1202
330
11AD
100
AcDbEntity
  8
AM_0
100
AcDbLine
 10
77.90495601525569
 20
241.6489524769919
 30
0.0
 11
77.90556528103067
 21
241.6492570866792
 31
0.0
  0
LINE
  5
1203
330
11AD
100
AcDbEntity
  8
AM_0
100
AcDbLine
 10
109.887805583215
 20
241.6403779140448
 30
0.0
 11
109.887805583215
 21
241.6578316496264
 31
0.0
  0
LINE
  5
1204
330
11AD
100
AcDbEntity
  8
AM_0
100
AcDbLine
 10
109.887805583215
 20
241.6578316496264
 30
0.0
 11
78.90541297618708
 21
241.6578316496264
 31
0.0
  0
LINE
  5
1205
330
11AD
100
AcDbEntity
  8
AM_0
100
AcDbLine
 10
77.90495601525569
 20
243.6403779140448
 30
0.0
 11
77.90556528103067
 21
243.6403779140448
 31
0.0
  0
LINE
  5
1206
330
11AD
100
AcDbEntity
  8
AM_0
100
AcDbLine
 10
37.887805583215
 20
243.6403779140448
 30
0.0
 11
68.87019819024292
 21
243.6403779140448
 31
0.0
  0
LINE
  5
1207
330
11AD
100
AcDbEntity
  8
AM_0
100
AcDbLine
 10
69.8706551511743
 20
243.6403779140448
 30
0.0
 11
69.87004588539932
 21
243.6403779140448
 31
0.0
  0
LINE
  5
1208
330
11AD
100
AcDbEntity
  8
AM_0
100
AcDbLine
 10
78.90541297618708
 20
243.6403779140448
 30
0.0
 11
109.887805583215
 21
243.6403779140448
 31
0.0
  0
LINE
  5
1209
330
11AD
100
AcDbEntity
  8
AM_0
100
AcDbLine
 10
69.8706551511743
 20
241.6489524769919
 30
0.0
 11
69.87004588539932
 21
241.6492570866792
 31
0.0
  0
LINE
  5
120A
330
11AD
100
AcDbEntity
  8
AM_0
100
AcDbLine
 10
115.8963801461622
 20
213.6575283460855
 30
0.0
 11
115.8966847558494
 21
213.6581376118606
 31
0.0
  0
LINE
  5
120B
330
11AD
100
AcDbEntity
  8
AM_0
100
AcDbLine
 10
115.8963801461622
 20
57.62322748200407
 30
0.0
 11
115.8966847558494
 21
57.62261821622906
 31
0.0
  0
LINE
  5
120C
330
11AD
100
AcDbEntity
  8
AM_0
100
AcDbLine
 10
115.8878055832151
 20
35.64037791404475
 30
0.0
 11
115.9052593187965
 21
35.64037791404475
 31
0.0
  0
LINE
  5
120D
330
11AD
100
AcDbEntity
  8
AM_0
100
AcDbLine
 10
115.9052593187965
 20
35.64037791404475
 30
0.0
 11
115.9052593187965
 21
56.62277052107265
 31
0.0
  0
LINE
  5
120E
330
11AD
100
AcDbEntity
  8
AM_0
100
AcDbLine
 10
109.887805583215
 20
27.64037791404475
 30
0.0
 11
78.90541297618708
 21
27.64037791404475
 31
0.0
  0
LINE
  5
120F
330
11AD
100
AcDbEntity
  8
AM_0
100
AcDbLine
 10
77.90495601525569
 20
27.64037791404475
 30
0.0
 11
77.90556528103067
 21
27.64037791404475
 31
0.0
  0
LINE
  5
1210
330
11AD
100
AcDbEntity
  8
AM_0
100
AcDbLine
 10
69.8706551511743
 20
27.64037791404475
 30
0.0
 11
69.87004588539932
 21
27.64037791404475
 31
0.0
  0
LINE
  5
1211
102
{ACAD_REACTORS
330
13B9
102
}
330
11AD
100
AcDbEntity
  8
AM_0
100
AcDbLine
 10
68.87019819024292
 20
27.64037791404475
 30
0.0
 11
37.887805583215
 21
27.64037791404475
 31
0.0
  0
LINE
  5
1212
330
11AD
100
AcDbEntity
  8
AM_0
100
AcDbLine
 10
77.90495601525569
 20
29.63180335109765
 30
0.0
 11
77.90556528103067
 21
29.63149874141034
 31
0.0
  0
LINE
  5
1213
330
11AD
100
AcDbEntity
  8
AM_0
100
AcDbLine
 10
69.8706551511743
 20
29.63180335109765
 30
0.0
 11
69.87004588539932
 21
29.63149874141034
 31
0.0
  0
LINE
  5
1214
330
11AD
100
AcDbEntity
  8
AM_0
100
AcDbLine
 10
37.887805583215
 20
29.64037791404475
 30
0.0
 11
37.887805583215
 21
29.62292417846325
 31
0.0
  0
LINE
  5
1215
330
11AD
100
AcDbEntity
  8
AM_0
100
AcDbLine
 10
37.887805583215
 20
29.62292417846325
 30
0.0
 11
68.87019819024292
 21
29.62292417846325
 31
0.0
  0
LINE
  5
1216
330
11AD
100
AcDbEntity
  8
AM_0
100
AcDbLine
 10
29.887805583215
 20
35.64037791404475
 30
0.0
 11
29.887805583215
 21
56.62277052107265
 31
0.0
  0
LINE
  5
1217
330
11AD
100
AcDbEntity
  8
AM_0
100
AcDbLine
 10
29.887805583215
 20
57.62322748200407
 30
0.0
 11
29.887805583215
 21
57.62261821622906
 31
0.0
  0
LINE
  5
1218
330
11AD
100
AcDbEntity
  8
AM_0
100
AcDbLine
 10
29.887805583215
 20
213.6575283460855
 30
0.0
 11
29.887805583215
 21
213.6581376118606
 31
0.0
  0
LINE
  5
1219
330
11AD
100
AcDbEntity
  8
AM_0
100
AcDbLine
 10
29.887805583215
 20
214.6579853070169
 30
0.0
 11
29.887805583215
 21
235.6403779140448
 31
0.0
  0
LINE
  5
121A
330
11AD
100
AcDbEntity
  8
AM_0
100
AcDbLine
 10
31.87923102026781
 20
57.62322748200407
 30
0.0
 11
31.87892641058068
 21
57.62261821622894
 31
0.0
  0
LINE
  5
121B
330
11AD
100
AcDbEntity
  8
AM_0
100
AcDbLine
 10
31.87923102026781
 20
213.6575283460855
 30
0.0
 11
31.87892641058068
 21
213.6581376118607
 31
0.0
  0
LINE
  5
121C
330
11AD
100
AcDbEntity
  8
AM_0
100
AcDbLine
 10
31.887805583215
 20
235.6403779140448
 30
0.0
 11
31.87035184763349
 21
235.6403779140448
 31
0.0
  0
LINE
  5
121D
330
11AD
100
AcDbEntity
  8
AM_0
100
AcDbLine
 10
31.87035184763349
 20
235.6403779140448
 30
0.0
 11
31.87035184763349
 21
214.6579853070169
 31
0.0
  0
LINE
  5
121E
330
11AD
100
AcDbEntity
  8
AM_0
100
AcDbLine
 10
31.87035184763349
 20
56.62277052107254
 30
0.0
 11
31.87035184763349
 21
35.64037791404475
 31
0.0
  0
LINE
  5
121F
330
11AD
100
AcDbEntity
  8
AM_0
100
AcDbLine
 10
31.887805583215
 20
35.64037791404475
 30
0.0
 11
31.87035184763349
 21
35.64037791404475
 31
0.0
  0
ARC
  5
1220
330
11AD
100
AcDbEntity
  8
AM_0
100
AcDbCircle
 10
37.887805583215
 20
35.64037791404475
 30
0.0
 40
6.017453735581521
100
AcDbArc
 50
180.0
 51
270.0
  0
ARC
  5
1221
102
{ACAD_REACTORS
330
13B3
102
}
330
11AD
100
AcDbEntity
  8
AM_0
100
AcDbCircle
 10
37.887805583215
 20
35.64037791404475
 30
0.0
 40
7.999999999999988
100
AcDbArc
 50
180.0
 51
270.0
  0
LINE
  5
1222
330
11AD
100
AcDbEntity
  8
AM_0
100
AcDbLine
 10
78.90541297618708
 20
29.62292417846325
 30
0.0
 11
109.887805583215
 21
29.62292417846325
 31
0.0
  0
LINE
  5
1223
330
11AD
100
AcDbEntity
  8
AM_0
100
AcDbLine
 10
109.887805583215
 20
29.64037791404475
 30
0.0
 11
109.887805583215
 21
29.62292417846325
 31
0.0
  0
ARC
  5
1224
330
11AD
100
AcDbEntity
  8
AM_0
100
AcDbCircle
 10
109.887805583215
 20
35.64037791404475
 30
0.0
 40
6.017453735581507
100
AcDbArc
 50
270.0
 51
0.0
  0
ARC
  5
1225
102
{ACAD_REACTORS
330
13B3
102
}
330
11AD
100
AcDbEntity
  8
AM_0
100
AcDbCircle
 10
109.887805583215
 20
35.64037791404475
 30
0.0
 40
8.000000000000001
100
AcDbArc
 50
270.0
 51
0.0
  0
LINE
  5
1226
330
11AD
100
AcDbEntity
  8
AM_0
100
AcDbLine
 10
115.9052593187965
 20
214.6579853070169
 30
0.0
 11
115.9052593187965
 21
235.6403779140448
 31
0.0
  0
LINE
  5
1227
330
11AD
100
AcDbEntity
  8
AM_0
100
AcDbLine
 10
115.887805583215
 20
235.6403779140448
 30
0.0
 11
115.9052593187965
 21
235.6403779140448
 31
0.0
  0
ARC
  5
1228
330
11AD
100
AcDbEntity
  8
AM_0
100
AcDbCircle
 10
109.887805583215
 20
235.6403779140447
 30
0.0
 40
6.017453735581521
100
AcDbArc
 50
0.0
 51
90.0
  0
ARC
  5
1229
330
11AD
100
AcDbEntity
  8
AM_0
100
AcDbCircle
 10
109.887805583215
 20
235.6403779140448
 30
0.0
 40
8.000000000000008
100
AcDbArc
 50
0.0
 51
90.0
  0
LINE
  5
122A
330
11AD
100
AcDbEntity
  8
AM_0
100
AcDbLine
 10
68.87019819024292
 20
241.6578316496264
 30
0.0
 11
37.887805583215
 21
241.6578316496264
 31
0.0
  0
LINE
  5
122B
330
11AD
100
AcDbEntity
  8
AM_0
100
AcDbLine
 10
37.887805583215
 20
241.6403779140448
 30
0.0
 11
37.887805583215
 21
241.6578316496264
 31
0.0
  0
ARC
  5
122C
330
11AD
100
AcDbEntity
  8
AM_0
100
AcDbCircle
 10
37.887805583215
 20
235.6403779140447
 30
0.0
 40
6.017453735581561
100
AcDbArc
 50
90.0
 51
180.0
  0
ARC
  5
122D
102
{ACAD_REACTORS
330
13B9
102
}
330
11AD
100
AcDbEntity
  8
AM_0
100
AcDbCircle
 10
37.887805583215
 20
235.6403779140448
 30
0.0
 40
8.000000000000008
100
AcDbArc
 50
90.0
 51
180.0
  0
LINE
  5
122E
330
11AD
100
AcDbEntity
  8
AM_0
100
AcDbLine
 10
48.56358912860781
 20
214.2147085994594
 30
0.0
 11
48.56358912860781
 21
57.06604722863014
 31
0.0
  0
ELLIPSE
  5
122F
330
11AD
100
AcDbEntity
  8
AM_0
100
AcDbEllipse
 10
51.563703363765
 20
214.2144801334949
 30
0.0
 11
-2.121481893392686
 21
2.121481893392648
 31
0.0
210
0.0
220
0.0
230
1.0
 40
0.9999238504775707
 41
5.497825219993075
 42
7.068545394366089
  0
LINE
  5
1230
330
11AD
100
AcDbEntity
  8
AM_0
100
AcDbLine
 10
96.21213626862967
 20
217.2145943686519
 30
0.0
 11
51.56347489780031
 21
217.2145943686519
 31
0.0
  0
ELLIPSE
  5
1231
330
11AD
100
AcDbEntity
  8
AM_0
100
AcDbEllipse
 10
96.21190780266491
 20
214.2144801334949
 30
0.0
 11
2.121481893392666
 21
2.121481893392666
 31
0.0
210
0.0
220
0.0
230
1.0
 40
0.9999238504775703
 41
5.497825219993084
 42
7.068545394366085
  0
LINE
  5
1232
330
11AD
100
AcDbEntity
  8
AM_0
100
AcDbLine
 10
99.21202203782218
 20
57.06604722863014
 30
0.0
 11
99.21202203782218
 21
214.2147085994596
 31
0.0
  0
ELLIPSE
  5
1233
330
11AD
100
AcDbEntity
  8
AM_0
100
AcDbEllipse
 10
96.21190780266497
 20
57.06627569459488
 30
0.0
 11
2.121481893392666
 21
-2.121481893392666
 31
0.0
210
0.0
220
0.0
230
1.0
 40
0.9999238504775703
 41
5.497825219993075
 42
7.068545394366097
  0
LINE
  5
1234
330
11AD
100
AcDbEntity
  8
AM_0
100
AcDbLine
 10
51.56347489780031
 20
54.06616145943764
 30
0.0
 11
96.21213626862967
 21
54.06616145943755
 31
0.0
  0
ELLIPSE
  5
1235
330
11AD
100
AcDbEntity
  8
AM_0
100
AcDbEllipse
 10
51.563703363765
 20
57.06627569459488
 30
0.0
 11
-2.121481893392666
 21
-2.121481893392666
 31
0.0
210
0.0
220
0.0
230
1.0
 40
0.9999238504775703
 41
5.497825219993079
 42
7.068545394366097
  0
LINE
  5
1236
330
11AD
100
AcDbEntity
  8
AM_0
100
AcDbLine
 10
49.56355105167199
 20
214.2147085994594
 30
0.0
 11
48.56358912860781
 21
214.2147085994594
 31
0.0
  0
LINE
  5
1237
330
11AD
100
AcDbEntity
  8
AM_0
100
AcDbLine
 10
48.56358912860781
 20
57.06604722863014
 30
0.0
 11
49.56355105167199
 21
57.06604722863014
 31
0.0
  0
LINE
  5
1238
330
11AD
100
AcDbEntity
  8
AM_0
100
AcDbLine
 10
49.56355105167199
 20
57.06604722863014
 30
0.0
 11
49.56355105167199
 21
214.2147085994594
 31
0.0
  0
LINE
  5
1239
330
11AD
100
AcDbEntity
  8
AM_0
100
AcDbLine
 10
51.56347489780031
 20
216.2146324455877
 30
0.0
 11
51.56347489780031
 21
217.2145943686519
 31
0.0
  0
ELLIPSE
  5
123A
330
11AD
100
AcDbEntity
  8
AM_0
100
AcDbEllipse
 10
51.563703363765
 20
214.2144801334949
 30
0.0
 11
-1.414428958049826
 21
1.4144289580498
 31
0.0
210
0.0
220
0.0
230
1.0
 40
0.999847715450473
 41
5.497825219993063
 42
7.068545394366087
  0
LINE
  5
123B
330
11AD
100
AcDbEntity
  8
AM_0
100
AcDbLine
 10
51.56347489780031
 20
54.06616145943764
 30
0.0
 11
51.56347489780031
 21
55.06612338250173
 31
0.0
  0
ELLIPSE
  5
123C
330
11AD
100
AcDbEntity
  8
AM_0
100
AcDbEllipse
 10
51.563703363765
 20
57.06627569459488
 30
0.0
 11
-1.414428958049809
 21
-1.414428958049809
 31
0.0
210
0.0
220
0.0
230
1.0
 40
0.9998477154504712
 41
5.497825219993072
 42
7.068545394366098
  0
LINE
  5
123D
330
11AD
100
AcDbEntity
  8
AM_0
100
AcDbLine
 10
96.21213626862967
 20
216.2146324455879
 30
0.0
 11
96.21213626862967
 21
217.2145943686519
 31
0.0
  0
LINE
  5
123E
330
11AD
100
AcDbEntity
  8
AM_0
100
AcDbLine
 10
51.56347489780031
 20
216.2146324455877
 30
0.0
 11
96.21213626862967
 21
216.2146324455879
 31
0.0
  0
LINE
  5
123F
330
11AD
100
AcDbEntity
  8
AM_0
100
AcDbLine
 10
96.21213626862967
 20
54.06616145943755
 30
0.0
 11
96.21213626862967
 21
55.06612338250173
 31
0.0
  0
LINE
  5
1240
330
11AD
100
AcDbEntity
  8
AM_0
100
AcDbLine
 10
96.21213626862967
 20
55.06612338250173
 30
0.0
 11
51.56347489780031
 21
55.06612338250173
 31
0.0
  0
LINE
  5
1241
330
11AD
100
AcDbEntity
  8
AM_0
100
AcDbLine
 10
98.21206011475801
 20
214.2147085994596
 30
0.0
 11
99.21202203782218
 21
214.2147085994596
 31
0.0
  0
ELLIPSE
  5
1242
330
11AD
100
AcDbEntity
  8
AM_0
100
AcDbEllipse
 10
96.21190780266497
 20
214.2144801334949
 30
0.0
 11
1.414428958049809
 21
1.414428958049817
 31
0.0
210
0.0
220
0.0
230
1.0
 40
0.9998477154504714
 41
5.497825219993071
 42
7.068545394366094
  0
LINE
  5
1243
330
11AD
100
AcDbEntity
  8
AM_0
100
AcDbLine
 10
99.21202203782218
 20
57.06604722863014
 30
0.0
 11
98.21206011475801
 21
57.06604722863005
 31
0.0
  0
ELLIPSE
  5
1244
330
11AD
100
AcDbEntity
  8
AM_0
100
AcDbEllipse
 10
96.21190780266497
 20
57.06627569459488
 30
0.0
 11
1.414428958049813
 21
-1.414428958049817
 31
0.0
210
0.0
220
0.0
230
1.0
 40
0.9998477154504683
 41
5.497825219993072
 42
7.068545394366092
  0
LINE
  5
1245
330
11AD
100
AcDbEntity
  8
AM_0
100
AcDbLine
 10
98.21206011475801
 20
214.2147085994596
 30
0.0
 11
98.21206011475801
 21
57.06604722863005
 31
0.0
  0
LINE
  5
1246
330
11AD
100
AcDbEntity
  8
AM_0
100
AcDbLine
 10
63.59153449518001
 20
233.4006775504774
 30
0.0
 11
66.24326141147318
 21
233.4006775504774
 31
0.0
  0
LINE
  5
1247
330
11AD
100
AcDbEntity
  8
AM_0
100
AcDbLine
 10
66.24326141147318
 20
233.4006775504774
 30
0.0
 11
66.24326141147307
 21
226.4512220081607
 31
0.0
  0
LINE
  5
1248
330
11AD
100
AcDbEntity
  8
AM_0
100
AcDbLine
 10
66.24326141147307
 20
226.4512220081607
 30
0.0
 11
63.5925982366758
 21
226.4512220081607
 31
0.0
  0
ARC
  5
1249
330
11AD
100
AcDbEntity
  8
AM_0
100
AcDbCircle
 10
59.85605313850133
 20
229.9253779140449
 30
0.0
 40
5.102110203541537
100
AcDbArc
 50
317.0840086012441
 51
42.93353173622681
  0
LINE
  5
124A
330
11AD
100
AcDbEntity
  8
AM_0
100
AcDbLine
 10
70.16243110684951
 20
228.6490612153839
 30
0.0
 11
70.1301080578153
 21
229.1419877131518
 31
0.0
  0
ARC
  5
124B
330
11AD
100
AcDbEntity
  8
AM_0
100
AcDbCircle
 10
69.71634902791561
 20
229.0587398603798
 30
0.0
 40
0.4220506365528565
100
AcDbArc
 50
11.37596594781762
 51
100.8114800752794
  0
LINE
  5
124C
330
11AD
100
AcDbEntity
  8
AM_0
100
AcDbLine
 10
69.63718156004643
 20
229.4732989657507
 30
0.0
 11
69.3705164055157
 21
229.4732989657507
 31
0.0
  0
LINE
  5
124D
330
11AD
100
AcDbEntity
  8
AM_0
100
AcDbLine
 10
69.3705164055157
 20
229.4732989657507
 30
0.0
 11
69.3705164055157
 21
227.9137118498586
 31
0.0
  0
LINE
  5
124E
330
11AD
100
AcDbEntity
  8
AM_0
100
AcDbLine
 10
69.3705164055157
 20
227.9137118498586
 30
0.0
 11
68.19072511577338
 21
227.9137118498586
 31
0.0
  0
LINE
  5
124F
330
11AD
100
AcDbEntity
  8
AM_0
100
AcDbLine
 10
68.19072511577338
 20
227.9137118498586
 30
0.0
 11
68.19072511577338
 21
231.8086392584596
 31
0.0
  0
LINE
  5
1250
330
11AD
100
AcDbEntity
  8
AM_0
100
AcDbLine
 10
68.19072511577338
 20
231.8086392584596
 30
0.0
 11
70.35636940105357
 21
231.8086392584596
 31
0.0
  0
LINE
  5
1251
330
11AD
100
AcDbEntity
  8
AM_0
100
AcDbLine
 10
70.35636940105357
 20
231.8086392584596
 30
0.0
 11
70.50182312170656
 21
231.8005584962008
 31
0.0
  0
ARC
  5
1252
330
11AD
100
AcDbEntity
  8
AM_0
100
AcDbCircle
 10
70.47324548752669
 20
230.4486377272585
 30
0.0
 40
1.352222779971145
100
AcDbArc
 50
77.38851466568265
 51
88.78903109628179
  0
ARC
  5
1253
330
11AD
100
AcDbEntity
  8
AM_0
100
AcDbCircle
 10
70.61305968625567
 20
231.0735420599242
 30
0.0
 40
0.7118686317449268
100
AcDbArc
 50
30.69463155046647
 51
77.38851466567673
  0
ARC
  5
1254
330
11AD
100
AcDbEntity
  8
AM_0
100
AcDbCircle
 10
69.75178033770871
 20
230.8341195271069
 30
0.0
 40
1.591956655531653
100
AcDbArc
 50
348.1656515276995
 51
22.25048533843275
  0
ARC
  5
1255
330
11AD
100
AcDbEntity
  8
AM_0
100
AcDbCircle
 10
70.5846645174914
 20
230.5763845886486
 30
0.0
 40
0.7284860009933709
100
AcDbArc
 50
276.847446023386
 51
354.5848738675388
  0
ARC
  5
1256
330
11AD
100
AcDbEntity
  8
AM_0
100
AcDbCircle
 10
70.59542799984439
 20
229.1337033026509
 30
0.0
 40
0.7234044337449493
100
AcDbArc
 50
9.013547133537528
 51
83.96218792413444
  0
LINE
  5
1257
330
11AD
100
AcDbEntity
  8
AM_0
100
AcDbLine
 10
71.30989934755766
 20
229.2470376225127
 30
0.0
 11
71.33414163433312
 21
228.9480494189477
 31
0.0
  0
LINE
  5
1258
330
11AD
100
AcDbEntity
  8
AM_0
100
AcDbLine
 10
71.33414163433312
 20
228.9480494189477
 30
0.0
 11
71.35030315885001
 21
228.3743152985937
 31
0.0
  0
ARC
  5
1259
330
11AD
100
AcDbEntity
  8
AM_0
100
AcDbCircle
 10
73.62503773461958
 20
228.6126977852199
 30
0.0
 40
2.287191203229786
100
AcDbArc
 50
185.9825169258625
 51
197.7947991534085
  0
LINE
  5
125A
330
11AD
100
AcDbEntity
  8
AM_0
100
AcDbLine
 10
71.44727230595217
 20
227.9137118498586
 30
0.0
 11
70.25131949169301
 21
227.9137118498586
 31
0.0
  0
LINE
  5
125B
330
11AD
100
AcDbEntity
  8
AM_0
100
AcDbLine
 10
70.25131949169301
 20
227.9137118498586
 30
0.0
 11
70.2270772049176
 21
228.0026002347024
 31
0.0
  0
LINE
  5
125C
330
11AD
100
AcDbEntity
  8
AM_0
100
AcDbLine
 10
70.2270772049176
 20
228.0026002347024
 30
0.0
 11
70.1785926313666
 21
228.3662345363353
 31
0.0
  0
LINE
  5
125D
330
11AD
100
AcDbEntity
  8
AM_0
100
AcDbLine
 10
70.1785926313666
 20
228.3662345363353
 30
0.0
 11
70.16243110684951
 21
228.6490612153839
 31
0.0
  0
LINE
  5
125E
330
11AD
100
AcDbEntity
  8
AM_0
100
AcDbLine
 10
74.25937757191292
 20
227.8813888008247
 30
0.0
 11
72.65130588247089
 21
227.8813888008247
 31
0.0
  0
LINE
  5
125F
330
11AD
100
AcDbEntity
  8
AM_0
100
AcDbLine
 10
72.65130588247089
 20
227.8813888008247
 30
0.0
 11
72.44928682600729
 21
227.8894695630833
 31
0.0
  0
ARC
  5
1260
330
11AD
100
AcDbEntity
  8
AM_0
100
AcDbCircle
 10
72.45479954941231
 20
228.4639227343161
 30
0.0
 40
0.5744796219700782
100
AcDbArc
 50
191.4304844914626
 51
269.4501795705461
  0
LINE
  5
1261
330
11AD
100
AcDbEntity
  8
AM_0
100
AcDbLine
 10
71.89171423017009
 20
228.3500730118182
 30
0.0
 11
71.87555270565312
 21
228.4793652079542
 31
0.0
  0
LINE
  5
1262
330
11AD
100
AcDbEntity
  8
AM_0
100
AcDbLine
 10
71.87555270565312
 20
228.4793652079542
 30
0.0
 11
71.86747194339457
 21
230.3136982406357
 31
0.0
  0
ARC
  5
1263
330
11AD
100
AcDbEntity
  8
AM_0
100
AcDbCircle
 10
72.48317389354301
 20
230.4239615450019
 30
0.0
 40
0.6254973123093685
100
AcDbArc
 50
87.9222070547042
 51
190.1532141872587
  0
LINE
  5
1264
330
11AD
100
AcDbEntity
  8
AM_0
100
AcDbLine
 10
72.50585216181668
 20
231.04904760616
 30
0.0
 11
74.28361985868838
 21
231.0490476061597
 31
0.0
  0
ARC
  5
1265
330
11AD
100
AcDbEntity
  8
AM_0
100
AcDbCircle
 10
74.3188810506264
 20
230.4712313795702
 30
0.0
 40
0.5788911325691064
100
AcDbArc
 50
0.4040300223579097
 51
93.4921399907308
  0
LINE
  5
1266
330
11AD
100
AcDbEntity
  8
AM_0
100
AcDbLine
 10
74.89775779033507
 20
230.4753134858062
 30
0.0
 11
74.89775779033507
 21
228.4712844456959
 31
0.0
  0
ARC
  5
1267
330
11AD
100
AcDbEntity
  8
AM_0
100
AcDbCircle
 10
74.30271822411441
 20
228.4949037662181
 30
0.0
 40
0.5955081508006519
100
AcDbArc
 50
278.298663029679
 51
357.7269119786947
  0
ARC
  5
1268
330
11AD
100
AcDbEntity
  8
AM_0
100
AcDbCircle
 10
74.62308129842131
 20
226.2985359258637
 30
0.0
 40
1.624100866463748
100
AcDbArc
 50
98.29866302968724
 51
102.9406475226222
  0
LINE
  5
1269
330
11AD
100
AcDbEntity
  8
AM_0
100
AcDbLine
 10
59.85639949477619
 20
227.5012019054153
 30
0.0
 11
59.85980558321498
 21
232.3500501353456
 31
0.0
  0
ARC
  5
126A
330
11AD
100
AcDbEntity
  8
AM_0
100
AcDbCircle
 10
59.85810253893717
 20
229.9256260203804
 30
0.0
 40
2.424424713119408
100
AcDbArc
 50
269.9597524076786
 51
89.9597524076786
  0
LINE
  5
126B
330
11AD
100
AcDbEntity
  8
AM_0
100
AcDbLine
 10
83.87810885380901
 20
227.853371230142
 30
0.0
 11
83.69629170299251
 21
227.8291289433672
 31
0.0
  0
LINE
  5
126C
330
11AD
100
AcDbEntity
  8
AM_0
100
AcDbLine
 10
83.69629170299251
 20
227.8291289433672
 30
0.0
 11
81.95084705515482
 21
227.829128943362
 31
0.0
  0
LINE
  5
126D
330
11AD
100
AcDbEntity
  8
AM_0
100
AcDbLine
 10
81.95084705515482
 20
227.829128943362
 30
0.0
 11
81.83771638353567
 21
227.8372097056252
 31
0.0
  0
LINE
  5
126E
330
11AD
100
AcDbEntity
  8
AM_0
100
AcDbLine
 10
81.83771638353567
 20
227.8372097056252
 30
0.0
 11
81.74074723643366
 21
227.8614519924007
 31
0.0
  0
LINE
  5
126F
330
11AD
100
AcDbEntity
  8
AM_0
100
AcDbLine
 10
81.74074723643366
 20
227.8614519924007
 30
0.0
 11
81.64377808933158
 21
227.8937750414348
 31
0.0
  0
LINE
  5
1270
330
11AD
100
AcDbEntity
  8
AM_0
100
AcDbLine
 10
81.64377808933158
 20
227.8937750414348
 30
0.0
 11
81.55488970448791
 21
227.9341788527274
 31
0.0
  0
LINE
  5
1271
330
11AD
100
AcDbEntity
  8
AM_0
100
AcDbLine
 10
81.55488970448791
 20
227.9341788527274
 30
0.0
 11
81.48216284416141
 21
227.9907441885368
 31
0.0
  0
LINE
  5
1272
330
11AD
100
AcDbEntity
  8
AM_0
100
AcDbLine
 10
81.48216284416141
 20
227.9907441885368
 30
0.0
 11
81.41751674609333
 21
228.071551811122
 31
0.0
  0
LINE
  5
1273
330
11AD
100
AcDbEntity
  8
AM_0
100
AcDbLine
 10
81.41751674609333
 20
228.071551811122
 30
0.0
 11
81.36095141028381
 21
228.1604401959656
 31
0.0
  0
LINE
  5
1274
330
11AD
100
AcDbEntity
  8
AM_0
100
AcDbLine
 10
81.36095141028381
 20
228.1604401959656
 30
0.0
 11
81.32054759899109
 21
228.2735708675847
 31
0.0
  0
LINE
  5
1275
330
11AD
100
AcDbEntity
  8
AM_0
100
AcDbLine
 10
81.32054759899109
 20
228.2735708675847
 30
0.0
 11
81.29630531221568
 21
228.4109438259794
 31
0.0
  0
LINE
  5
1276
330
11AD
100
AcDbEntity
  8
AM_0
100
AcDbLine
 10
81.29630531221568
 20
228.4109438259794
 30
0.0
 11
81.28822454995718
 21
228.5725590711497
 31
0.0
  0
LINE
  5
1277
330
11AD
100
AcDbEntity
  8
AM_0
100
AcDbLine
 10
81.28822454995718
 20
228.5725590711497
 30
0.0
 11
81.28822454995718
 21
230.2614383831777
 31
0.0
  0
LINE
  5
1278
330
11AD
100
AcDbEntity
  8
AM_0
100
AcDbLine
 10
81.28822454995718
 20
230.2614383831777
 30
0.0
 11
81.29630531221568
 21
230.4230536283479
 31
0.0
  0
LINE
  5
1279
330
11AD
100
AcDbEntity
  8
AM_0
100
AcDbLine
 10
81.29630531221568
 20
230.4230536283479
 30
0.0
 11
81.32862836124957
 21
230.5604265867424
 31
0.0
  0
LINE
  5
127A
330
11AD
100
AcDbEntity
  8
AM_0
100
AcDbLine
 10
81.32862836124957
 20
230.5604265867424
 30
0.0
 11
81.36903217254241
 21
230.6735572583614
 31
0.0
  0
LINE
  5
127B
330
11AD
100
AcDbEntity
  8
AM_0
100
AcDbLine
 10
81.36903217254241
 20
230.6735572583614
 30
0.0
 11
81.43367827061018
 21
230.7705264054637
 31
0.0
  0
LINE
  5
127C
330
11AD
100
AcDbEntity
  8
AM_0
100
AcDbLine
 10
81.43367827061018
 20
230.7705264054637
 30
0.0
 11
81.50640513093691
 21
230.8432532657902
 31
0.0
  0
LINE
  5
127D
330
11AD
100
AcDbEntity
  8
AM_0
100
AcDbLine
 10
81.50640513093691
 20
230.8432532657902
 30
0.0
 11
81.59529351578042
 21
230.9078993638582
 31
0.0
  0
LINE
  5
127E
330
11AD
100
AcDbEntity
  8
AM_0
100
AcDbLine
 10
81.59529351578042
 20
230.9078993638582
 30
0.0
 11
81.7084241873994
 21
230.9483031751508
 31
0.0
  0
LINE
  5
127F
330
11AD
100
AcDbEntity
  8
AM_0
100
AcDbLine
 10
81.7084241873994
 20
230.9483031751508
 30
0.0
 11
81.82963562127719
 21
230.980626224185
 31
0.0
  0
LINE
  5
1280
330
11AD
100
AcDbEntity
  8
AM_0
100
AcDbLine
 10
81.82963562127719
 20
230.980626224185
 30
0.0
 11
81.96700857967181
 21
230.9967877487018
 31
0.0
  0
LINE
  5
1281
330
11AD
100
AcDbEntity
  8
AM_0
100
AcDbLine
 10
81.96700857967181
 20
230.9967877487018
 30
0.0
 11
83.67204941621698
 21
230.9967877487018
 31
0.0
  0
ARC
  5
1282
330
11AD
100
AcDbEntity
  8
AM_0
100
AcDbCircle
 10
83.74270049075041
 20
230.4250405664779
 30
0.0
 40
0.5760958381326426
100
AcDbArc
 50
358.1947406809014
 51
97.04435690989253
  0
LINE
  5
1283
330
11AD
100
AcDbEntity
  8
AM_0
100
AcDbLine
 10
84.31851039689759
 20
230.406892103831
 30
0.0
 11
84.32659115915598
 21
230.2614383831777
 31
0.0
  0
LINE
  5
1284
330
11AD
100
AcDbEntity
  8
AM_0
100
AcDbLine
 10
84.32659115915598
 20
230.2614383831777
 30
0.0
 11
84.32659115915598
 21
229.0978086179524
 31
0.0
  0
LINE
  5
1285
330
11AD
100
AcDbEntity
  8
AM_0
100
AcDbLine
 10
84.32659115915598
 20
229.0978086179524
 30
0.0
 11
82.46801583969931
 21
229.0978086179524
 31
0.0
  0
LINE
  5
1286
330
11AD
100
AcDbEntity
  8
AM_0
100
AcDbLine
 10
82.46801583969931
 20
229.0978086179524
 30
0.0
 11
82.47609660195768
 21
228.7664973653539
 31
0.0
  0
LINE
  5
1287
330
11AD
100
AcDbEntity
  8
AM_0
100
AcDbLine
 10
82.47609660195768
 20
228.7664973653539
 30
0.0
 11
82.50841965099169
 21
228.6372051692175
 31
0.0
  0
LINE
  5
1288
330
11AD
100
AcDbEntity
  8
AM_0
100
AcDbLine
 10
82.50841965099169
 20
228.6372051692175
 30
0.0
 11
82.54074270002602
 21
228.5806398334082
 31
0.0
  0
LINE
  5
1289
330
11AD
100
AcDbEntity
  8
AM_0
100
AcDbLine
 10
82.54074270002602
 20
228.5806398334082
 30
0.0
 11
82.58114651131839
 21
228.5321552598568
 31
0.0
  0
LINE
  5
128A
330
11AD
100
AcDbEntity
  8
AM_0
100
AcDbLine
 10
82.58114651131839
 20
228.5321552598568
 30
0.0
 11
82.64579260938651
 21
228.4917514485643
 31
0.0
  0
LINE
  5
128B
330
11AD
100
AcDbEntity
  8
AM_0
100
AcDbLine
 10
82.64579260938651
 20
228.4917514485643
 30
0.0
 11
82.71851946971301
 21
228.4675091617887
 31
0.0
  0
LINE
  5
128C
330
11AD
100
AcDbEntity
  8
AM_0
100
AcDbLine
 10
82.71851946971301
 20
228.4675091617887
 30
0.0
 11
82.8074078545568
 21
228.4594283995303
 31
0.0
  0
LINE
  5
128D
330
11AD
100
AcDbEntity
  8
AM_0
100
AcDbLine
 10
82.8074078545568
 20
228.4594283995303
 30
0.0
 11
82.86397319036598
 21
228.4675091617887
 31
0.0
  0
LINE
  5
128E
330
11AD
100
AcDbEntity
  8
AM_0
100
AcDbLine
 10
82.86397319036598
 20
228.4675091617887
 30
0.0
 11
82.91245776391731
 21
228.4755899240475
 31
0.0
  0
LINE
  5
128F
330
11AD
100
AcDbEntity
  8
AM_0
100
AcDbLine
 10
82.91245776391731
 20
228.4755899240475
 30
0.0
 11
82.96902309972692
 21
228.4998322108229
 31
0.0
  0
LINE
  5
1290
330
11AD
100
AcDbEntity
  8
AM_0
100
AcDbLine
 10
82.96902309972692
 20
228.4998322108229
 30
0.0
 11
83.01750767327789
 21
228.5321552598568
 31
0.0
  0
LINE
  5
1291
330
11AD
100
AcDbEntity
  8
AM_0
100
AcDbLine
 10
83.01750767327789
 20
228.5321552598568
 30
0.0
 11
83.06599224682893
 21
228.5725590711497
 31
0.0
  0
LINE
  5
1292
330
11AD
100
AcDbEntity
  8
AM_0
100
AcDbLine
 10
83.06599224682893
 20
228.5725590711497
 30
0.0
 11
83.10639605812141
 21
228.6291244069591
 31
0.0
  0
LINE
  5
1293
330
11AD
100
AcDbEntity
  8
AM_0
100
AcDbLine
 10
83.10639605812141
 20
228.6291244069591
 30
0.0
 11
83.1387191071556
 21
228.7018512672856
 31
0.0
  0
LINE
  5
1294
330
11AD
100
AcDbEntity
  8
AM_0
100
AcDbLine
 10
83.1387191071556
 20
228.7018512672856
 30
0.0
 11
83.14679986941412
 21
228.7988204143877
 31
0.0
  0
LINE
  5
1295
330
11AD
100
AcDbEntity
  8
AM_0
100
AcDbLine
 10
83.14679986941412
 20
228.7988204143877
 30
0.0
 11
84.32659115915598
 21
228.7988204143877
 31
0.0
  0
LINE
  5
1296
330
11AD
100
AcDbEntity
  8
AM_0
100
AcDbLine
 10
84.32659115915598
 20
228.7988204143877
 30
0.0
 11
84.32659115915598
 21
228.564478308891
 31
0.0
  0
LINE
  5
1297
330
11AD
100
AcDbEntity
  8
AM_0
100
AcDbLine
 10
84.32659115915598
 20
228.564478308891
 30
0.0
 11
84.31851039689769
 21
228.4109438259794
 31
0.0
  0
LINE
  5
1298
330
11AD
100
AcDbEntity
  8
AM_0
100
AcDbLine
 10
84.31851039689769
 20
228.4109438259794
 30
0.0
 11
84.29426811012209
 21
228.2735708675847
 31
0.0
  0
LINE
  5
1299
330
11AD
100
AcDbEntity
  8
AM_0
100
AcDbLine
 10
84.29426811012209
 20
228.2735708675847
 30
0.0
 11
84.2538642988296
 21
228.152359433707
 31
0.0
  0
LINE
  5
129A
330
11AD
100
AcDbEntity
  8
AM_0
100
AcDbLine
 10
84.2538642988296
 20
228.152359433707
 30
0.0
 11
84.19729896302001
 21
228.0553902866049
 31
0.0
  0
LINE
  5
129B
330
11AD
100
AcDbEntity
  8
AM_0
100
AcDbLine
 10
84.19729896302001
 20
228.0553902866049
 30
0.0
 11
84.0680067668838
 21
227.9260980904687
 31
0.0
  0
LINE
  5
129C
330
11AD
100
AcDbEntity
  8
AM_0
100
AcDbLine
 10
84.0680067668838
 20
227.9260980904687
 30
0.0
 11
83.9830091194239
 21
227.8925778914707
 31
0.0
  0
LINE
  5
129D
330
11AD
100
AcDbEntity
  8
AM_0
100
AcDbLine
 10
83.9830091194239
 20
227.8925778914707
 30
0.0
 11
83.93063380848929
 21
227.8776135169179
 31
0.0
  0
LINE
  5
129E
330
11AD
100
AcDbEntity
  8
AM_0
100
AcDbLine
 10
83.93063380848929
 20
227.8776135169179
 30
0.0
 11
83.87810885380901
 21
227.853371230142
 31
0.0
  0
LINE
  5
129F
330
11AD
100
AcDbEntity
  8
AM_0
100
AcDbLine
 10
84.83660049853302
 20
228.4632036834373
 30
0.0
 11
84.82851973627459
 21
228.6248189286074
 31
0.0
  0
LINE
  5
12A0
330
11AD
100
AcDbEntity
  8
AM_0
100
AcDbLine
 10
84.82851973627459
 20
228.6248189286074
 30
0.0
 11
84.82851973627459
 21
230.3056174783772
 31
0.0
  0
LINE
  5
12A1
330
11AD
100
AcDbEntity
  8
AM_0
100
AcDbLine
 10
84.82851973627459
 20
230.3056174783772
 30
0.0
 11
84.83660049853302
 21
230.4591519612887
 31
0.0
  0
LINE
  5
12A2
330
11AD
100
AcDbEntity
  8
AM_0
100
AcDbLine
 10
84.83660049853302
 20
230.4591519612887
 30
0.0
 11
84.85276202305
 21
230.5884441574249
 31
0.0
  0
LINE
  5
12A3
330
11AD
100
AcDbEntity
  8
AM_0
100
AcDbLine
 10
84.85276202305
 20
230.5884441574249
 30
0.0
 11
84.89316583434268
 21
230.7015748290439
 31
0.0
  0
LINE
  5
12A4
330
11AD
100
AcDbEntity
  8
AM_0
100
AcDbLine
 10
84.89316583434268
 20
230.7015748290439
 30
0.0
 11
84.9416504078934
 21
230.7904632138877
 31
0.0
  0
LINE
  5
12A5
330
11AD
100
AcDbEntity
  8
AM_0
100
AcDbLine
 10
84.9416504078934
 20
230.7904632138877
 30
0.0
 11
85.05154877460929
 21
230.9140988764426
 31
0.0
  0
LINE
  5
12A6
330
11AD
100
AcDbEntity
  8
AM_0
100
AcDbLine
 10
85.05154877460929
 20
230.9140988764426
 30
0.0
 11
85.15983098887309
 21
230.9682399835748
 31
0.0
  0
LINE
  5
12A7
330
11AD
100
AcDbEntity
  8
AM_0
100
AcDbLine
 10
85.15983098887309
 20
230.9682399835748
 30
0.0
 11
85.25680013597542
 21
231.0005630326088
 31
0.0
  0
LINE
  5
12A8
330
11AD
100
AcDbEntity
  8
AM_0
100
AcDbLine
 10
85.25680013597542
 20
231.0005630326088
 30
0.0
 11
85.3537692830775
 21
231.0248053193844
 31
0.0
  0
LINE
  5
12A9
330
11AD
100
AcDbEntity
  8
AM_0
100
AcDbLine
 10
85.3537692830775
 20
231.0248053193844
 30
0.0
 11
85.458819192438
 21
231.0409668439012
 31
0.0
  0
LINE
  5
12AA
330
11AD
100
AcDbEntity
  8
AM_0
100
AcDbLine
 10
85.458819192438
 20
231.0409668439012
 30
0.0
 11
85.56386910179858
 21
231.0490476061597
 31
0.0
  0
LINE
  5
12AB
330
11AD
100
AcDbEntity
  8
AM_0
100
AcDbLine
 10
85.56386910179858
 20
231.0490476061597
 30
0.0
 11
87.20426384027598
 21
231.0490476061597
 31
0.0
  0
LINE
  5
12AC
330
11AD
100
AcDbEntity
  8
AM_0
100
AcDbLine
 10
87.20426384027598
 20
231.0490476061597
 30
0.0
 11
87.28493996260931
 21
231.0465915639845
 31
0.0
  0
LINE
  5
12AD
330
11AD
100
AcDbEntity
  8
AM_0
100
AcDbLine
 10
87.28493996260931
 20
231.0465915639845
 30
0.0
 11
87.414363658997
 21
231.0167245571257
 31
0.0
  0
LINE
  5
12AE
330
11AD
100
AcDbEntity
  8
AM_0
100
AcDbLine
 10
87.414363658997
 20
231.0167245571257
 30
0.0
 11
87.511332806099
 21
230.9924822703502
 31
0.0
  0
LINE
  5
12AF
330
11AD
100
AcDbEntity
  8
AM_0
100
AcDbLine
 10
87.511332806099
 20
230.9924822703502
 30
0.0
 11
87.59214042868407
 21
230.9439976967992
 31
0.0
  0
LINE
  5
12B0
330
11AD
100
AcDbEntity
  8
AM_0
100
AcDbLine
 10
87.59214042868407
 20
230.9439976967992
 30
0.0
 11
87.67294805126912
 21
230.8874323609896
 31
0.0
  0
LINE
  5
12B1
330
11AD
100
AcDbEntity
  8
AM_0
100
AcDbLine
 10
87.67294805126912
 20
230.8874323609896
 30
0.0
 11
87.7375941493374
 21
230.8147055006629
 31
0.0
  0
LINE
  5
12B2
330
11AD
100
AcDbEntity
  8
AM_0
100
AcDbLine
 10
87.7375941493374
 20
230.8147055006629
 30
0.0
 11
87.7860787228883
 21
230.7177363535608
 31
0.0
  0
LINE
  5
12B3
330
11AD
100
AcDbEntity
  8
AM_0
100
AcDbLine
 10
87.7860787228883
 20
230.7177363535608
 30
0.0
 11
87.82648253418097
 21
230.6046056819418
 31
0.0
  0
LINE
  5
12B4
330
11AD
100
AcDbEntity
  8
AM_0
100
AcDbLine
 10
87.82648253418097
 20
230.6046056819418
 30
0.0
 11
87.85072482095648
 21
230.4672327235472
 31
0.0
  0
LINE
  5
12B5
330
11AD
100
AcDbEntity
  8
AM_0
100
AcDbLine
 10
87.85072482095648
 20
230.4672327235472
 30
0.0
 11
87.85880558321498
 21
230.3056174783769
 31
0.0
  0
LINE
  5
12B6
330
11AD
100
AcDbEntity
  8
AM_0
100
AcDbLine
 10
87.85880558321498
 20
230.3056174783769
 30
0.0
 11
87.85880558321498
 21
229.7561256447984
 31
0.0
  0
LINE
  5
12B7
330
11AD
100
AcDbEntity
  8
AM_0
100
AcDbLine
 10
87.85880558321498
 20
229.7561256447984
 30
0.0
 11
86.67901429347281
 21
229.7561256447984
 31
0.0
  0
LINE
  5
12B8
330
11AD
100
AcDbEntity
  8
AM_0
100
AcDbLine
 10
86.67901429347281
 20
229.7561256447984
 30
0.0
 11
86.67901429347281
 21
230.0470330861049
 31
0.0
  0
LINE
  5
12B9
330
11AD
100
AcDbEntity
  8
AM_0
100
AcDbLine
 10
86.67901429347281
 20
230.0470330861049
 30
0.0
 11
86.68132308268956
 21
230.1035984219142
 31
0.0
  0
LINE
  5
12BA
330
11AD
100
AcDbEntity
  8
AM_0
100
AcDbLine
 10
86.68132308268956
 20
230.1035984219142
 30
0.0
 11
86.6466912444387
 21
230.2248098557921
 31
0.0
  0
LINE
  5
12BB
330
11AD
100
AcDbEntity
  8
AM_0
100
AcDbLine
 10
86.6466912444387
 20
230.2248098557921
 30
0.0
 11
86.61436819540458
 21
230.2732944293429
 31
0.0
  0
LINE
  5
12BC
330
11AD
100
AcDbEntity
  8
AM_0
100
AcDbLine
 10
86.61436819540458
 20
230.2732944293429
 30
0.0
 11
86.573964384112
 21
230.3217790028942
 31
0.0
  0
LINE
  5
12BD
330
11AD
100
AcDbEntity
  8
AM_0
100
AcDbLine
 10
86.573964384112
 20
230.3217790028942
 30
0.0
 11
86.53356057281939
 21
230.3541020519281
 31
0.0
  0
LINE
  5
12BE
330
11AD
100
AcDbEntity
  8
AM_0
100
AcDbLine
 10
86.53356057281939
 20
230.3541020519281
 30
0.0
 11
86.43659142571733
 21
230.4025866254787
 31
0.0
  0
LINE
  5
12BF
330
11AD
100
AcDbEntity
  8
AM_0
100
AcDbLine
 10
86.43659142571733
 20
230.4025866254787
 30
0.0
 11
86.38810685216609
 21
230.4106673877374
 31
0.0
  0
LINE
  5
12C0
330
11AD
100
AcDbEntity
  8
AM_0
100
AcDbLine
 10
86.38810685216609
 20
230.4106673877374
 30
0.0
 11
86.32346075409831
 21
230.4187481499961
 31
0.0
  0
LINE
  5
12C1
330
11AD
100
AcDbEntity
  8
AM_0
100
AcDbLine
 10
86.32346075409831
 20
230.4187481499961
 30
0.0
 11
86.25073389377158
 21
230.4106673877376
 31
0.0
  0
LINE
  5
12C2
330
11AD
100
AcDbEntity
  8
AM_0
100
AcDbLine
 10
86.25073389377158
 20
230.4106673877376
 30
0.0
 11
86.1883965849204
 21
230.3898882847871
 31
0.0
  0
LINE
  5
12C3
330
11AD
100
AcDbEntity
  8
AM_0
100
AcDbLine
 10
86.1883965849204
 20
230.3898882847871
 30
0.0
 11
86.1133609353773
 21
230.3298597651521
 31
0.0
  0
LINE
  5
12C4
330
11AD
100
AcDbEntity
  8
AM_0
100
AcDbLine
 10
86.1133609353773
 20
230.3298597651521
 30
0.0
 11
86.07295712408438
 21
230.2732944293428
 31
0.0
  0
LINE
  5
12C5
330
11AD
100
AcDbEntity
  8
AM_0
100
AcDbLine
 10
86.07295712408438
 20
230.2732944293428
 30
0.0
 11
86.03255331279189
 21
230.2005675690161
 31
0.0
  0
LINE
  5
12C6
330
11AD
100
AcDbEntity
  8
AM_0
100
AcDbLine
 10
86.03255331279189
 20
230.2005675690161
 30
0.0
 11
86.01639178827491
 21
230.1116791841725
 31
0.0
  0
LINE
  5
12C7
330
11AD
100
AcDbEntity
  8
AM_0
100
AcDbLine
 10
86.01639178827491
 20
230.1116791841725
 30
0.0
 11
86.00831102601631
 21
229.9985485125536
 31
0.0
  0
LINE
  5
12C8
330
11AD
100
AcDbEntity
  8
AM_0
100
AcDbLine
 10
86.00831102601631
 20
229.9985485125536
 30
0.0
 11
86.00831102601631
 21
228.8995648453966
 31
0.0
  0
LINE
  5
12C9
330
11AD
100
AcDbEntity
  8
AM_0
100
AcDbLine
 10
86.00831102601631
 20
228.8995648453966
 30
0.0
 11
86.01639178827491
 21
228.8025956982945
 31
0.0
  0
LINE
  5
12CA
330
11AD
100
AcDbEntity
  8
AM_0
100
AcDbLine
 10
86.01639178827491
 20
228.8025956982945
 30
0.0
 11
86.03255331279189
 21
228.7217880757093
 31
0.0
  0
LINE
  5
12CB
330
11AD
100
AcDbEntity
  8
AM_0
100
AcDbLine
 10
86.03255331279189
 20
228.7217880757093
 30
0.0
 11
86.07295712408449
 21
228.6490612153827
 31
0.0
  0
LINE
  5
12CC
330
11AD
100
AcDbEntity
  8
AM_0
100
AcDbLine
 10
86.07295712408449
 20
228.6490612153827
 30
0.0
 11
86.12144169763542
 21
228.5844151173145
 31
0.0
  0
LINE
  5
12CD
330
11AD
100
AcDbEntity
  8
AM_0
100
AcDbLine
 10
86.12144169763542
 20
228.5844151173145
 30
0.0
 11
86.18608779570351
 21
228.5440113060221
 31
0.0
  0
LINE
  5
12CE
330
11AD
100
AcDbEntity
  8
AM_0
100
AcDbLine
 10
86.18608779570351
 20
228.5440113060221
 30
0.0
 11
86.25881465603018
 21
228.5197690192461
 31
0.0
  0
LINE
  5
12CF
330
11AD
100
AcDbEntity
  8
AM_0
100
AcDbLine
 10
86.25881465603018
 20
228.5197690192461
 30
0.0
 11
86.34770304087359
 21
228.5116882569878
 31
0.0
  0
LINE
  5
12D0
330
11AD
100
AcDbEntity
  8
AM_0
100
AcDbLine
 10
86.34770304087359
 20
228.5116882569878
 30
0.0
 11
86.42851066345881
 21
228.5197690192463
 31
0.0
  0
LINE
  5
12D1
330
11AD
100
AcDbEntity
  8
AM_0
100
AcDbLine
 10
86.42851066345881
 20
228.5197690192463
 30
0.0
 11
86.47699523700982
 21
228.5359305437636
 31
0.0
  0
LINE
  5
12D2
330
11AD
100
AcDbEntity
  8
AM_0
100
AcDbLine
 10
86.47699523700982
 20
228.5359305437636
 30
0.0
 11
86.52547981056091
 21
228.5601728305389
 31
0.0
  0
LINE
  5
12D3
330
11AD
100
AcDbEntity
  8
AM_0
100
AcDbLine
 10
86.52547981056091
 20
228.5601728305389
 30
0.0
 11
86.57396438411183
 21
228.6005766418314
 31
0.0
  0
LINE
  5
12D4
330
11AD
100
AcDbEntity
  8
AM_0
100
AcDbLine
 10
86.57396438411183
 20
228.6005766418314
 30
0.0
 11
86.61436819540432
 21
228.6490612153826
 31
0.0
  0
LINE
  5
12D5
330
11AD
100
AcDbEntity
  8
AM_0
100
AcDbLine
 10
86.61436819540432
 20
228.6490612153826
 30
0.0
 11
86.64669124443838
 21
228.7137073134507
 31
0.0
  0
LINE
  5
12D6
330
11AD
100
AcDbEntity
  8
AM_0
100
AcDbLine
 10
86.64669124443838
 20
228.7137073134507
 30
0.0
 11
86.670933531214
 21
228.7945149360356
 31
0.0
  0
LINE
  5
12D7
330
11AD
100
AcDbEntity
  8
AM_0
100
AcDbLine
 10
86.670933531214
 20
228.7945149360356
 30
0.0
 11
86.67901429347251
 21
228.8995648453964
 31
0.0
  0
LINE
  5
12D8
330
11AD
100
AcDbEntity
  8
AM_0
100
AcDbLine
 10
86.67901429347251
 20
228.8995648453964
 30
0.0
 11
86.67901429347251
 21
229.1662299999272
 31
0.0
  0
LINE
  5
12D9
330
11AD
100
AcDbEntity
  8
AM_0
100
AcDbLine
 10
86.67901429347251
 20
229.1662299999272
 30
0.0
 11
87.85880558321492
 21
229.1662299999272
 31
0.0
  0
LINE
  5
12DA
330
11AD
100
AcDbEntity
  8
AM_0
100
AcDbLine
 10
87.85880558321492
 20
229.1662299999272
 30
0.0
 11
87.85880558321492
 21
228.6248189286076
 31
0.0
  0
LINE
  5
12DB
330
11AD
100
AcDbEntity
  8
AM_0
100
AcDbLine
 10
87.85880558321492
 20
228.6248189286076
 30
0.0
 11
87.85072482095632
 21
228.4712844456958
 31
0.0
  0
LINE
  5
12DC
330
11AD
100
AcDbEntity
  8
AM_0
100
AcDbLine
 10
87.85072482095632
 20
228.4712844456958
 30
0.0
 11
87.83456329643939
 21
228.3419922495597
 31
0.0
  0
LINE
  5
12DD
330
11AD
100
AcDbEntity
  8
AM_0
100
AcDbLine
 10
87.83456329643939
 20
228.3419922495597
 30
0.0
 11
87.7941594851469
 21
228.2288615779409
 31
0.0
  0
LINE
  5
12DE
330
11AD
100
AcDbEntity
  8
AM_0
100
AcDbLine
 10
87.7941594851469
 20
228.2288615779409
 30
0.0
 11
87.7456749115959
 21
228.1399731930969
 31
0.0
  0
LINE
  5
12DF
330
11AD
100
AcDbEntity
  8
AM_0
100
AcDbLine
 10
87.7456749115959
 20
228.1399731930969
 30
0.0
 11
87.68910957578617
 21
228.0672463327704
 31
0.0
  0
LINE
  5
12E0
330
11AD
100
AcDbEntity
  8
AM_0
100
AcDbLine
 10
87.68910957578617
 20
228.0672463327704
 30
0.0
 11
87.62446347771808
 21
228.010680996961
 31
0.0
  0
LINE
  5
12E1
330
11AD
100
AcDbEntity
  8
AM_0
100
AcDbLine
 10
87.62446347771808
 20
228.010680996961
 30
0.0
 11
87.54365585513316
 21
227.9621964234098
 31
0.0
  0
LINE
  5
12E2
330
11AD
100
AcDbEntity
  8
AM_0
100
AcDbLine
 10
87.54365585513316
 20
227.9621964234098
 30
0.0
 11
87.46284823254811
 21
227.9298733743758
 31
0.0
  0
LINE
  5
12E3
330
11AD
100
AcDbEntity
  8
AM_0
100
AcDbLine
 10
87.46284823254811
 20
227.9298733743758
 30
0.0
 11
87.37395984770458
 21
227.9056310876002
 31
0.0
  0
LINE
  5
12E4
330
11AD
100
AcDbEntity
  8
AM_0
100
AcDbLine
 10
87.37395984770458
 20
227.9056310876002
 30
0.0
 11
87.27699070060216
 21
227.8894695630833
 31
0.0
  0
LINE
  5
12E5
330
11AD
100
AcDbEntity
  8
AM_0
100
AcDbLine
 10
87.27699070060216
 20
227.8894695630833
 30
0.0
 11
87.18002155350019
 21
227.881388800825
 31
0.0
  0
LINE
  5
12E6
330
11AD
100
AcDbEntity
  8
AM_0
100
AcDbLine
 10
87.18002155350019
 20
227.881388800825
 30
0.0
 11
85.49922300373049
 21
227.8813888008246
 31
0.0
  0
LINE
  5
12E7
330
11AD
100
AcDbEntity
  8
AM_0
100
AcDbLine
 10
85.49922300373049
 20
227.8813888008246
 30
0.0
 11
85.3860923321115
 21
227.8894695630833
 31
0.0
  0
LINE
  5
12E8
330
11AD
100
AcDbEntity
  8
AM_0
100
AcDbLine
 10
85.3860923321115
 20
227.8894695630833
 30
0.0
 11
85.27296166049252
 21
227.9019580138462
 31
0.0
  0
LINE
  5
12E9
330
11AD
100
AcDbEntity
  8
AM_0
100
AcDbLine
 10
85.27296166049252
 20
227.9019580138462
 30
0.0
 11
85.08710412854682
 21
227.9864387101853
 31
0.0
  0
LINE
  5
12EA
330
11AD
100
AcDbEntity
  8
AM_0
100
AcDbLine
 10
85.08710412854682
 20
227.9864387101853
 30
0.0
 11
85.01437726822009
 21
228.0510848082532
 31
0.0
  0
LINE
  5
12EB
330
11AD
100
AcDbEntity
  8
AM_0
100
AcDbLine
 10
85.01437726822009
 20
228.0510848082532
 30
0.0
 11
84.9497311701519
 21
228.1238116685798
 31
0.0
  0
LINE
  5
12EC
330
11AD
100
AcDbEntity
  8
AM_0
100
AcDbLine
 10
84.9497311701519
 20
228.1238116685798
 30
0.0
 11
84.89316583434268
 21
228.2127000534234
 31
0.0
  0
LINE
  5
12ED
330
11AD
100
AcDbEntity
  8
AM_0
100
AcDbLine
 10
84.89316583434268
 20
228.2127000534234
 30
0.0
 11
84.86084278530848
 21
228.3339114873011
 31
0.0
  0
LINE
  5
12EE
330
11AD
100
AcDbEntity
  8
AM_0
100
AcDbLine
 10
84.86084278530848
 20
228.3339114873011
 30
0.0
 11
84.83660049853302
 21
228.4632036834373
 31
0.0
  0
LINE
  5
12EF
330
11AD
100
AcDbEntity
  8
AM_0
100
AcDbLine
 10
76.95835216625468
 20
229.0126955170158
 30
0.0
 11
76.46542566848561
 21
227.9137118498586
 31
0.0
  0
LINE
  5
12F0
330
11AD
100
AcDbEntity
  8
AM_0
100
AcDbLine
 10
76.46542566848561
 20
227.9137118498586
 30
0.0
 11
75.30987666551891
 21
227.9137118498586
 31
0.0
  0
LINE
  5
12F1
330
11AD
100
AcDbEntity
  8
AM_0
100
AcDbLine
 10
75.30987666551891
 20
227.9137118498586
 30
0.0
 11
76.02906450652611
 21
229.5460258260772
 31
0.0
  0
LINE
  5
12F2
330
11AD
100
AcDbEntity
  8
AM_0
100
AcDbLine
 10
76.02906450652611
 20
229.5460258260772
 30
0.0
 11
75.3987650503625
 21
231.0248053193844
 31
0.0
  0
LINE
  5
12F3
330
11AD
100
AcDbEntity
  8
AM_0
100
AcDbLine
 10
75.3987650503625
 20
231.0248053193844
 30
0.0
 11
76.61896015139731
 21
231.0248053193844
 31
0.0
  0
LINE
  5
12F4
330
11AD
100
AcDbEntity
  8
AM_0
100
AcDbLine
 10
76.61896015139731
 20
231.0248053193844
 30
0.0
 11
77.0553213133567
 21
230.0147100370709
 31
0.0
  0
LINE
  5
12F5
330
11AD
100
AcDbEntity
  8
AM_0
100
AcDbLine
 10
77.0553213133567
 20
230.0147100370709
 30
0.0
 11
77.49168247531608
 21
231.0248053193844
 31
0.0
  0
LINE
  5
12F6
330
11AD
100
AcDbEntity
  8
AM_0
100
AcDbLine
 10
77.49168247531608
 20
231.0248053193844
 30
0.0
 11
78.62298919150717
 21
231.0248053193844
 31
0.0
  0
LINE
  5
12F7
330
11AD
100
AcDbEntity
  8
AM_0
100
AcDbLine
 10
78.62298919150717
 20
231.0248053193844
 30
0.0
 11
77.9926897353435
 21
229.5702681128528
 31
0.0
  0
LINE
  5
12F8
330
11AD
100
AcDbEntity
  8
AM_0
100
AcDbLine
 10
77.9926897353435
 20
229.5702681128528
 30
0.0
 11
78.73611986312642
 21
227.9137118498586
 31
0.0
  0
LINE
  5
12F9
330
11AD
100
AcDbEntity
  8
AM_0
100
AcDbLine
 10
78.73611986312642
 20
227.9137118498586
 30
0.0
 11
77.4512786640235
 21
227.9137118498586
 31
0.0
  0
LINE
  5
12FA
330
11AD
100
AcDbEntity
  8
AM_0
100
AcDbLine
 10
77.4512786640235
 20
227.9137118498586
 30
0.0
 11
76.95835216625468
 21
229.0126955170158
 31
0.0
  0
LINE
  5
12FB
330
11AD
100
AcDbEntity
  8
AM_0
100
AcDbLine
 10
59.85605313850121
 20
226.4394123909837
 30
0.0
 11
59.85605313850121
 21
226.9526050860454
 31
0.0
  0
ARC
  5
12FC
330
11AD
100
AcDbEntity
  8
AM_0
100
AcDbCircle
 10
59.85775618287658
 20
229.9256260430245
 30
0.0
 40
2.973021444758959
100
AcDbArc
 50
269.9671790929923
 51
89.96717909299231
  0
LINE
  5
12FD
330
11AD
100
AcDbEntity
  8
AM_0
100
AcDbLine
 10
59.85945922725199
 20
232.8986470000035
 30
0.0
 11
59.85945922725199
 21
233.4118399822825
 31
0.0
  0
ARC
  5
12FE
330
11AD
100
AcDbEntity
  8
AM_0
100
AcDbCircle
 10
59.8577561828767
 20
229.925626186633
 30
0.0
 40
3.486214211624951
100
AcDbArc
 50
269.9720105383693
 51
89.9720105383685
  0
ARC
  5
12FF
330
11AD
100
AcDbEntity
  8
AM_0
100
AcDbCircle
 10
79.96184331842059
 20
228.5112324254868
 30
0.0
 40
0.6299906345175871
100
AcDbArc
 50
169.6128402964387
 51
268.7621949374017
  0
LINE
  5
1300
330
11AD
100
AcDbEntity
  8
AM_0
100
AcDbLine
 10
79.34217703251448
 20
228.6248189286076
 30
0.0
 11
79.34217703251448
 21
230.3864251009622
 31
0.0
  0
LINE
  5
1301
330
11AD
100
AcDbEntity
  8
AM_0
100
AcDbLine
 10
79.34217703251448
 20
230.3864251009622
 30
0.0
 11
79.14015797605159
 21
230.3864251009622
 31
0.0
  0
LINE
  5
1302
330
11AD
100
AcDbEntity
  8
AM_0
100
AcDbLine
 10
79.14015797605159
 20
230.3864251009622
 30
0.0
 11
79.14015797605159
 21
230.9844015080917
 31
0.0
  0
LINE
  5
1303
330
11AD
100
AcDbEntity
  8
AM_0
100
AcDbLine
 10
79.14015797605159
 20
230.9844015080917
 30
0.0
 11
80.52196832225659
 21
231.7682354471669
 31
0.0
  0
LINE
  5
1304
330
11AD
100
AcDbEntity
  8
AM_0
100
AcDbLine
 10
80.52196832225659
 20
231.7682354471669
 30
0.0
 11
80.52196832225659
 21
231.0248053193844
 31
0.0
  0
LINE
  5
1305
330
11AD
100
AcDbEntity
  8
AM_0
100
AcDbLine
 10
80.52196832225659
 20
231.0248053193844
 30
0.0
 11
80.78863347678728
 21
231.0248053193844
 31
0.0
  0
LINE
  5
1306
330
11AD
100
AcDbEntity
  8
AM_0
100
AcDbLine
 10
80.78863347678728
 20
231.0248053193844
 30
0.0
 11
80.78863347678728
 21
230.3864251009622
 31
0.0
  0
LINE
  5
1307
330
11AD
100
AcDbEntity
  8
AM_0
100
AcDbLine
 10
80.78863347678728
 20
230.3864251009622
 30
0.0
 11
80.52196832225659
 21
230.3864251009622
 31
0.0
  0
LINE
  5
1308
330
11AD
100
AcDbEntity
  8
AM_0
100
AcDbLine
 10
80.52196832225659
 20
230.3864251009622
 30
0.0
 11
80.5219683222567
 21
228.5116882569884
 31
0.0
  0
LINE
  5
1309
330
11AD
100
AcDbEntity
  8
AM_0
100
AcDbLine
 10
80.5219683222567
 20
228.5116882569884
 30
0.0
 11
80.80479500130431
 21
228.5116882569884
 31
0.0
  0
LINE
  5
130A
330
11AD
100
AcDbEntity
  8
AM_0
100
AcDbLine
 10
80.80479500130431
 20
228.5116882569884
 30
0.0
 11
80.80479500130431
 21
227.8813888008247
 31
0.0
  0
LINE
  5
130B
330
11AD
100
AcDbEntity
  8
AM_0
100
AcDbLine
 10
80.80479500130431
 20
227.8813888008247
 30
0.0
 11
79.9482342019034
 21
227.8813888008247
 31
0.0
  0
LINE
  5
130C
330
11AD
100
AcDbEntity
  8
AM_0
100
AcDbLine
 10
61.89946837710948
 20
233.4005494233854
 30
0.0
 11
62.7726754413338
 21
233.4005494233854
 31
0.0
  0
ARC
  5
130D
330
11AD
100
AcDbEntity
  8
AM_0
100
AcDbCircle
 10
59.85605313850133
 20
229.9256270185844
 30
0.0
 40
4.536713719948336
100
AcDbArc
 50
310.0155427753977
 51
49.99210360364018
  0
LINE
  5
130E
330
11AD
100
AcDbEntity
  8
AM_0
100
AcDbLine
 10
62.7731391593573
 20
226.4510938810689
 30
0.0
 11
61.9001301999327
 21
226.4510938810689
 31
0.0
  0
ARC
  5
130F
330
11AD
100
AcDbEntity
  8
AM_0
100
AcDbCircle
 10
59.85605313850133
 20
229.9256270185844
 30
0.0
 40
4.03120720836374
100
AcDbArc
 50
300.468412070287
 51
59.54250091540256
  0
LINE
  5
1310
330
11AD
100
AcDbEntity
  8
AM_0
100
AcDbLine
 10
82.5017550755909
 20
230.2167290935336
 30
0.0
 11
82.47751278881549
 21
230.1359214709486
 31
0.0
  0
LINE
  5
1311
330
11AD
100
AcDbEntity
  8
AM_0
100
AcDbLine
 10
82.47751278881549
 20
230.1359214709486
 30
0.0
 11
82.46943202655689
 21
230.0389523238465
 31
0.0
  0
LINE
  5
1312
330
11AD
100
AcDbEntity
  8
AM_0
100
AcDbLine
 10
82.46943202655689
 20
230.0389523238465
 30
0.0
 11
82.46943202655689
 21
229.7803679315742
 31
0.0
  0
LINE
  5
1313
330
11AD
100
AcDbEntity
  8
AM_0
100
AcDbLine
 10
82.46943202655689
 20
229.7803679315742
 30
0.0
 11
83.14821605627139
 21
229.7803679315742
 31
0.0
  0
LINE
  5
1314
330
11AD
100
AcDbEntity
  8
AM_0
100
AcDbLine
 10
83.14821605627139
 20
229.7803679315742
 30
0.0
 11
83.14821605627139
 21
229.9904677502949
 31
0.0
  0
LINE
  5
1315
330
11AD
100
AcDbEntity
  8
AM_0
100
AcDbLine
 10
83.14821605627139
 20
229.9904677502949
 30
0.0
 11
83.14013529401259
 21
230.0955176596587
 31
0.0
  0
LINE
  5
1316
330
11AD
100
AcDbEntity
  8
AM_0
100
AcDbLine
 10
83.14013529401259
 20
230.0955176596587
 30
0.0
 11
83.12397376949618
 21
230.1844060444996
 31
0.0
  0
LINE
  5
1317
330
11AD
100
AcDbEntity
  8
AM_0
100
AcDbLine
 10
83.12397376949618
 20
230.1844060444996
 30
0.0
 11
83.0916507204621
 21
230.2571329048261
 31
0.0
  0
LINE
  5
1318
330
11AD
100
AcDbEntity
  8
AM_0
100
AcDbLine
 10
83.0916507204621
 20
230.2571329048261
 30
0.0
 11
83.05124690916958
 21
230.3217790028941
 31
0.0
  0
LINE
  5
1319
330
11AD
100
AcDbEntity
  8
AM_0
100
AcDbLine
 10
83.05124690916958
 20
230.3217790028941
 30
0.0
 11
82.99468157335992
 21
230.3621828141865
 31
0.0
  0
LINE
  5
131A
330
11AD
100
AcDbEntity
  8
AM_0
100
AcDbLine
 10
82.99468157335992
 20
230.3621828141865
 30
0.0
 11
82.93811623755031
 21
230.3945058632207
 31
0.0
  0
LINE
  5
131B
330
11AD
100
AcDbEntity
  8
AM_0
100
AcDbLine
 10
82.93811623755031
 20
230.3945058632207
 30
0.0
 11
82.87347013948249
 21
230.4106673877377
 31
0.0
  0
LINE
  5
131C
330
11AD
100
AcDbEntity
  8
AM_0
100
AcDbLine
 10
82.87347013948249
 20
230.4106673877377
 30
0.0
 11
82.80074327915579
 21
230.4187481499964
 31
0.0
  0
LINE
  5
131D
330
11AD
100
AcDbEntity
  8
AM_0
100
AcDbLine
 10
82.80074327915579
 20
230.4187481499964
 30
0.0
 11
82.71993565657069
 21
230.4106673877377
 31
0.0
  0
LINE
  5
131E
330
11AD
100
AcDbEntity
  8
AM_0
100
AcDbLine
 10
82.71993565657069
 20
230.4106673877377
 30
0.0
 11
82.65528955850248
 21
230.3864251009622
 31
0.0
  0
LINE
  5
131F
330
11AD
100
AcDbEntity
  8
AM_0
100
AcDbLine
 10
82.65528955850248
 20
230.3864251009622
 30
0.0
 11
82.59064346043443
 21
230.3379405274112
 31
0.0
  0
LINE
  5
1320
330
11AD
100
AcDbEntity
  8
AM_0
100
AcDbLine
 10
82.59064346043443
 20
230.3379405274112
 30
0.0
 11
82.54215888688392
 21
230.2894559538602
 31
0.0
  0
LINE
  5
1321
330
11AD
100
AcDbEntity
  8
AM_0
100
AcDbLine
 10
82.54215888688392
 20
230.2894559538602
 30
0.0
 11
82.5017550755909
 21
230.2167290935336
 31
0.0
  0
LINE
  5
1322
330
11AD
100
AcDbEntity
  8
AM_0
100
AcDbLine
 10
73.61291659123242
 20
228.5682535927979
 30
0.0
 11
73.68564345155897
 21
228.6571419776414
 31
0.0
  0
LINE
  5
1323
330
11AD
100
AcDbEntity
  8
AM_0
100
AcDbLine
 10
73.68564345155897
 20
228.6571419776414
 30
0.0
 11
73.70180497607589
 21
228.713707313451
 31
0.0
  0
LINE
  5
1324
330
11AD
100
AcDbEntity
  8
AM_0
100
AcDbLine
 10
73.70180497607589
 20
228.713707313451
 30
0.0
 11
73.71796650059292
 21
228.7621918870021
 31
0.0
  0
LINE
  5
1325
330
11AD
100
AcDbEntity
  8
AM_0
100
AcDbLine
 10
73.71796650059292
 20
228.7621918870021
 30
0.0
 11
73.72604726285141
 21
228.8187572228117
 31
0.0
  0
LINE
  5
1326
330
11AD
100
AcDbEntity
  8
AM_0
100
AcDbLine
 10
73.72604726285141
 20
228.8187572228117
 30
0.0
 11
73.72604726285141
 21
230.0147100370704
 31
0.0
  0
LINE
  5
1327
330
11AD
100
AcDbEntity
  8
AM_0
100
AcDbLine
 10
73.72604726285141
 20
230.0147100370704
 30
0.0
 11
73.71796650059241
 21
230.1440022332069
 31
0.0
  0
LINE
  5
1328
330
11AD
100
AcDbEntity
  8
AM_0
100
AcDbLine
 10
73.71796650059241
 20
230.1440022332069
 30
0.0
 11
73.68564345155949
 21
230.2571329048261
 31
0.0
  0
LINE
  5
1329
330
11AD
100
AcDbEntity
  8
AM_0
100
AcDbLine
 10
73.68564345155949
 20
230.2571329048261
 30
0.0
 11
73.65332040252482
 21
230.3056174783773
 31
0.0
  0
LINE
  5
132A
330
11AD
100
AcDbEntity
  8
AM_0
100
AcDbLine
 10
73.65332040252482
 20
230.3056174783773
 30
0.0
 11
73.61291659123242
 21
230.3541020519282
 31
0.0
  0
LINE
  5
132B
330
11AD
100
AcDbEntity
  8
AM_0
100
AcDbLine
 10
73.61291659123242
 20
230.3541020519282
 30
0.0
 11
73.54827049316418
 21
230.3945058632207
 31
0.0
  0
LINE
  5
132C
330
11AD
100
AcDbEntity
  8
AM_0
100
AcDbLine
 10
73.54827049316418
 20
230.3945058632207
 30
0.0
 11
73.4755436328376
 21
230.4187481499964
 31
0.0
  0
LINE
  5
132D
330
11AD
100
AcDbEntity
  8
AM_0
100
AcDbLine
 10
73.4755436328376
 20
230.4187481499964
 30
0.0
 11
73.2977668631504
 21
230.4187481499964
 31
0.0
  0
LINE
  5
132E
330
11AD
100
AcDbEntity
  8
AM_0
100
AcDbLine
 10
73.2977668631504
 20
230.4187481499964
 30
0.0
 11
73.21695924056541
 21
230.3945058632207
 31
0.0
  0
LINE
  5
132F
330
11AD
100
AcDbEntity
  8
AM_0
100
AcDbLine
 10
73.21695924056541
 20
230.3945058632207
 30
0.0
 11
73.16039390475589
 21
230.3541020519282
 31
0.0
  0
LINE
  5
1330
330
11AD
100
AcDbEntity
  8
AM_0
100
AcDbLine
 10
73.16039390475589
 20
230.3541020519282
 30
0.0
 11
73.1199900934634
 21
230.3056174783773
 31
0.0
  0
LINE
  5
1331
330
11AD
100
AcDbEntity
  8
AM_0
100
AcDbLine
 10
73.1199900934634
 20
230.3056174783773
 30
0.0
 11
73.07150551991242
 21
230.2005675690164
 31
0.0
  0
LINE
  5
1332
330
11AD
100
AcDbEntity
  8
AM_0
100
AcDbLine
 10
73.07150551991242
 20
230.2005675690164
 30
0.0
 11
73.04726323313667
 21
230.0955176596557
 31
0.0
  0
LINE
  5
1333
330
11AD
100
AcDbEntity
  8
AM_0
100
AcDbLine
 10
73.04726323313667
 20
230.0955176596557
 30
0.0
 11
73.04726323313667
 21
228.8187572228117
 31
0.0
  0
LINE
  5
1334
330
11AD
100
AcDbEntity
  8
AM_0
100
AcDbLine
 10
73.04726323313667
 20
228.8187572228117
 30
0.0
 11
73.07150551991242
 21
228.713707313451
 31
0.0
  0
LINE
  5
1335
330
11AD
100
AcDbEntity
  8
AM_0
100
AcDbLine
 10
73.07150551991242
 20
228.713707313451
 30
0.0
 11
73.09978818781707
 21
228.6288593097367
 31
0.0
  0
LINE
  5
1336
330
11AD
100
AcDbEntity
  8
AM_0
100
AcDbLine
 10
73.09978818781707
 20
228.6288593097367
 30
0.0
 11
73.16039390475589
 21
228.5682535927979
 31
0.0
  0
LINE
  5
1337
330
11AD
100
AcDbEntity
  8
AM_0
100
AcDbLine
 10
73.16039390475589
 20
228.5682535927979
 30
0.0
 11
73.2977668631494
 21
228.5197690192472
 31
0.0
  0
LINE
  5
1338
330
11AD
100
AcDbEntity
  8
AM_0
100
AcDbLine
 10
73.2977668631494
 20
228.5197690192472
 30
0.0
 11
73.3866552479958
 21
228.5116882569886
 31
0.0
  0
LINE
  5
1339
330
11AD
100
AcDbEntity
  8
AM_0
100
AcDbLine
 10
73.3866552479958
 20
228.5116882569886
 30
0.0
 11
73.4755436328376
 21
228.5197690192467
 31
0.0
  0
LINE
  5
133A
330
11AD
100
AcDbEntity
  8
AM_0
100
AcDbLine
 10
73.4755436328376
 20
228.5197690192467
 30
0.0
 11
73.54827049316418
 21
228.5440113060224
 31
0.0
  0
LINE
  5
133B
330
11AD
100
AcDbEntity
  8
AM_0
100
AcDbLine
 10
73.54827049316418
 20
228.5440113060224
 30
0.0
 11
73.61291659123242
 21
228.5682535927979
 31
0.0
  0
ARC
  5
133C
330
11AD
100
AcDbEntity
  8
AM_0
100
AcDbCircle
 10
69.76906377197687
 20
230.642256415311
 30
0.0
 40
0.4056126045202606
100
AcDbArc
 50
276.4984299332854
 51
332.8918771288162
  0
ARC
  5
133D
330
11AD
100
AcDbEntity
  8
AM_0
100
AcDbCircle
 10
69.790727092074
 20
230.6311668585946
 30
0.0
 40
0.3812758482491635
100
AcDbArc
 50
332.8918771288034
 51
27.10812287102906
  0
ARC
  5
133E
330
11AD
100
AcDbEntity
  8
AM_0
100
AcDbCircle
 10
69.77683163345767
 20
230.6056307050592
 30
0.0
 40
0.4056126045202715
100
AcDbArc
 50
29.42526304057802
 51
180.0998033553732
  0
LINE
  5
133F
330
11AD
100
AcDbEntity
  8
AM_0
100
AcDbLine
 10
69.37121964429318
 20
230.6049241699744
 30
0.0
 11
69.3705164055157
 21
231.0086437948673
 31
0.0
  0
LINE
  5
1340
330
11AD
100
AcDbEntity
  8
AM_0
100
AcDbLine
 10
69.3705164055157
 20
231.0086437948673
 30
0.0
 11
69.3705164055157
 21
230.2392498890569
 31
0.0
  0
LINE
  5
1341
330
11AD
100
AcDbEntity
  8
AM_0
100
AcDbLine
 10
69.3705164055157
 20
230.2392498890569
 30
0.0
 11
69.81496937884983
 21
230.239249889057
 31
0.0
  0
LINE
  5
1342
330
11AD
100
AcDbEntity
  8
AM_0
100
AcDbLine
 10
93.88780558321498
 20
181.8611181447405
 30
0.0
 11
93.88780558321498
 21
60.84037791404472
 31
0.0
  0
LINE
  5
1343
102
{ACAD_REACTORS
330
13B0
102
}
330
11AD
100
AcDbEntity
  8
AM_0
100
AcDbLine
 10
93.88780558321498
 20
60.84037791404472
 30
0.0
 11
53.88780558321499
 21
60.84037791404472
 31
0.0
  0
LINE
  5
1344
102
{ACAD_REACTORS
330
13B0
330
13B6
102
}
330
11AD
100
AcDbEntity
  8
AM_0
100
AcDbLine
 10
53.88780558321499
 20
60.84037791404472
 30
0.0
 11
53.88780558321491
 21
181.8611181447405
 31
0.0
  0
LINE
  5
1345
330
11AD
100
AcDbEntity
  8
AM_0
100
AcDbLine
 10
96.21213626862967
 20
216.2146324455879
 30
0.0
 11
96.155183162025
 21
216.1576793389832
 31
0.0
  0
ELLIPSE
  5
1346
330
11AD
100
AcDbEntity
  8
AM_0
100
AcDbEllipse
 10
96.155183162025
 20
214.1577554928549
 30
0.0
 11
1.414213562372176
 21
-1.41421356237401
 31
0.0
210
0.0
220
0.0
230
1.0
 40
0.9999238504775703
 41
0.7854362396090357
 42
2.356156413982054
  0
LINE
  5
1347
330
11AD
100
AcDbEntity
  8
AM_0
100
AcDbLine
 10
98.15510700815341
 20
214.1577554928549
 30
0.0
 11
98.21206011475801
 21
214.2147085994596
 31
0.0
  0
LINE
  5
1348
330
11AD
100
AcDbEntity
  8
AM_0
100
AcDbLine
 10
51.62042800440492
 20
216.1576793389832
 30
0.0
 11
51.56347489780031
 21
216.2146324455877
 31
0.0
  0
LINE
  5
1349
330
11AD
100
AcDbEntity
  8
AM_0
100
AcDbLine
 10
49.56355105167199
 20
214.2147085994594
 30
0.0
 11
49.62050415827659
 21
214.1577554928549
 31
0.0
  0
ELLIPSE
  5
134A
330
11AD
100
AcDbEntity
  8
AM_0
100
AcDbEllipse
 10
51.62042800440492
 20
214.1577554928549
 30
0.0
 11
1.414213562375607
 21
1.414213562370578
 31
0.0
210
0.0
220
0.0
230
1.0
 40
0.9999238504775703
 41
0.7854362396101653
 42
2.356156413983184
  0
LINE
  5
134B
330
11AD
100
AcDbEntity
  8
AM_0
100
AcDbLine
 10
49.62050415827659
 20
57.12300033523473
 30
0.0
 11
49.56355105167199
 21
57.06604722863014
 31
0.0
  0
LINE
  5
134C
330
11AD
100
AcDbEntity
  8
AM_0
100
AcDbLine
 10
96.155183162025
 20
214.1577554928549
 30
0.0
 11
96.155183162025
 21
216.1576793389832
 31
0.0
  0
LINE
  5
134D
330
11AD
100
AcDbEntity
  8
AM_0
100
AcDbLine
 10
98.15510700815341
 20
214.1577554928549
 30
0.0
 11
96.155183162025
 21
214.1577554928549
 31
0.0
  0
LINE
  5
134E
330
11AD
100
AcDbEntity
  8
AM_0
100
AcDbLine
 10
98.21206011475801
 20
57.06604722863005
 30
0.0
 11
98.15510700815341
 21
57.12300033523473
 31
0.0
  0
ELLIPSE
  5
134F
330
11AD
100
AcDbEntity
  8
AM_0
100
AcDbEllipse
 10
96.155183162025
 20
57.12300033523473
 30
0.0
 11
-1.414213562373996
 21
-1.4142135623722
 31
0.0
210
0.0
220
0.0
230
1.0
 40
0.9999238504775703
 41
0.7854362396090231
 42
2.356156413982059
  0
LINE
  5
1350
330
11AD
100
AcDbEntity
  8
AM_0
100
AcDbLine
 10
96.155183162025
 20
55.12307648910635
 30
0.0
 11
96.21213626862967
 21
55.06612338250173
 31
0.0
  0
LINE
  5
1351
330
11AD
100
AcDbEntity
  8
AM_0
100
AcDbLine
 10
96.155183162025
 20
57.12300033523473
 30
0.0
 11
98.15510700815341
 21
57.12300033523473
 31
0.0
  0
LINE
  5
1352
330
11AD
100
AcDbEntity
  8
AM_0
100
AcDbLine
 10
96.155183162025
 20
55.12307648910635
 30
0.0
 11
96.155183162025
 21
57.12300033523473
 31
0.0
  0
LINE
  5
1353
330
11AD
100
AcDbEntity
  8
AM_0
100
AcDbLine
 10
51.56347489780031
 20
55.06612338250173
 30
0.0
 11
51.62042800440492
 21
55.12307648910635
 31
0.0
  0
ELLIPSE
  5
1354
330
11AD
100
AcDbEntity
  8
AM_0
100
AcDbEllipse
 10
51.62042800440492
 20
57.12300033523473
 30
0.0
 11
-1.414213562372182
 21
1.414213562374015
 31
0.0
210
0.0
220
0.0
230
1.0
 40
0.9999238504775703
 41
0.7854362396090357
 42
2.356156413982054
  0
LINE
  5
1355
330
11AD
100
AcDbEntity
  8
AM_0
100
AcDbLine
 10
51.62042800440492
 20
57.12300033523473
 30
0.0
 11
51.62042800440492
 21
55.12307648910635
 31
0.0
  0
LINE
  5
1356
330
11AD
100
AcDbEntity
  8
AM_0
100
AcDbLine
 10
49.62050415827659
 20
57.12300033523473
 30
0.0
 11
51.62042800440492
 21
57.12300033523473
 31
0.0
  0
LINE
  5
1357
330
11AD
100
AcDbEntity
  8
AM_0
100
AcDbLine
 10
51.62042800440492
 20
214.1577554928549
 30
0.0
 11
49.62050415827659
 21
214.1577554928549
 31
0.0
  0
LINE
  5
1358
330
11AD
100
AcDbEntity
  8
AM_0
100
AcDbLine
 10
51.62042800440492
 20
216.1576793389832
 30
0.0
 11
51.62042800440492
 21
214.1577554928549
 31
0.0
  0
LINE
  5
1359
330
11AD
100
AcDbEntity
  8
AM_0
100
AcDbLine
 10
96.155183162025
 20
216.1576793389832
 30
0.0
 11
51.62042800440492
 21
216.1576793389832
 31
0.0
  0
LINE
  5
135A
330
11AD
100
AcDbEntity
  8
AM_0
100
AcDbLine
 10
49.62050415827659
 20
214.1577554928549
 30
0.0
 11
49.62050415827659
 21
57.12300033523473
 31
0.0
  0
LINE
  5
135B
330
11AD
100
AcDbEntity
  8
AM_0
100
AcDbLine
 10
98.15510700815341
 20
57.12300033523473
 30
0.0
 11
98.15510700815341
 21
214.1577554928549
 31
0.0
  0
LINE
  5
135C
330
11AD
100
AcDbEntity
  8
AM_0
100
AcDbLine
 10
51.62042800440492
 20
55.12307648910635
 30
0.0
 11
96.155183162025
 21
55.12307648910635
 31
0.0
  0
LINE
  5
135D
330
11AD
100
AcDbEntity
  8
AM_0
100
AcDbLine
 10
96.155183162025
 20
214.1577554928549
 30
0.0
 11
96.155183162025
 21
57.12300033523473
 31
0.0
  0
LINE
  5
135E
330
11AD
100
AcDbEntity
  8
AM_0
100
AcDbLine
 10
96.155183162025
 20
57.12300033523473
 30
0.0
 11
51.62042800440492
 21
57.12300033523473
 31
0.0
  0
LINE
  5
135F
330
11AD
100
AcDbEntity
  8
AM_0
100
AcDbLine
 10
51.62042800440492
 20
57.12300033523473
 30
0.0
 11
51.62042800440492
 21
214.1577554928549
 31
0.0
  0
LINE
  5
1360
330
11AD
100
AcDbEntity
  8
AM_0
100
AcDbLine
 10
51.62042800440492
 20
214.1577554928549
 30
0.0
 11
96.155183162025
 21
214.1577554928549
 31
0.0
  0
CIRCLE
  5
1361
330
11AD
100
AcDbEntity
  8
AM_0
100
AcDbCircle
 10
73.88780558321491
 20
196.8611181447404
 30
0.0
 40
10.5
  0
LINE
  5
1362
330
11AD
100
AcDbEntity
  8
AM_0
100
AcDbLine
 10
53.88780558321491
 20
181.8611181447405
 30
0.0
 11
93.88780558321498
 21
181.8611181447405
 31
0.0
  0
LINE
  5
1363
330
11AD
100
AcDbEntity
  8
AM_0
100
AcDbLine
 10
53.88780558321499
 20
181.4732700552581
 30
0.0
 11
93.88780558321498
 21
181.4732700552581
 31
0.0
  0
LINE
  5
1364
102
{ACAD_REACTORS
330
13B6
102
}
330
11AD
100
AcDbEntity
  8
AM_0
100
AcDbLine
 10
93.88780558321498
 20
180.8403779140447
 30
0.0
 11
53.88780558321499
 21
180.8403779140447
 31
0.0
  0
CIRCLE
  5
1365
330
11AD
100
AcDbEntity
  8
AM_0
100
AcDbCircle
 10
73.88780558321491
 20
196.8611181447404
 30
0.0
 40
10.32499999999997
  0
SPLINE
  5
1366
330
11AD
100
AcDbEntity
  8
AM_0
100
AcDbSpline
210
0.0
220
0.0
230
1.0
 70
    28
 71
     2
 72
     6
 73
     3
 74
     0
 42
0.0000000001
 43
0.0000000001
 40
0.3807113172039051
 40
0.3807113172039051
 40
0.3807113172039051
 40
0.7614226344078102
 40
0.7614226344078102
 40
0.7614226344078102
 10
110.5169707078139
 20
228.8903779140448
 30
0.0
 41
1.0
 10
109.6461358324127
 20
227.3820476648471
 30
0.0
 41
1.037954849302032
 10
108.6405823329476
 20
225.6403779140448
 30
0.0
 41
1.0
  0
ARC
  5
1367
330
11AD
100
AcDbEntity
  8
AM_0
100
AcDbCircle
 10
104.887805583215
 20
232.1403779140449
 30
0.0
 40
6.500000000000027
100
AcDbArc
 50
270.0
 51
329.9999999999999
  0
SPLINE
  5
1368
330
11AD
100
AcDbEntity
  8
AM_0
100
AcDbSpline
210
0.0
220
0.0
230
1.0
 70
    28
 71
     2
 72
     6
 73
     3
 74
     0
 42
0.0000000001
 43
0.0000000001
 40
0.0
 40
0.0
 40
0.0
 40
0.3807113172039049
 40
0.3807113172039049
 40
0.3807113172039049
 10
108.6405823329476
 20
225.6403779140448
 30
0.0
 41
1.0
 10
106.6294753340173
 20
225.6403779140448
 30
0.0
 41
1.037954849302044
 10
104.887805583215
 20
225.6403779140448
 30
0.0
 41
1.0
  0
SPLINE
  5
1369
330
11AD
100
AcDbEntity
  8
AM_0
100
AcDbSpline
210
0.0
220
0.0
230
1.0
 70
    28
 71
     2
 72
     6
 73
     3
 74
     0
 42
0.0000000001
 43
0.0000000001
 40
0.0
 40
0.0
 40
0.0
 40
0.380711317203904
 40
0.380711317203904
 40
0.380711317203904
 10
101.1350288334824
 20
225.640377914045
 30
0.0
 41
1.0
 10
100.1294753340173
 20
227.3820476648471
 30
0.0
 41
1.037954849302052
 10
99.2586404586161
 20
228.8903779140448
 30
0.0
 41
1.0
  0
SPLINE
  5
136A
330
11AD
100
AcDbEntity
  8
AM_0
100
AcDbSpline
210
0.0
220
0.0
230
1.0
 70
    28
 71
     2
 72
     6
 73
     3
 74
     0
 42
0.0000000001
 43
0.0000000001
 40
0.3807113172039049
 40
0.3807113172039049
 40
0.3807113172039049
 40
0.7614226344078097
 40
0.7614226344078097
 40
0.7614226344078097
 10
104.887805583215
 20
225.6403779140448
 30
0.0
 41
1.0
 10
103.1461358324126
 20
225.6403779140448
 30
0.0
 41
1.037954849302014
 10
101.1350288334824
 20
225.6403779140448
 30
0.0
 41
1.0
  0
ARC
  5
136B
330
11AD
100
AcDbEntity
  8
AM_0
100
AcDbCircle
 10
104.887805583215
 20
232.1403779140449
 30
0.0
 40
6.500000000000028
100
AcDbArc
 50
210.0000000000001
 51
270.0
  0
SPLINE
  5
136C
330
11AD
100
AcDbEntity
  8
AM_0
100
AcDbSpline
210
0.0
220
0.0
230
1.0
 70
    28
 71
     2
 72
     6
 73
     3
 74
     0
 42
0.0000000001
 43
0.0000000001
 40
0.3807113172039051
 40
0.3807113172039051
 40
0.3807113172039051
 40
0.7614226344078103
 40
0.7614226344078103
 40
0.7614226344078103
 10
110.5169707078139
 20
235.3903779140448
 30
0.0
 41
1.0
 10
111.387805583215
 20
233.8820476648471
 30
0.0
 41
1.037954849302055
 10
112.3933590826802
 20
232.1403779140449
 30
0.0
 41
1.0
  0
ARC
  5
136D
330
11AD
100
AcDbEntity
  8
AM_0
100
AcDbCircle
 10
104.887805583215
 20
232.1403779140449
 30
0.0
 40
6.500000000000024
100
AcDbArc
 50
329.9999999999999
 51
30.00000000000014
  0
SPLINE
  5
136E
330
11AD
100
AcDbEntity
  8
AM_0
100
AcDbSpline
210
0.0
220
0.0
230
1.0
 70
    28
 71
     2
 72
     6
 73
     3
 74
     0
 42
0.0000000001
 43
0.0000000001
 40
0.0
 40
0.0
 40
0.0
 40
0.3807113172039051
 40
0.3807113172039051
 40
0.3807113172039051
 10
112.3933590826802
 20
232.1403779140449
 30
0.0
 41
1.0
 10
111.387805583215
 20
230.3987081632425
 30
0.0
 41
1.037954849302045
 10
110.5169707078139
 20
228.8903779140448
 30
0.0
 41
1.0
  0
SPLINE
  5
136F
330
11AD
100
AcDbEntity
  8
AM_0
100
AcDbSpline
210
0.0
220
0.0
230
1.0
 70
    28
 71
     2
 72
     6
 73
     3
 74
     0
 42
0.0000000001
 43
0.0000000001
 40
0.0
 40
0.0
 40
0.0
 40
0.3807113172039044
 40
0.3807113172039044
 40
0.3807113172039044
 10
97.38225208374993
 20
232.1403779140449
 30
0.0
 41
1.0
 10
98.387805583215
 20
233.8820476648471
 30
0.0
 41
1.037954849302037
 10
99.2586404586161
 20
235.3903779140448
 30
0.0
 41
1.0
  0
SPLINE
  5
1370
330
11AD
100
AcDbEntity
  8
AM_0
100
AcDbSpline
210
0.0
220
0.0
230
1.0
 70
    28
 71
     2
 72
     6
 73
     3
 74
     0
 42
0.0000000001
 43
0.0000000001
 40
0.380711317203904
 40
0.380711317203904
 40
0.380711317203904
 40
0.7614226344078081
 40
0.7614226344078081
 40
0.7614226344078081
 10
99.2586404586161
 20
228.8903779140448
 30
0.0
 41
1.0
 10
98.387805583215
 20
230.3987081632425
 30
0.0
 41
1.037954849302052
 10
97.38225208374993
 20
232.1403779140449
 30
0.0
 41
1.0
  0
ARC
  5
1371
330
11AD
100
AcDbEntity
  8
AM_0
100
AcDbCircle
 10
104.887805583215
 20
232.1403779140449
 30
0.0
 40
6.500000000000027
100
AcDbArc
 50
149.9999999999998
 51
210.0000000000001
  0
SPLINE
  5
1372
330
11AD
100
AcDbEntity
  8
AM_0
100
AcDbSpline
210
0.0
220
0.0
230
1.0
 70
    28
 71
     2
 72
     6
 73
     3
 74
     0
 42
0.0000000001
 43
0.0000000001
 40
0.3807113172039045
 40
0.3807113172039045
 40
0.3807113172039045
 40
0.7614226344078091
 40
0.7614226344078091
 40
0.7614226344078091
 10
104.887805583215
 20
238.6403779140449
 30
0.0
 41
1.0
 10
106.6294753340173
 20
238.6403779140449
 30
0.0
 41
1.037954849302044
 10
108.6405823329476
 20
238.6403779140449
 30
0.0
 41
1.0
  0
ARC
  5
1373
330
11AD
100
AcDbEntity
  8
AM_0
100
AcDbCircle
 10
104.887805583215
 20
232.1403779140449
 30
0.0
 40
6.500000000000026
100
AcDbArc
 50
30.00000000000014
 51
90.0
  0
SPLINE
  5
1374
330
11AD
100
AcDbEntity
  8
AM_0
100
AcDbSpline
210
0.0
220
0.0
230
1.0
 70
    28
 71
     2
 72
     6
 73
     3
 74
     0
 42
0.0000000001
 43
0.0000000001
 40
0.0
 40
0.0
 40
0.0
 40
0.3807113172039051
 40
0.3807113172039051
 40
0.3807113172039051
 10
108.6405823329476
 20
238.6403779140449
 30
0.0
 41
1.0
 10
109.6461358324127
 20
236.8987081632424
 30
0.0
 41
1.037954849302046
 10
110.5169707078139
 20
235.3903779140448
 30
0.0
 41
1.0
  0
SPLINE
  5
1375
330
11AD
100
AcDbEntity
  8
AM_0
100
AcDbSpline
210
0.0
220
0.0
230
1.0
 70
    28
 71
     2
 72
     6
 73
     3
 74
     0
 42
0.0000000001
 43
0.0000000001
 40
0.0
 40
0.0
 40
0.0
 40
0.3807113172039045
 40
0.3807113172039045
 40
0.3807113172039045
 10
101.1350288334824
 20
238.6403779140449
 30
0.0
 41
1.0
 10
103.1461358324126
 20
238.6403779140449
 30
0.0
 41
1.037954849302042
 10
104.887805583215
 20
238.6403779140449
 30
0.0
 41
1.0
  0
SPLINE
  5
1376
330
11AD
100
AcDbEntity
  8
AM_0
100
AcDbSpline
210
0.0
220
0.0
230
1.0
 70
    28
 71
     2
 72
     6
 73
     3
 74
     0
 42
0.0000000001
 43
0.0000000001
 40
0.3807113172039044
 40
0.3807113172039044
 40
0.3807113172039044
 40
0.7614226344078091
 40
0.7614226344078091
 40
0.7614226344078091
 10
99.2586404586161
 20
235.3903779140448
 30
0.0
 41
1.0
 10
100.1294753340173
 20
236.8987081632425
 30
0.0
 41
1.037954849302054
 10
101.1350288334824
 20
238.6403779140449
 30
0.0
 41
1.0
  0
ARC
  5
1377
330
11AD
100
AcDbEntity
  8
AM_0
100
AcDbCircle
 10
104.887805583215
 20
232.1403779140449
 30
0.0
 40
6.500000000000028
100
AcDbArc
 50
90.0
 51
149.9999999999998
  0
SPLINE
  5
1378
330
11AD
100
AcDbEntity
  8
AM_0
100
AcDbSpline
210
0.0
220
0.0
230
1.0
 70
    28
 71
     2
 72
     6
 73
     3
 74
     0
 42
0.0000000001
 43
0.0000000001
 40
0.3807113172039051
 40
0.3807113172039051
 40
0.3807113172039051
 40
0.7614226344078102
 40
0.7614226344078102
 40
0.7614226344078102
 10
110.5169707078139
 20
35.89037791404475
 30
0.0
 41
1.0
 10
109.6461358324127
 20
34.38204766484704
 30
0.0
 41
1.037954849302032
 10
108.6405823329476
 20
32.64037791404485
 30
0.0
 41
1.0
  0
ARC
  5
1379
330
11AD
100
AcDbEntity
  8
AM_0
100
AcDbCircle
 10
104.887805583215
 20
39.14037791404485
 30
0.0
 40
6.500000000000027
100
AcDbArc
 50
270.0
 51
329.9999999999999
  0
SPLINE
  5
137A
330
11AD
100
AcDbEntity
  8
AM_0
100
AcDbSpline
210
0.0
220
0.0
230
1.0
 70
    28
 71
     2
 72
     6
 73
     3
 74
     0
 42
0.0000000001
 43
0.0000000001
 40
0.0
 40
0.0
 40
0.0
 40
0.3807113172039049
 40
0.3807113172039049
 40
0.3807113172039049
 10
108.6405823329476
 20
32.64037791404475
 30
0.0
 41
1.0
 10
106.6294753340173
 20
32.64037791404475
 30
0.0
 41
1.037954849302044
 10
104.887805583215
 20
32.64037791404475
 30
0.0
 41
1.0
  0
SPLINE
  5
137B
330
11AD
100
AcDbEntity
  8
AM_0
100
AcDbSpline
210
0.0
220
0.0
230
1.0
 70
    28
 71
     2
 72
     6
 73
     3
 74
     0
 42
0.0000000001
 43
0.0000000001
 40
0.0
 40
0.0
 40
0.0
 40
0.380711317203904
 40
0.380711317203904
 40
0.380711317203904
 10
101.1350288334824
 20
32.64037791404485
 30
0.0
 41
1.0
 10
100.1294753340173
 20
34.38204766484705
 30
0.0
 41
1.037954849302052
 10
99.2586404586161
 20
35.89037791404475
 30
0.0
 41
1.0
  0
SPLINE
  5
137C
330
11AD
100
AcDbEntity
  8
AM_0
100
AcDbSpline
210
0.0
220
0.0
230
1.0
 70
    28
 71
     2
 72
     6
 73
     3
 74
     0
 42
0.0000000001
 43
0.0000000001
 40
0.3807113172039049
 40
0.3807113172039049
 40
0.3807113172039049
 40
0.7614226344078097
 40
0.7614226344078097
 40
0.7614226344078097
 10
104.887805583215
 20
32.64037791404475
 30
0.0
 41
1.0
 10
103.1461358324126
 20
32.64037791404475
 30
0.0
 41
1.037954849302014
 10
101.1350288334824
 20
32.64037791404475
 30
0.0
 41
1.0
  0
ARC
  5
137D
330
11AD
100
AcDbEntity
  8
AM_0
100
AcDbCircle
 10
104.887805583215
 20
39.14037791404485
 30
0.0
 40
6.500000000000028
100
AcDbArc
 50
210.0000000000001
 51
270.0
  0
SPLINE
  5
137E
330
11AD
100
AcDbEntity
  8
AM_0
100
AcDbSpline
210
0.0
220
0.0
230
1.0
 70
    28
 71
     2
 72
     6
 73
     3
 74
     0
 42
0.0000000001
 43
0.0000000001
 40
0.3807113172039051
 40
0.3807113172039051
 40
0.3807113172039051
 40
0.7614226344078103
 40
0.7614226344078103
 40
0.7614226344078103
 10
110.5169707078139
 20
42.39037791404473
 30
0.0
 41
1.0
 10
111.387805583215
 20
40.88204766484705
 30
0.0
 41
1.037954849302055
 10
112.3933590826802
 20
39.14037791404485
 30
0.0
 41
1.0
  0
ARC
  5
137F
330
11AD
100
AcDbEntity
  8
AM_0
100
AcDbCircle
 10
104.887805583215
 20
39.14037791404485
 30
0.0
 40
6.500000000000024
100
AcDbArc
 50
329.9999999999999
 51
30.00000000000014
  0
SPLINE
  5
1380
330
11AD
100
AcDbEntity
  8
AM_0
100
AcDbSpline
210
0.0
220
0.0
230
1.0
 70
    28
 71
     2
 72
     6
 73
     3
 74
     0
 42
0.0000000001
 43
0.0000000001
 40
0.0
 40
0.0
 40
0.0
 40
0.3807113172039051
 40
0.3807113172039051
 40
0.3807113172039051
 10
112.3933590826802
 20
39.14037791404473
 30
0.0
 41
1.0
 10
111.387805583215
 20
37.39870816324246
 30
0.0
 41
1.037954849302045
 10
110.5169707078139
 20
35.89037791404475
 30
0.0
 41
1.0
  0
SPLINE
  5
1381
330
11AD
100
AcDbEntity
  8
AM_0
100
AcDbSpline
210
0.0
220
0.0
230
1.0
 70
    28
 71
     2
 72
     6
 73
     3
 74
     0
 42
0.0000000001
 43
0.0000000001
 40
0.0
 40
0.0
 40
0.0
 40
0.3807113172039044
 40
0.3807113172039044
 40
0.3807113172039044
 10
97.38225208374993
 20
39.14037791404485
 30
0.0
 41
1.0
 10
98.387805583215
 20
40.88204766484705
 30
0.0
 41
1.037954849302037
 10
99.2586404586161
 20
42.39037791404473
 30
0.0
 41
1.0
  0
SPLINE
  5
1382
330
11AD
100
AcDbEntity
  8
AM_0
100
AcDbSpline
210
0.0
220
0.0
230
1.0
 70
    28
 71
     2
 72
     6
 73
     3
 74
     0
 42
0.0000000001
 43
0.0000000001
 40
0.380711317203904
 40
0.380711317203904
 40
0.380711317203904
 40
0.7614226344078081
 40
0.7614226344078081
 40
0.7614226344078081
 10
99.2586404586161
 20
35.89037791404475
 30
0.0
 41
1.0
 10
98.387805583215
 20
37.39870816324246
 30
0.0
 41
1.037954849302052
 10
97.38225208374993
 20
39.14037791404473
 30
0.0
 41
1.0
  0
ARC
  5
1383
330
11AD
100
AcDbEntity
  8
AM_0
100
AcDbCircle
 10
104.887805583215
 20
39.14037791404485
 30
0.0
 40
6.500000000000027
100
AcDbArc
 50
149.9999999999998
 51
210.0000000000001
  0
SPLINE
  5
1384
330
11AD
100
AcDbEntity
  8
AM_0
100
AcDbSpline
210
0.0
220
0.0
230
1.0
 70
    28
 71
     2
 72
     6
 73
     3
 74
     0
 42
0.0000000001
 43
0.0000000001
 40
0.3807113172039045
 40
0.3807113172039045
 40
0.3807113172039045
 40
0.7614226344078091
 40
0.7614226344078091
 40
0.7614226344078091
 10
104.887805583215
 20
45.64037791404473
 30
0.0
 41
1.0
 10
106.6294753340173
 20
45.64037791404473
 30
0.0
 41
1.037954849302044
 10
108.6405823329476
 20
45.64037791404473
 30
0.0
 41
1.0
  0
ARC
  5
1385
330
11AD
100
AcDbEntity
  8
AM_0
100
AcDbCircle
 10
104.887805583215
 20
39.14037791404485
 30
0.0
 40
6.500000000000026
100
AcDbArc
 50
30.00000000000014
 51
90.0
  0
SPLINE
  5
1386
330
11AD
100
AcDbEntity
  8
AM_0
100
AcDbSpline
210
0.0
220
0.0
230
1.0
 70
    28
 71
     2
 72
     6
 73
     3
 74
     0
 42
0.0000000001
 43
0.0000000001
 40
0.0
 40
0.0
 40
0.0
 40
0.3807113172039051
 40
0.3807113172039051
 40
0.3807113172039051
 10
108.6405823329476
 20
45.64037791404473
 30
0.0
 41
1.0
 10
109.6461358324127
 20
43.89870816324244
 30
0.0
 41
1.037954849302046
 10
110.5169707078139
 20
42.39037791404473
 30
0.0
 41
1.0
  0
SPLINE
  5
1387
330
11AD
100
AcDbEntity
  8
AM_0
100
AcDbSpline
210
0.0
220
0.0
230
1.0
 70
    28
 71
     2
 72
     6
 73
     3
 74
     0
 42
0.0000000001
 43
0.0000000001
 40
0.0
 40
0.0
 40
0.0
 40
0.3807113172039045
 40
0.3807113172039045
 40
0.3807113172039045
 10
101.1350288334824
 20
45.64037791404473
 30
0.0
 41
1.0
 10
103.1461358324126
 20
45.64037791404473
 30
0.0
 41
1.037954849302042
 10
104.887805583215
 20
45.64037791404473
 30
0.0
 41
1.0
  0
SPLINE
  5
1388
330
11AD
100
AcDbEntity
  8
AM_0
100
AcDbSpline
210
0.0
220
0.0
230
1.0
 70
    28
 71
     2
 72
     6
 73
     3
 74
     0
 42
0.0000000001
 43
0.0000000001
 40
0.3807113172039044
 40
0.3807113172039044
 40
0.3807113172039044
 40
0.7614226344078091
 40
0.7614226344078091
 40
0.7614226344078091
 10
99.2586404586161
 20
42.39037791404473
 30
0.0
 41
1.0
 10
100.1294753340173
 20
43.89870816324244
 30
0.0
 41
1.037954849302054
 10
101.1350288334824
 20
45.64037791404473
 30
0.0
 41
1.0
  0
ARC
  5
1389
330
11AD
100
AcDbEntity
  8
AM_0
100
AcDbCircle
 10
104.887805583215
 20
39.14037791404485
 30
0.0
 40
6.500000000000028
100
AcDbArc
 50
90.0
 51
149.9999999999998
  0
SPLINE
  5
138A
330
11AD
100
AcDbEntity
  8
AM_0
100
AcDbSpline
210
0.0
220
0.0
230
1.0
 70
    28
 71
     2
 72
     6
 73
     3
 74
     0
 42
0.0000000001
 43
0.0000000001
 40
0.3807113172039051
 40
0.3807113172039051
 40
0.3807113172039051
 40
0.7614226344078102
 40
0.7614226344078102
 40
0.7614226344078102
 10
49.08382902605132
 20
37.17586945241314
 30
0.0
 41
1.0
 10
48.55744057023298
 20
35.51564997462097
 30
0.0
 41
1.037954849302032
 10
47.94961953690298
 20
33.59859364978647
 30
0.0
 41
1.0
  0
ARC
  5
138B
330
11AD
100
AcDbEntity
  8
AM_0
100
AcDbCircle
 10
42.887805583215
 20
39.14037791404485
 30
0.0
 40
6.500000000000018
100
AcDbArc
 50
282.4082840800758
 51
342.4082840800764
  0
SPLINE
  5
138C
330
11AD
100
AcDbEntity
  8
AM_0
100
AcDbSpline
210
0.0
220
0.0
230
1.0
 70
    28
 71
     2
 72
     6
 73
     3
 74
     0
 42
0.0000000001
 43
0.0000000001
 40
0.0
 40
0.0
 40
0.0
 40
0.3807113172039049
 40
0.3807113172039049
 40
0.3807113172039049
 10
47.94961953690298
 20
33.59859364978647
 30
0.0
 41
1.0
 10
45.98548954244569
 20
33.16645394318746
 30
0.0
 41
1.037954849302044
 10
44.28450307091068
 20
32.79220997928876
 30
0.0
 41
1.0
  0
SPLINE
  5
138D
330
11AD
100
AcDbEntity
  8
AM_0
100
AcDbSpline
210
0.0
220
0.0
230
1.0
 70
    28
 71
     2
 72
     6
 73
     3
 74
     0
 42
0.0000000001
 43
0.0000000001
 40
0.0
 40
0.0
 40
0.0
 40
0.380711317203904
 40
0.380711317203904
 40
0.380711317203904
 10
40.61938660491839
 20
31.98582630879125
 30
0.0
 41
1.0
 10
39.26307764379109
 20
33.47074292702675
 30
0.0
 41
1.037954849302052
 10
38.08847962807443
 20
34.75671844092034
 30
0.0
 41
1.0
  0
SPLINE
  5
138E
330
11AD
100
AcDbEntity
  8
AM_0
100
AcDbSpline
210
0.0
220
0.0
230
1.0
 70
    28
 71
     2
 72
     6
 73
     3
 74
     0
 42
0.0000000001
 43
0.0000000001
 40
0.3807113172039049
 40
0.3807113172039049
 40
0.3807113172039049
 40
0.7614226344078097
 40
0.7614226344078097
 40
0.7614226344078097
 10
44.28450307091068
 20
32.79220997928876
 30
0.0
 41
1.0
 10
42.58351659937568
 20
32.41796601539014
 30
0.0
 41
1.037954849302014
 10
40.61938660491839
 20
31.98582630879115
 30
0.0
 41
1.0
  0
ARC
  5
138F
330
11AD
100
AcDbEntity
  8
AM_0
100
AcDbCircle
 10
42.887805583215
 20
39.14037791404485
 30
0.0
 40
6.500000000000018
100
AcDbArc
 50
222.4082840800765
 51
282.4082840800758
  0
SPLINE
  5
1390
330
11AD
100
AcDbEntity
  8
AM_0
100
AcDbSpline
210
0.0
220
0.0
230
1.0
 70
    28
 71
     2
 72
     6
 73
     3
 74
     0
 42
0.0000000001
 43
0.0000000001
 40
0.3807113172039051
 40
0.3807113172039051
 40
0.3807113172039051
 40
0.7614226344078103
 40
0.7614226344078103
 40
0.7614226344078103
 10
47.6871315383556
 20
43.52403738716913
 30
0.0
 41
1.0
 10
48.86172955407232
 20
42.23806187327554
 30
0.0
 41
1.037954849302055
 10
50.21803851519959
 20
40.75314525504004
 30
0.0
 41
1.0
  0
ARC
  5
1391
330
11AD
100
AcDbEntity
  8
AM_0
100
AcDbCircle
 10
42.887805583215
 20
39.14037791404485
 30
0.0
 40
6.500000000000014
100
AcDbArc
 50
342.4082840800764
 51
42.40828408007643
  0
SPLINE
  5
1392
330
11AD
100
AcDbEntity
  8
AM_0
100
AcDbSpline
210
0.0
220
0.0
230
1.0
 70
    28
 71
     2
 72
     6
 73
     3
 74
     0
 42
0.0000000001
 43
0.0000000001
 40
0.0
 40
0.0
 40
0.0
 40
0.3807113172039051
 40
0.3807113172039051
 40
0.3807113172039051
 10
50.21803851519959
 20
40.75314525503995
 30
0.0
 41
1.0
 10
49.6102174818696
 20
38.83608893020545
 30
0.0
 41
1.037954849302045
 10
49.08382902605132
 20
37.17586945241314
 30
0.0
 41
1.0
  0
SPLINE
  5
1393
330
11AD
100
AcDbEntity
  8
AM_0
100
AcDbSpline
210
0.0
220
0.0
230
1.0
 70
    28
 71
     2
 72
     6
 73
     3
 74
     0
 42
0.0000000001
 43
0.0000000001
 40
0.0
 40
0.0
 40
0.0
 40
0.3807113172039044
 40
0.3807113172039044
 40
0.3807113172039044
 10
35.55757265123032
 20
37.52761057304956
 30
0.0
 41
1.0
 10
36.1653936845604
 20
39.44466689788405
 30
0.0
 41
1.037954849302037
 10
36.69178214037859
 20
41.10488637567636
 30
0.0
 41
1.0
  0
SPLINE
  5
1394
330
11AD
100
AcDbEntity
  8
AM_0
100
AcDbSpline
210
0.0
220
0.0
230
1.0
 70
    28
 71
     2
 72
     6
 73
     3
 74
     0
 42
0.0000000001
 43
0.0000000001
 40
0.380711317203904
 40
0.380711317203904
 40
0.380711317203904
 40
0.7614226344078081
 40
0.7614226344078081
 40
0.7614226344078081
 10
38.08847962807443
 20
34.75671844092034
 30
0.0
 41
1.0
 10
36.9138816123577
 20
36.04269395481406
 30
0.0
 41
1.037954849302052
 10
35.5575726512304
 20
37.52761057304956
 30
0.0
 41
1.0
  0
ARC
  5
1395
330
11AD
100
AcDbEntity
  8
AM_0
100
AcDbCircle
 10
42.887805583215
 20
39.14037791404485
 30
0.0
 40
6.500000000000017
100
AcDbArc
 50
162.4082840800764
 51
222.4082840800765
  0
SPLINE
  5
1396
330
11AD
100
AcDbEntity
  8
AM_0
100
AcDbSpline
210
0.0
220
0.0
230
1.0
 70
    28
 71
     2
 72
     6
 73
     3
 74
     0
 42
0.0000000001
 43
0.0000000001
 40
0.3807113172039045
 40
0.3807113172039045
 40
0.3807113172039045
 40
0.7614226344078091
 40
0.7614226344078091
 40
0.7614226344078091
 10
41.4911080955193
 20
45.48854584880075
 30
0.0
 41
1.0
 10
43.19209456705431
 20
45.86278981269944
 30
0.0
 41
1.037954849302044
 10
45.15622456151149
 20
46.29492951929845
 30
0.0
 41
1.0
  0
ARC
  5
1397
330
11AD
100
AcDbEntity
  8
AM_0
100
AcDbCircle
 10
42.887805583215
 20
39.14037791404485
 30
0.0
 40
6.500000000000017
100
AcDbArc
 50
42.40828408007643
 51
102.4082840800766
  0
SPLINE
  5
1398
330
11AD
100
AcDbEntity
  8
AM_0
100
AcDbSpline
210
0.0
220
0.0
230
1.0
 70
    28
 71
     2
 72
     6
 73
     3
 74
     0
 42
0.0000000001
 43
0.0000000001
 40
0.0
 40
0.0
 40
0.0
 40
0.3807113172039051
 40
0.3807113172039051
 40
0.3807113172039051
 10
45.15622456151158
 20
46.29492951929833
 30
0.0
 41
1.0
 10
46.51253352263881
 20
44.81001290106283
 30
0.0
 41
1.037954849302046
 10
47.6871315383556
 20
43.52403738716913
 30
0.0
 41
1.0
  0
SPLINE
  5
1399
330
11AD
100
AcDbEntity
  8
AM_0
100
AcDbSpline
210
0.0
220
0.0
230
1.0
 70
    28
 71
     2
 72
     6
 73
     3
 74
     0
 42
0.0000000001
 43
0.0000000001
 40
0.0
 40
0.0
 40
0.0
 40
0.3807113172039045
 40
0.3807113172039045
 40
0.3807113172039045
 10
37.82599162952698
 20
44.68216217830314
 30
0.0
 41
1.0
 10
39.79012162398419
 20
45.11430188490215
 30
0.0
 41
1.037954849302042
 10
41.4911080955193
 20
45.48854584880075
 30
0.0
 41
1.0
  0
SPLINE
  5
139A
330
11AD
100
AcDbEntity
  8
AM_0
100
AcDbSpline
210
0.0
220
0.0
230
1.0
 70
    28
 71
     2
 72
     6
 73
     3
 74
     0
 42
0.0000000001
 43
0.0000000001
 40
0.3807113172039044
 40
0.3807113172039044
 40
0.3807113172039044
 40
0.7614226344078091
 40
0.7614226344078091
 40
0.7614226344078091
 10
36.69178214037859
 20
41.10488637567636
 30
0.0
 41
1.0
 10
37.2181705961969
 20
42.76510585346864
 30
0.0
 41
1.037954849302054
 10
37.8259916295269
 20
44.68216217830314
 30
0.0
 41
1.0
  0
ARC
  5
139B
330
11AD
100
AcDbEntity
  8
AM_0
100
AcDbCircle
 10
42.887805583215
 20
39.14037791404485
 30
0.0
 40
6.500000000000018
100
AcDbArc
 50
102.4082840800766
 51
162.4082840800764
  0
SPLINE
  5
139C
330
11AD
100
AcDbEntity
  8
AM_0
100
AcDbSpline
210
0.0
220
0.0
230
1.0
 70
    28
 71
     2
 72
     6
 73
     3
 74
     0
 42
0.0000000001
 43
0.0000000001
 40
0.3807113172039051
 40
0.3807113172039051
 40
0.3807113172039051
 40
0.7614226344078102
 40
0.7614226344078102
 40
0.7614226344078102
 10
48.51697070781381
 20
228.8903779140448
 30
0.0
 41
1.0
 10
47.64613583241268
 20
227.3820476648471
 30
0.0
 41
1.037954849302032
 10
46.64058233294759
 20
225.6403779140448
 30
0.0
 41
1.0
  0
ARC
  5
139D
330
11AD
100
AcDbEntity
  8
AM_0
100
AcDbCircle
 10
42.887805583215
 20
232.1403779140449
 30
0.0
 40
6.500000000000027
100
AcDbArc
 50
270.0
 51
329.9999999999999
  0
SPLINE
  5
139E
330
11AD
100
AcDbEntity
  8
AM_0
100
AcDbSpline
210
0.0
220
0.0
230
1.0
 70
    28
 71
     2
 72
     6
 73
     3
 74
     0
 42
0.0000000001
 43
0.0000000001
 40
0.0
 40
0.0
 40
0.0
 40
0.3807113172039049
 40
0.3807113172039049
 40
0.3807113172039049
 10
46.6405823329475
 20
225.6403779140448
 30
0.0
 41
1.0
 10
44.62947533401731
 20
225.6403779140448
 30
0.0
 41
1.037954849302044
 10
42.887805583215
 20
225.6403779140448
 30
0.0
 41
1.0
  0
SPLINE
  5
139F
330
11AD
100
AcDbEntity
  8
AM_0
100
AcDbSpline
210
0.0
220
0.0
230
1.0
 70
    28
 71
     2
 72
     6
 73
     3
 74
     0
 42
0.0000000001
 43
0.0000000001
 40
0.0
 40
0.0
 40
0.0
 40
0.380711317203904
 40
0.380711317203904
 40
0.380711317203904
 10
39.13502883348241
 20
225.640377914045
 30
0.0
 41
1.0
 10
38.12947533401731
 20
227.3820476648471
 30
0.0
 41
1.037954849302052
 10
37.2586404586161
 20
228.8903779140448
 30
0.0
 41
1.0
  0
SPLINE
  5
13A0
330
11AD
100
AcDbEntity
  8
AM_0
100
AcDbSpline
210
0.0
220
0.0
230
1.0
 70
    28
 71
     2
 72
     6
 73
     3
 74
     0
 42
0.0000000001
 43
0.0000000001
 40
0.3807113172039049
 40
0.3807113172039049
 40
0.3807113172039049
 40
0.7614226344078097
 40
0.7614226344078097
 40
0.7614226344078097
 10
42.887805583215
 20
225.6403779140448
 30
0.0
 41
1.0
 10
41.14613583241268
 20
225.6403779140448
 30
0.0
 41
1.037954849302014
 10
39.13502883348241
 20
225.6403779140448
 30
0.0
 41
1.0
  0
ARC
  5
13A1
330
11AD
100
AcDbEntity
  8
AM_0
100
AcDbCircle
 10
42.887805583215
 20
232.1403779140449
 30
0.0
 40
6.500000000000028
100
AcDbArc
 50
210.0000000000001
 51
270.0
  0
SPLINE
  5
13A2
330
11AD
100
AcDbEntity
  8
AM_0
100
AcDbSpline
210
0.0
220
0.0
230
1.0
 70
    28
 71
     2
 72
     6
 73
     3
 74
     0
 42
0.0000000001
 43
0.0000000001
 40
0.3807113172039051
 40
0.3807113172039051
 40
0.3807113172039051
 40
0.7614226344078103
 40
0.7614226344078103
 40
0.7614226344078103
 10
48.51697070781381
 20
235.3903779140448
 30
0.0
 41
1.0
 10
49.387805583215
 20
233.8820476648471
 30
0.0
 41
1.037954849302055
 10
50.39335908268009
 20
232.1403779140449
 30
0.0
 41
1.0
  0
ARC
  5
13A3
330
11AD
100
AcDbEntity
  8
AM_0
100
AcDbCircle
 10
42.887805583215
 20
232.1403779140449
 30
0.0
 40
6.500000000000024
100
AcDbArc
 50
329.9999999999999
 51
30.00000000000014
  0
SPLINE
  5
13A4
330
11AD
100
AcDbEntity
  8
AM_0
100
AcDbSpline
210
0.0
220
0.0
230
1.0
 70
    28
 71
     2
 72
     6
 73
     3
 74
     0
 42
0.0000000001
 43
0.0000000001
 40
0.0
 40
0.0
 40
0.0
 40
0.3807113172039051
 40
0.3807113172039051
 40
0.3807113172039051
 10
50.39335908268009
 20
232.1403779140449
 30
0.0
 41
1.0
 10
49.387805583215
 20
230.3987081632425
 30
0.0
 41
1.037954849302045
 10
48.51697070781381
 20
228.8903779140448
 30
0.0
 41
1.0
  0
SPLINE
  5
13A5
330
11AD
100
AcDbEntity
  8
AM_0
100
AcDbSpline
210
0.0
220
0.0
230
1.0
 70
    28
 71
     2
 72
     6
 73
     3
 74
     0
 42
0.0000000001
 43
0.0000000001
 40
0.0
 40
0.0
 40
0.0
 40
0.3807113172039044
 40
0.3807113172039044
 40
0.3807113172039044
 10
35.38225208374991
 20
232.1403779140449
 30
0.0
 41
1.0
 10
36.387805583215
 20
233.8820476648471
 30
0.0
 41
1.037954849302037
 10
37.25864045861619
 20
235.3903779140448
 30
0.0
 41
1.0
  0
SPLINE
  5
13A6
330
11AD
100
AcDbEntity
  8
AM_0
100
AcDbSpline
210
0.0
220
0.0
230
1.0
 70
    28
 71
     2
 72
     6
 73
     3
 74
     0
 42
0.0000000001
 43
0.0000000001
 40
0.380711317203904
 40
0.380711317203904
 40
0.380711317203904
 40
0.7614226344078081
 40
0.7614226344078081
 40
0.7614226344078081
 10
37.2586404586161
 20
228.8903779140448
 30
0.0
 41
1.0
 10
36.387805583215
 20
230.3987081632425
 30
0.0
 41
1.037954849302052
 10
35.38225208374991
 20
232.1403779140449
 30
0.0
 41
1.0
  0
ARC
  5
13A7
330
11AD
100
AcDbEntity
  8
AM_0
100
AcDbCircle
 10
42.887805583215
 20
232.1403779140449
 30
0.0
 40
6.500000000000027
100
AcDbArc
 50
149.9999999999998
 51
210.0000000000001
  0
SPLINE
  5
13A8
330
11AD
100
AcDbEntity
  8
AM_0
100
AcDbSpline
210
0.0
220
0.0
230
1.0
 70
    28
 71
     2
 72
     6
 73
     3
 74
     0
 42
0.0000000001
 43
0.0000000001
 40
0.3807113172039045
 40
0.3807113172039045
 40
0.3807113172039045
 40
0.7614226344078091
 40
0.7614226344078091
 40
0.7614226344078091
 10
42.887805583215
 20
238.6403779140449
 30
0.0
 41
1.0
 10
44.62947533401731
 20
238.6403779140449
 30
0.0
 41
1.037954849302044
 10
46.6405823329475
 20
238.6403779140449
 30
0.0
 41
1.0
  0
ARC
  5
13A9
330
11AD
100
AcDbEntity
  8
AM_0
100
AcDbCircle
 10
42.887805583215
 20
232.1403779140449
 30
0.0
 40
6.500000000000026
100
AcDbArc
 50
30.00000000000014
 51
90.0
  0
SPLINE
  5
13AA
330
11AD
100
AcDbEntity
  8
AM_0
100
AcDbSpline
210
0.0
220
0.0
230
1.0
 70
    28
 71
     2
 72
     6
 73
     3
 74
     0
 42
0.0000000001
 43
0.0000000001
 40
0.0
 40
0.0
 40
0.0
 40
0.3807113172039051
 40
0.3807113172039051
 40
0.3807113172039051
 10
46.64058233294759
 20
238.6403779140449
 30
0.0
 41
1.0
 10
47.64613583241268
 20
236.8987081632424
 30
0.0
 41
1.037954849302046
 10
48.51697070781381
 20
235.3903779140448
 30
0.0
 41
1.0
  0
SPLINE
  5
13AB
330
11AD
100
AcDbEntity
  8
AM_0
100
AcDbSpline
210
0.0
220
0.0
230
1.0
 70
    28
 71
     2
 72
     6
 73
     3
 74
     0
 42
0.0000000001
 43
0.0000000001
 40
0.0
 40
0.0
 40
0.0
 40
0.3807113172039045
 40
0.3807113172039045
 40
0.3807113172039045
 10
39.13502883348249
 20
238.6403779140449
 30
0.0
 41
1.0
 10
41.14613583241268
 20
238.6403779140449
 30
0.0
 41
1.037954849302042
 10
42.887805583215
 20
238.6403779140449
 30
0.0
 41
1.0
  0
SPLINE
  5
13AC
330
11AD
100
AcDbEntity
  8
AM_0
100
AcDbSpline
210
0.0
220
0.0
230
1.0
 70
    28
 71
     2
 72
     6
 73
     3
 74
     0
 42
0.0000000001
 43
0.0000000001
 40
0.3807113172039044
 40
0.3807113172039044
 40
0.3807113172039044
 40
0.7614226344078091
 40
0.7614226344078091
 40
0.7614226344078091
 10
37.25864045861619
 20
235.3903779140448
 30
0.0
 41
1.0
 10
38.12947533401731
 20
236.8987081632425
 30
0.0
 41
1.037954849302054
 10
39.13502883348241
 20
238.6403779140449
 30
0.0
 41
1.0
  0
ARC
  5
13AD
330
11AD
100
AcDbEntity
  8
AM_0
100
AcDbCircle
 10
42.887805583215
 20
232.1403779140449
 30
0.0
 40
6.500000000000028
100
AcDbArc
 50
90.0
 51
149.9999999999998
  0
DIMENSION
  5
13AE
102
{ACAD_XDICTIONARY
360
13AF
102
}
102
{ACAD_REACTORS
330
13B0
102
}
330
11AD
100
AcDbEntity
  8
AM_5
100
AcDbDimension
  2
*D11
 10
93.88780558321498
 20
11.00000027286842
 30
0.0
 11
73.88780558321497
 21
14.42500027286842
 31
0.0
 12
-119.490254059324
 22
-90.34093118980695
 32
0.0
  1
<>[]
 71
     5
 42
39.99999999999997
  3
AM_ISO$0
100
AcDbAlignedDimension
 13
53.88780558321499
 23
60.84037791404472
 33
0.0
 14
93.88780558321498
 24
60.84037791404472
 34
0.0
100
AcDbRotatedDimension
1001
ACAD_DSTYLE_DIMINSPECT
1070
   396
1000
100%
1070
   395
1000

1070
   394
1070
    33
1070
   393
1070
     0
1001
ACAD
1000
DSTYLE
1002
{
1070
   170
1070
     1
1002
}
  0
DIMENSION
  5
13B1
102
{ACAD_XDICTIONARY
360
13B2
102
}
102
{ACAD_REACTORS
330
13B3
102
}
330
11AD
100
AcDbEntity
  8
AM_5
100
AcDbDimension
  2
*D12
 10
29.887805583215
 20
1.000000272868234
 30
0.0
 11
73.88780558321499
 21
4.425000272868231
 31
0.0
 12
-119.490254059324
 22
-90.34093118980695
 32
0.0
 71
     5
 42
88.0
  3
AM_ISO$0
100
AcDbAlignedDimension
 13
117.887805583215
 23
35.64037791404475
 33
0.0
 14
29.887805583215
 24
35.64037791404475
 34
0.0
100
AcDbRotatedDimension
1001
ACAD
1000
DSTYLE
1002
{
1070
   170
1070
     1
1002
}
1001
ACAD_DSTYLE_DIMINSPECT
1070
   396
1000
100%
1070
   395
1000

1070
   394
1070
    33
1070
   393
1070
     0
  0
DIMENSION
  5
13B4
102
{ACAD_XDICTIONARY
360
13B5
102
}
102
{ACAD_REACTORS
330
13B6
102
}
330
11AD
100
AcDbEntity
  8
AM_5
100
AcDbDimension
  2
*D13
 10
18.397505687065
 20
180.8403779140447
 30
0.0
 11
18.39750568706495
 21
120.8403779140448
 31
0.0
 12
-119.490254059324
 22
-90.34093118980695
 32
0.0
 70
   128
 71
     5
 42
120.0
  3
AM_ISO$0
100
AcDbAlignedDimension
 13
53.88780558321499
 23
60.84037791404472
 33
0.0
 14
53.88780558321499
 24
180.8403779140447
 34
0.0
 50
90.0
100
AcDbRotatedDimension
1001
ACAD
1000
DSTYLE
1002
{
1070
   170
1070
     1
1002
}
1001
ACAD_DSTYLE_DIMINSPECT
1070
   396
1000
100%
1070
   395
1000

1070
   394
1070
    33
1070
   393
1070
     0
  0
DIMENSION
  5
13B7
102
{ACAD_XDICTIONARY
360
13B8
102
}
102
{ACAD_REACTORS
330
13B9
102
}
330
11AD
100
AcDbEntity
  8
AM_5
100
AcDbDimension
  2
*D14
 10
5.350000328715765
 20
27.64037791404475
 30
0.0
 11
1.925000328715753
 21
135.6403779140448
 31
0.0
 12
-119.490254059324
 22
-90.34093118980695
 32
0.0
 71
     5
 42
216.0000000000001
  3
AM_ISO$0
100
AcDbAlignedDimension
 13
37.887805583215
 23
243.6403779140448
 33
0.0
 14
37.887805583215
 24
27.64037791404475
 34
0.0
 50
90.0
100
AcDbRotatedDimension
1001
ACAD
1000
DSTYLE
1002
{
1070
   170
1070
     1
1002
}
1001
ACAD_DSTYLE_DIMINSPECT
1070
   396
1000
100%
1070
   395
1000

1070
   394
1070
    33
1070
   393
1070
     0
  0
ENDBLK
  5
13BB
330
11AD
100
AcDbEntity
  8
0
100
AcDbBlockEnd
  0
BLOCK
  5
13BF
330
13BE
100
AcDbEntity
  8
0
100
AcDbBlockBegin
  2
info
 70
     2
 10
0.0
 20
0.0
 30
0.0
  3
info
  1

  0
POINT
  5
13C0
330
13BE
100
AcDbEntity
  8
0
100
AcDbPoint
 10
0.0
 20
0.0
 30
0.0
  0
ATTDEF
  5
13C1
330
13BE
100
AcDbEntity
  8
0
100
AcDbText
 10
9.467092950319427
 20
2.891095235479383
 30
0.00000001
 40
5.0
  1

100
AcDbAttributeDefinition
  3
bredd
  2
BRD
 70
     1
1001
AcDbAttr
1070
     0
1070
     1
  0
ATTDEF
  5
13C2
330
13BE
100
AcDbEntity
  8
0
100
AcDbText
 10
9.467092950319427
 20
-5.442238097853946
 30
0.00000001
 40
5.0
  1

100
AcDbAttributeDefinition
  3
Höjd
  2
HJD
 70
     1
1001
AcDbAttr
1070
     0
1070
     1
  0
ENDBLK
  5
13C3
330
13BE
100
AcDbEntity
  8
0
100
AcDbBlockEnd
  0
BLOCK
  5
13D4
330
13D3
100
AcDbEntity
  8
0
100
AcDbBlockBegin
  2
COMSEALLW12FL21
 70
     0
 10
0.0
 20
0.0
 30
0.0
  3
COMSEALLW12FL21
  1

  0
LINE
  5
13D6
330
13D3
100
AcDbEntity
  8
AM_0
100
AcDbLine
 10
3.017302736884317
 20
108.0
 30
0.0
 11
3.017302736884317
 21
105.9999999999999
 31
0.0
  0
LINE
  5
13D7
330
13D3
100
AcDbEntity
  8
AM_0
100
AcDbLine
 10
-3.017302736884289
 20
105.9999999999999
 30
0.0
 11
-3.017302736884289
 21
108.0
 31
0.0
  0
LINE
  5
13D8
330
13D3
100
AcDbEntity
  8
AM_0
100
AcDbLine
 10
-43.99999999999997
 20
77.01730273688434
 30
0.0
 11
-41.99999999999997
 21
77.01730273688434
 31
0.0
  0
LINE
  5
13D9
330
13D3
100
AcDbEntity
  8
AM_0
100
AcDbLine
 10
-41.99999999999997
 20
-77.01730273688437
 30
0.0
 11
-43.99999999999997
 21
-77.01730273688437
 31
0.0
  0
LINE
  5
13DA
330
13D3
100
AcDbEntity
  8
AM_0
100
AcDbLine
 10
-3.017302736884289
 20
-108.0000000000001
 30
0.0
 11
-3.017302736884289
 21
-106.0000000000001
 31
0.0
  0
LINE
  5
13DB
330
13D3
100
AcDbEntity
  8
AM_0
100
AcDbLine
 10
3.017302736884317
 20
-106.0000000000001
 30
0.0
 11
3.017302736884317
 21
-108.0000000000001
 31
0.0
  0
LINE
  5
13DC
330
13D3
100
AcDbEntity
  8
AM_0
100
AcDbLine
 10
44.00000000000003
 20
-77.01730273688437
 30
0.0
 11
42.00000000000014
 21
-77.01730273688437
 31
0.0
  0
LINE
  5
13DD
330
13D3
100
AcDbEntity
  8
AM_0
100
AcDbLine
 10
42.00000000000002
 20
77.01730273688434
 30
0.0
 11
44.00000000000003
 21
77.01730273688434
 31
0.0
  0
LINE
  5
13DE
330
13D3
100
AcDbEntity
  8
AM_0
100
AcDbLine
 10
44.00000000000003
 20
79.01760739297208
 30
0.0
 11
44.00000000000003
 21
78.01775969781573
 31
0.0
  0
LINE
  5
13DF
330
13D3
100
AcDbEntity
  8
AM_0
100
AcDbLine
 10
44.00000000000003
 20
77.01730273688434
 30
0.0
 11
44.00000000000003
 21
78.01715043204058
 31
0.0
  0
LINE
  5
13E0
330
13D3
100
AcDbEntity
  8
AM_0
100
AcDbLine
 10
44.00000000000003
 20
-78.01715043204078
 30
0.0
 11
44.00000000000003
 21
-77.01730273688437
 31
0.0
  0
LINE
  5
13E1
330
13D3
100
AcDbEntity
  8
AM_0
100
AcDbLine
 10
44.00000000000003
 20
-78.01775969781579
 30
0.0
 11
44.00000000000003
 21
-79.0176073929722
 31
0.0
  0
LINE
  5
13E2
330
13D3
100
AcDbEntity
  8
AM_0
100
AcDbLine
 10
4.017759697815705
 20
108.0
 30
0.0
 11
5.017607392972109
 21
108.0
 31
0.0
  0
LINE
  5
13E3
330
13D3
100
AcDbEntity
  8
AM_0
100
AcDbLine
 10
4.017759697815705
 20
108.0
 30
0.0
 11
4.017759697815705
 21
106.0088791726343
 31
0.0
  0
ELLIPSE
  5
13E4
330
13D3
100
AcDbEntity
  8
AM_0
100
AcDbEllipse
 10
5.017607392972109
 20
106.0087268677907
 30
0.0
 11
1.0
 21
0.000000000000001
 31
0.0
210
0.0
220
0.0
230
1.0
 40
0.0087268677907588
 41
1.570796326795003
 42
3.124139359569187
  0
LINE
  5
13E5
330
13D3
100
AcDbEntity
  8
AM_0
100
AcDbLine
 10
5.017607392972109
 20
106.0174537355815
 30
0.0
 11
5.017607392972109
 21
108.0
 31
0.0
  0
ELLIPSE
  5
13E6
330
13D3
100
AcDbEntity
  8
AM_0
100
AcDbEllipse
 10
3.017302736884317
 20
106.0087268677907
 30
0.0
 11
0.9999999999999998
 21
0.000000000000001
 31
0.0
210
0.0
220
0.0
230
1.0
 40
0.0087268677907588
 41
4.712388980384795
 42
6.265732013152605
  0
LINE
  5
13E7
330
13D3
100
AcDbEntity
  8
AM_0
100
AcDbLine
 10
4.017150432040722
 20
106.008574562947
 30
0.0
 11
4.017150432040722
 21
108.0
 31
0.0
  0
LINE
  5
13E8
330
13D3
100
AcDbEntity
  8
AM_0
100
AcDbLine
 10
4.017150432040722
 20
108.0
 30
0.0
 11
3.017302736884317
 21
108.0
 31
0.0
  0
ELLIPSE
  5
13E9
330
13D3
100
AcDbEntity
  8
AM_0
100
AcDbEllipse
 10
-5.017607392972053
 20
106.0087268677907
 30
0.0
 11
1.0
 21
-0.000000000000011
 31
0.0
210
0.0
220
0.0
230
1.0
 40
0.0087268677907588
 41
0.0174533090139084
 42
1.570796326793653
  0
LINE
  5
13EA
330
13D3
100
AcDbEntity
  8
AM_0
100
AcDbLine
 10
-4.017759697815648
 20
106.0088791726343
 30
0.0
 11
-4.017759697815648
 21
108.0
 31
0.0
  0
LINE
  5
13EB
330
13D3
100
AcDbEntity
  8
AM_0
100
AcDbLine
 10
-5.017607392972053
 20
108.0
 30
0.0
 11
-4.017759697815648
 21
108.0
 31
0.0
  0
LINE
  5
13EC
330
13D3
100
AcDbEntity
  8
AM_0
100
AcDbLine
 10
-5.017607392972053
 20
108.0
 30
0.0
 11
-5.017607392972053
 21
106.0174537355815
 31
0.0
  0
LINE
  5
13ED
330
13D3
100
AcDbEntity
  8
AM_0
100
AcDbLine
 10
-3.017302736884289
 20
108.0
 30
0.0
 11
-4.017150432040665
 21
108.0
 31
0.0
  0
LINE
  5
13EE
330
13D3
100
AcDbEntity
  8
AM_0
100
AcDbLine
 10
-4.017150432040665
 20
108.0
 30
0.0
 11
-4.017150432040665
 21
106.008574562947
 31
0.0
  0
ELLIPSE
  5
13EF
330
13D3
100
AcDbEntity
  8
AM_0
100
AcDbEllipse
 10
-3.017302736884289
 20
106.0087268677907
 30
0.0
 11
0.9999999999999998
 21
-0.000000000000001
 31
0.0
210
0.0
220
0.0
230
1.0
 40
0.0087268677907588
 41
3.159045947616772
 42
4.712388980384583
  0
ELLIPSE
  5
13F0
330
13D3
100
AcDbEntity
  8
AM_0
100
AcDbEllipse
 10
42.00872686779084
 20
79.01760739297208
 30
0.0
 11
-0.0000000000000108
 21
-1.0
 31
0.0
210
0.0
220
0.0
230
1.0
 40
0.0087268677907588
 41
0.0174533090179789
 42
1.570796326793653
  0
LINE
  5
13F1
330
13D3
100
AcDbEntity
  8
AM_0
100
AcDbLine
 10
42.00887917263443
 20
78.01775969781573
 30
0.0
 11
44.00000000000003
 21
78.01775969781573
 31
0.0
  0
LINE
  5
13F2
330
13D3
100
AcDbEntity
  8
AM_0
100
AcDbLine
 10
44.00000000000003
 20
79.01760739297208
 30
0.0
 11
42.01745373558154
 21
79.01760739297208
 31
0.0
  0
LINE
  5
13F3
330
13D3
100
AcDbEntity
  8
AM_0
100
AcDbLine
 10
44.00000000000003
 20
78.01715043204069
 30
0.0
 11
42.00857456294722
 21
78.01715043204069
 31
0.0
  0
ELLIPSE
  5
13F4
330
13D3
100
AcDbEntity
  8
AM_0
100
AcDbEllipse
 10
42.00872686779084
 20
77.01730273688434
 30
0.0
 11
-0.000000000000011
 21
-1.0
 31
0.0
210
0.0
220
0.0
230
1.0
 40
0.0087268677907588
 41
3.159045962840035
 42
4.71238898038341
  0
LINE
  5
13F5
330
13D3
100
AcDbEntity
  8
AM_0
100
AcDbLine
 10
44.00000000000003
 20
-78.01775969781579
 30
0.0
 11
42.00887917263443
 21
-78.01775969781579
 31
0.0
  0
ELLIPSE
  5
13F6
330
13D3
100
AcDbEntity
  8
AM_0
100
AcDbEllipse
 10
42.00872686779084
 20
-79.0176073929722
 30
0.0
 11
-0.0000000000000088
 21
-1.0
 31
0.0
210
0.0
220
0.0
230
1.0
 40
0.0087268677907588
 41
1.570796326793884
 42
3.124139374439102
  0
LINE
  5
13F7
330
13D3
100
AcDbEntity
  8
AM_0
100
AcDbLine
 10
42.0174537355816
 20
-79.0176073929722
 30
0.0
 11
44.00000000000003
 21
-79.0176073929722
 31
0.0
  0
ELLIPSE
  5
13F8
330
13D3
100
AcDbEntity
  8
AM_0
100
AcDbEllipse
 10
42.00872686779084
 20
-77.01730273688437
 30
0.0
 11
0.0000000000000111
 21
-1.0
 31
0.0
210
0.0
220
0.0
230
1.0
 40
0.0087268677907588
 41
4.712388980385949
 42
6.265731998161608
  0
LINE
  5
13F9
330
13D3
100
AcDbEntity
  8
AM_0
100
AcDbLine
 10
42.00857456294722
 20
-78.01715043204078
 30
0.0
 11
44.00000000000003
 21
-78.01715043204078
 31
0.0
  0
ELLIPSE
  5
13FA
330
13D3
100
AcDbEntity
  8
AM_0
100
AcDbEllipse
 10
5.017607392972109
 20
-106.0087268677908
 30
0.0
 11
-1.0
 21
0.0000000000000105
 31
0.0
210
0.0
220
0.0
230
1.0
 40
0.0087268677907588
 41
0.0174533090232298
 42
1.570796326793653
  0
LINE
  5
13FB
330
13D3
100
AcDbEntity
  8
AM_0
100
AcDbLine
 10
4.017759697815705
 20
-106.0088791726345
 30
0.0
 11
4.017759697815705
 21
-108.0000000000001
 31
0.0
  0
LINE
  5
13FC
330
13D3
100
AcDbEntity
  8
AM_0
100
AcDbLine
 10
5.017607392972195
 20
-108.0
 30
0.0
 11
4.017759697815705
 21
-108.0
 31
0.0
  0
LINE
  5
13FD
330
13D3
100
AcDbEntity
  8
AM_0
100
AcDbLine
 10
5.017607392972109
 20
-108.0000000000001
 30
0.0
 11
5.017607392972109
 21
-106.0174537355816
 31
0.0
  0
LINE
  5
13FE
330
13D3
100
AcDbEntity
  8
AM_0
100
AcDbLine
 10
3.017302736884317
 20
-108.0
 30
0.0
 11
4.017150432040722
 21
-108.0
 31
0.0
  0
LINE
  5
13FF
330
13D3
100
AcDbEntity
  8
AM_0
100
AcDbLine
 10
-4.017150432040665
 20
-108.0000000000001
 30
0.0
 11
-3.017302736884289
 21
-108.0000000000001
 31
0.0
  0
LINE
  5
1400
330
13D3
100
AcDbEntity
  8
AM_0
100
AcDbLine
 10
-4.017759697815648
 20
-108.0000000000001
 30
0.0
 11
-5.017607392972053
 21
-108.0000000000001
 31
0.0
  0
LINE
  5
1401
330
13D3
100
AcDbEntity
  8
AM_0
100
AcDbLine
 10
4.017150432040722
 20
-108.0000000000001
 30
0.0
 11
4.017150432040722
 21
-106.0085745629472
 31
0.0
  0
ELLIPSE
  5
1402
330
13D3
100
AcDbEntity
  8
AM_0
100
AcDbEllipse
 10
3.017302736884317
 20
-106.0087268677909
 30
0.0
 11
-0.9999999999999998
 21
0.0000000000000005
 31
0.0
210
0.0
220
0.0
230
1.0
 40
0.0087268677907588
 41
3.159045947620843
 42
4.712388980384583
  0
LINE
  5
1403
330
13D3
100
AcDbEntity
  8
AM_0
100
AcDbLine
 10
-4.017759697815648
 20
-108.0000000000001
 30
0.0
 11
-4.017759697815648
 21
-106.0088791726345
 31
0.0
  0
ELLIPSE
  5
1404
330
13D3
100
AcDbEntity
  8
AM_0
100
AcDbEllipse
 10
-5.017607392972053
 20
-106.0087268677909
 30
0.0
 11
-1.0
 21
-0.0000000000000015
 31
0.0
210
0.0
220
0.0
230
1.0
 40
0.0087268677907588
 41
1.570796326795003
 42
3.124139359549634
  0
LINE
  5
1405
330
13D3
100
AcDbEntity
  8
AM_0
100
AcDbLine
 10
-5.017607392972053
 20
-106.0174537355816
 30
0.0
 11
-5.017607392972053
 21
-108.0000000000001
 31
0.0
  0
ELLIPSE
  5
1406
330
13D3
100
AcDbEntity
  8
AM_0
100
AcDbEllipse
 10
-3.017302736884289
 20
-106.0087268677908
 30
0.0
 11
-0.9999999999999998
 21
-0.0000000000000015
 31
0.0
210
0.0
220
0.0
230
1.0
 40
0.0087268677907588
 41
4.712388980384795
 42
6.265732013148535
  0
LINE
  5
1407
330
13D3
100
AcDbEntity
  8
AM_0
100
AcDbLine
 10
-4.017150432040665
 20
-106.0085745629472
 30
0.0
 11
-4.017150432040665
 21
-108.0000000000001
 31
0.0
  0
ELLIPSE
  5
1408
330
13D3
100
AcDbEntity
  8
AM_0
100
AcDbEllipse
 10
-42.00872686779078
 20
-79.0176073929723
 30
0.0
 11
0.0000000000000109
 21
1.0
 31
0.0
210
0.0
220
0.0
230
1.0
 40
0.0087268677907588
 41
0.0174533090159441
 42
1.570796326793634
  0
LINE
  5
1409
330
13D3
100
AcDbEntity
  8
AM_0
100
AcDbLine
 10
-42.00887917263429
 20
-78.01775969781591
 30
0.0
 11
-43.99999999999997
 21
-78.01775969781579
 31
0.0
  0
LINE
  5
140A
330
13D3
100
AcDbEntity
  8
AM_0
100
AcDbLine
 10
-43.99999999999997
 20
-79.0176073929722
 30
0.0
 11
-43.99999999999997
 21
-78.01775969781591
 31
0.0
  0
LINE
  5
140B
330
13D3
100
AcDbEntity
  8
AM_0
100
AcDbLine
 10
-43.99999999999997
 20
-79.0176073929722
 30
0.0
 11
-42.01745373558148
 21
-79.0176073929723
 31
0.0
  0
LINE
  5
140C
330
13D3
100
AcDbEntity
  8
AM_0
100
AcDbLine
 10
-43.99999999999997
 20
-77.01730273688437
 30
0.0
 11
-43.99999999999997
 21
-78.01715043204078
 31
0.0
  0
LINE
  5
140D
330
13D3
100
AcDbEntity
  8
AM_0
100
AcDbLine
 10
-43.99999999999997
 20
78.01715043204058
 30
0.0
 11
-43.99999999999997
 21
77.01730273688434
 31
0.0
  0
LINE
  5
140E
330
13D3
100
AcDbEntity
  8
AM_0
100
AcDbLine
 10
-43.99999999999997
 20
78.01775969781573
 30
0.0
 11
-43.99999999999997
 21
79.01760739297208
 31
0.0
  0
LINE
  5
140F
330
13D3
100
AcDbEntity
  8
AM_0
100
AcDbLine
 10
-43.99999999999997
 20
-78.01715043204078
 30
0.0
 11
-42.00857456294715
 21
-78.01715043204078
 31
0.0
  0
ELLIPSE
  5
1410
330
13D3
100
AcDbEntity
  8
AM_0
100
AcDbEllipse
 10
-42.00872686779078
 20
-77.01730273688437
 30
0.0
 11
0.0000000000000109
 21
1.0
 31
0.0
210
0.0
220
0.0
230
1.0
 40
0.0087268677907588
 41
3.159045962605736
 42
4.712388980383427
  0
LINE
  5
1411
330
13D3
100
AcDbEntity
  8
AM_0
100
AcDbLine
 10
-43.99999999999997
 20
78.01775969781573
 30
0.0
 11
-42.00887917263429
 21
78.01775969781584
 31
0.0
  0
ELLIPSE
  5
1412
330
13D3
100
AcDbEntity
  8
AM_0
100
AcDbEllipse
 10
-42.00872686779078
 20
79.01760739297208
 30
0.0
 11
0.0000000000000088
 21
1.0
 31
0.0
210
0.0
220
0.0
230
1.0
 40
0.0087268677907588
 41
1.570796326793865
 42
3.124139374439102
  0
LINE
  5
1413
330
13D3
100
AcDbEntity
  8
AM_0
100
AcDbLine
 10
-42.01745373558148
 20
79.01760739297208
 30
0.0
 11
-43.99999999999997
 21
79.01760739297208
 31
0.0
  0
ELLIPSE
  5
1414
330
13D3
100
AcDbEntity
  8
AM_0
100
AcDbEllipse
 10
-42.00872686779078
 20
77.01730273688434
 30
0.0
 11
-0.0000000000000112
 21
1.0
 31
0.0
210
0.0
220
0.0
230
1.0
 40
0.0087268677907588
 41
4.712388980385967
 42
6.265731997931379
  0
LINE
  5
1415
330
13D3
100
AcDbEntity
  8
AM_0
100
AcDbLine
 10
-42.00857456294715
 20
78.01715043204069
 30
0.0
 11
-43.99999999999997
 21
78.01715043204069
 31
0.0
  0
LINE
  5
1416
330
13D3
100
AcDbEntity
  8
AM_0
100
AcDbLine
 10
-3.017302736884289
 20
108.0
 30
0.0
 11
3.017302736884317
 21
108.0
 31
0.0
  0
LINE
  5
1417
330
13D3
100
AcDbEntity
  8
AM_0
100
AcDbLine
 10
-43.99999999999997
 20
-77.01730273688437
 30
0.0
 11
-43.99999999999997
 21
77.01730273688434
 31
0.0
  0
LINE
  5
1418
330
13D3
100
AcDbEntity
  8
AM_0
100
AcDbLine
 10
3.017302736884317
 20
-108.0000000000001
 30
0.0
 11
-3.017302736884289
 21
-108.0000000000001
 31
0.0
  0
LINE
  5
1419
330
13D3
100
AcDbEntity
  8
AM_0
100
AcDbLine
 10
44.00000000000003
 20
77.01730273688434
 30
0.0
 11
44.00000000000003
 21
-77.01730273688437
 31
0.0
  0
LINE
  5
141A
330
13D3
100
AcDbEntity
  8
AM_0
100
AcDbLine
 10
-3.017302736884289
 20
105.9999999999999
 30
0.0
 11
-35.99999999999997
 21
105.9999999999999
 31
0.0
  0
ARC
  5
141B
330
13D3
100
AcDbEntity
  8
AM_0
100
AcDbCircle
 10
-35.99999999999997
 20
100.0
 30
0.0
 40
5.999999999999996
100
AcDbArc
 50
90.0
 51
180.0
  0
LINE
  5
141C
330
13D3
100
AcDbEntity
  8
AM_0
100
AcDbLine
 10
-41.99999999999997
 20
100.0
 30
0.0
 11
-41.99999999999997
 21
77.01730273688434
 31
0.0
  0
LINE
  5
141D
330
13D3
100
AcDbEntity
  8
AM_0
100
AcDbLine
 10
-41.99999999999997
 20
-77.01730273688437
 30
0.0
 11
-41.99999999999997
 21
-100.0000000000001
 31
0.0
  0
ARC
  5
141E
330
13D3
100
AcDbEntity
  8
AM_0
100
AcDbCircle
 10
-35.99999999999997
 20
-100.0000000000001
 30
0.0
 40
5.999999999999982
100
AcDbArc
 50
180.0
 51
270.0
  0
LINE
  5
141F
330
13D3
100
AcDbEntity
  8
AM_0
100
AcDbLine
 10
-35.99999999999997
 20
-106.0000000000001
 30
0.0
 11
-3.017302736884289
 21
-106.0000000000001
 31
0.0
  0
LINE
  5
1420
330
13D3
100
AcDbEntity
  8
AM_0
100
AcDbLine
 10
3.017302736884317
 20
-106.0000000000001
 30
0.0
 11
36.00000000000003
 21
-106.0000000000001
 31
0.0
  0
ARC
  5
1421
330
13D3
100
AcDbEntity
  8
AM_0
100
AcDbCircle
 10
36.00000000000003
 20
-100.0000000000001
 30
0.0
 40
5.999999999999986
100
AcDbArc
 50
270.0
 51
0.0
  0
LINE
  5
1422
330
13D3
100
AcDbEntity
  8
AM_0
100
AcDbLine
 10
42.00000000000014
 20
-100.0000000000001
 30
0.0
 11
42.00000000000014
 21
-77.01730273688437
 31
0.0
  0
LINE
  5
1423
330
13D3
100
AcDbEntity
  8
AM_0
100
AcDbLine
 10
42.00000000000002
 20
77.01730273688434
 30
0.0
 11
42.00000000000002
 21
100.0
 31
0.0
  0
ARC
  5
1424
330
13D3
100
AcDbEntity
  8
AM_0
100
AcDbCircle
 10
36.00000000000003
 20
100.0
 30
0.0
 40
6.000000000000004
100
AcDbArc
 50
0.0
 51
90.0
  0
LINE
  5
1425
330
13D3
100
AcDbEntity
  8
AM_0
100
AcDbLine
 10
36.00000000000003
 20
105.9999999999999
 30
0.0
 11
3.017302736884317
 21
105.9999999999999
 31
0.0
  0
LINE
  5
1426
330
13D3
100
AcDbEntity
  8
AM_0
100
AcDbLine
 10
44.00000000000003
 20
100.0
 30
0.0
 11
44.00000000000003
 21
79.01760739297208
 31
0.0
  0
LINE
  5
1427
330
13D3
100
AcDbEntity
  8
AM_0
100
AcDbLine
 10
44.00000000000003
 20
78.01715043204069
 30
0.0
 11
44.00000000000003
 21
78.01775969781573
 31
0.0
  0
LINE
  5
1428
330
13D3
100
AcDbEntity
  8
AM_0
100
AcDbLine
 10
44.00000000000003
 20
-78.01715043204078
 30
0.0
 11
44.00000000000003
 21
-78.01775969781579
 31
0.0
  0
LINE
  5
1429
330
13D3
100
AcDbEntity
  8
AM_0
100
AcDbLine
 10
44.00000000000003
 20
-79.0176073929722
 30
0.0
 11
44.00000000000003
 21
-100.0000000000001
 31
0.0
  0
LINE
  5
142A
330
13D3
100
AcDbEntity
  8
AM_0
100
AcDbLine
 10
4.017150432040722
 20
106.008574562947
 30
0.0
 11
4.017759697815705
 21
106.0088791726343
 31
0.0
  0
LINE
  5
142B
330
13D3
100
AcDbEntity
  8
AM_0
100
AcDbLine
 10
36.00000000000003
 20
105.9999999999999
 30
0.0
 11
36.00000000000003
 21
106.0174537355815
 31
0.0
  0
LINE
  5
142C
330
13D3
100
AcDbEntity
  8
AM_0
100
AcDbLine
 10
36.00000000000003
 20
106.0174537355815
 30
0.0
 11
5.017607392972109
 21
106.0174537355815
 31
0.0
  0
LINE
  5
142D
330
13D3
100
AcDbEntity
  8
AM_0
100
AcDbLine
 10
4.017150432040722
 20
108.0
 30
0.0
 11
4.017759697815705
 21
108.0
 31
0.0
  0
LINE
  5
142E
330
13D3
100
AcDbEntity
  8
AM_0
100
AcDbLine
 10
-35.99999999999997
 20
108.0
 30
0.0
 11
-5.017607392972053
 21
108.0
 31
0.0
  0
LINE
  5
142F
330
13D3
100
AcDbEntity
  8
AM_0
100
AcDbLine
 10
-4.017150432040665
 20
108.0
 30
0.0
 11
-4.017759697815648
 21
108.0
 31
0.0
  0
LINE
  5
1430
330
13D3
100
AcDbEntity
  8
AM_0
100
AcDbLine
 10
5.017607392972109
 20
108.0
 30
0.0
 11
36.00000000000003
 21
108.0
 31
0.0
  0
LINE
  5
1431
330
13D3
100
AcDbEntity
  8
AM_0
100
AcDbLine
 10
-4.017150432040665
 20
106.008574562947
 30
0.0
 11
-4.017759697815648
 21
106.0088791726343
 31
0.0
  0
LINE
  5
1432
330
13D3
100
AcDbEntity
  8
AM_0
100
AcDbLine
 10
42.00857456294722
 20
78.01715043204069
 30
0.0
 11
42.00887917263443
 21
78.01775969781573
 31
0.0
  0
LINE
  5
1433
330
13D3
100
AcDbEntity
  8
AM_0
100
AcDbLine
 10
42.00857456294722
 20
-78.01715043204078
 30
0.0
 11
42.00887917263443
 21
-78.01775969781579
 31
0.0
  0
LINE
  5
1434
330
13D3
100
AcDbEntity
  8
AM_0
100
AcDbLine
 10
42.00000000000014
 20
-100.0000000000001
 30
0.0
 11
42.0174537355816
 21
-100.0000000000001
 31
0.0
  0
LINE
  5
1435
330
13D3
100
AcDbEntity
  8
AM_0
100
AcDbLine
 10
42.0174537355816
 20
-100.0000000000001
 30
0.0
 11
42.0174537355816
 21
-79.0176073929722
 31
0.0
  0
LINE
  5
1436
330
13D3
100
AcDbEntity
  8
AM_0
100
AcDbLine
 10
36.00000000000003
 20
-108.0000000000001
 30
0.0
 11
5.017607392972109
 21
-108.0000000000001
 31
0.0
  0
LINE
  5
1437
330
13D3
100
AcDbEntity
  8
AM_0
100
AcDbLine
 10
4.017150432040722
 20
-108.0000000000001
 30
0.0
 11
4.017759697815705
 21
-108.0000000000001
 31
0.0
  0
LINE
  5
1438
330
13D3
100
AcDbEntity
  8
AM_0
100
AcDbLine
 10
-4.017150432040665
 20
-108.0000000000001
 30
0.0
 11
-4.017759697815648
 21
-108.0000000000001
 31
0.0
  0
LINE
  5
1439
330
13D3
100
AcDbEntity
  8
AM_0
100
AcDbLine
 10
-5.017607392972053
 20
-108.0000000000001
 30
0.0
 11
-35.99999999999997
 21
-108.0000000000001
 31
0.0
  0
LINE
  5
143A
330
13D3
100
AcDbEntity
  8
AM_0
100
AcDbLine
 10
4.017150432040722
 20
-106.0085745629472
 30
0.0
 11
4.017759697815705
 21
-106.0088791726345
 31
0.0
  0
LINE
  5
143B
330
13D3
100
AcDbEntity
  8
AM_0
100
AcDbLine
 10
-4.017150432040665
 20
-106.0085745629472
 30
0.0
 11
-4.017759697815648
 21
-106.0088791726345
 31
0.0
  0
LINE
  5
143C
330
13D3
100
AcDbEntity
  8
AM_0
100
AcDbLine
 10
-35.99999999999997
 20
-106.0000000000001
 30
0.0
 11
-35.99999999999997
 21
-106.0174537355816
 31
0.0
  0
LINE
  5
143D
330
13D3
100
AcDbEntity
  8
AM_0
100
AcDbLine
 10
-35.99999999999997
 20
-106.0174537355816
 30
0.0
 11
-5.017607392972053
 21
-106.0174537355816
 31
0.0
  0
LINE
  5
143E
330
13D3
100
AcDbEntity
  8
AM_0
100
AcDbLine
 10
-43.99999999999997
 20
-100.0000000000001
 30
0.0
 11
-43.99999999999997
 21
-79.0176073929722
 31
0.0
  0
LINE
  5
143F
330
13D3
100
AcDbEntity
  8
AM_0
100
AcDbLine
 10
-43.99999999999997
 20
-78.01715043204078
 30
0.0
 11
-43.99999999999997
 21
-78.01775969781579
 31
0.0
  0
LINE
  5
1440
330
13D3
100
AcDbEntity
  8
AM_0
100
AcDbLine
 10
-43.99999999999997
 20
78.01715043204069
 30
0.0
 11
-43.99999999999997
 21
78.01775969781573
 31
0.0
  0
LINE
  5
1441
330
13D3
100
AcDbEntity
  8
AM_0
100
AcDbLine
 10
-43.99999999999997
 20
79.01760739297208
 30
0.0
 11
-43.99999999999997
 21
100.0
 31
0.0
  0
LINE
  5
1442
330
13D3
100
AcDbEntity
  8
AM_0
100
AcDbLine
 10
-42.00857456294715
 20
-78.01715043204078
 30
0.0
 11
-42.00887917263429
 21
-78.01775969781591
 31
0.0
  0
LINE
  5
1443
330
13D3
100
AcDbEntity
  8
AM_0
100
AcDbLine
 10
-42.00857456294715
 20
78.01715043204069
 30
0.0
 11
-42.00887917263429
 21
78.01775969781584
 31
0.0
  0
LINE
  5
1444
330
13D3
100
AcDbEntity
  8
AM_0
100
AcDbLine
 10
-41.99999999999997
 20
100.0
 30
0.0
 11
-42.01745373558148
 21
100.0
 31
0.0
  0
LINE
  5
1445
330
13D3
100
AcDbEntity
  8
AM_0
100
AcDbLine
 10
-42.01745373558148
 20
100.0
 30
0.0
 11
-42.01745373558148
 21
79.01760739297208
 31
0.0
  0
LINE
  5
1446
330
13D3
100
AcDbEntity
  8
AM_0
100
AcDbLine
 10
-42.01745373558148
 20
-79.0176073929723
 30
0.0
 11
-42.01745373558148
 21
-100.0000000000001
 31
0.0
  0
LINE
  5
1447
330
13D3
100
AcDbEntity
  8
AM_0
100
AcDbLine
 10
-41.99999999999997
 20
-100.0000000000001
 30
0.0
 11
-42.01745373558148
 21
-100.0000000000001
 31
0.0
  0
ARC
  5
1448
330
13D3
100
AcDbEntity
  8
AM_0
100
AcDbCircle
 10
-35.99999999999997
 20
-100.0000000000001
 30
0.0
 40
6.017453735581521
100
AcDbArc
 50
180.0
 51
270.0
  0
ARC
  5
1449
330
13D3
100
AcDbEntity
  8
AM_0
100
AcDbCircle
 10
-35.99999999999997
 20
-100.0000000000001
 30
0.0
 40
7.999999999999988
100
AcDbArc
 50
180.0
 51
270.0
  0
LINE
  5
144A
330
13D3
100
AcDbEntity
  8
AM_0
100
AcDbLine
 10
5.017607392972109
 20
-106.0174537355816
 30
0.0
 11
36.00000000000003
 21
-106.0174537355816
 31
0.0
  0
LINE
  5
144B
330
13D3
100
AcDbEntity
  8
AM_0
100
AcDbLine
 10
36.00000000000003
 20
-106.0000000000001
 30
0.0
 11
36.00000000000003
 21
-106.0174537355816
 31
0.0
  0
ARC
  5
144C
330
13D3
100
AcDbEntity
  8
AM_0
100
AcDbCircle
 10
36.00000000000003
 20
-100.0000000000001
 30
0.0
 40
6.017453735581507
100
AcDbArc
 50
270.0
 51
0.0
  0
ARC
  5
144D
330
13D3
100
AcDbEntity
  8
AM_0
100
AcDbCircle
 10
36.00000000000003
 20
-100.0000000000001
 30
0.0
 40
8.000000000000001
100
AcDbArc
 50
270.0
 51
0.0
  0
LINE
  5
144E
330
13D3
100
AcDbEntity
  8
AM_0
100
AcDbLine
 10
42.01745373558154
 20
79.01760739297208
 30
0.0
 11
42.01745373558154
 21
100.0
 31
0.0
  0
LINE
  5
144F
330
13D3
100
AcDbEntity
  8
AM_0
100
AcDbLine
 10
42.00000000000002
 20
100.0
 30
0.0
 11
42.01745373558154
 21
100.0
 31
0.0
  0
ARC
  5
1450
330
13D3
100
AcDbEntity
  8
AM_0
100
AcDbCircle
 10
36.00000000000003
 20
99.99999999999989
 30
0.0
 40
6.017453735581521
100
AcDbArc
 50
0.0
 51
90.0
  0
ARC
  5
1451
330
13D3
100
AcDbEntity
  8
AM_0
100
AcDbCircle
 10
36.00000000000003
 20
100.0
 30
0.0
 40
8.000000000000008
100
AcDbArc
 50
0.0
 51
90.0
  0
LINE
  5
1452
330
13D3
100
AcDbEntity
  8
AM_0
100
AcDbLine
 10
-5.017607392972053
 20
106.0174537355815
 30
0.0
 11
-35.99999999999997
 21
106.0174537355815
 31
0.0
  0
LINE
  5
1453
330
13D3
100
AcDbEntity
  8
AM_0
100
AcDbLine
 10
-35.99999999999997
 20
105.9999999999999
 30
0.0
 11
-35.99999999999997
 21
106.0174537355815
 31
0.0
  0
ARC
  5
1454
330
13D3
100
AcDbEntity
  8
AM_0
100
AcDbCircle
 10
-35.99999999999997
 20
99.99999999999989
 30
0.0
 40
6.017453735581561
100
AcDbArc
 50
90.0
 51
180.0
  0
ARC
  5
1455
330
13D3
100
AcDbEntity
  8
AM_0
100
AcDbCircle
 10
-35.99999999999997
 20
100.0
 30
0.0
 40
8.000000000000008
100
AcDbArc
 50
90.0
 51
180.0
  0
LINE
  5
1456
330
13D3
100
AcDbEntity
  8
AM_0
100
AcDbLine
 10
-25.32421645460715
 20
78.57433068541457
 30
0.0
 11
-25.32421645460715
 21
-78.57433068541471
 31
0.0
  0
ELLIPSE
  5
1457
330
13D3
100
AcDbEntity
  8
AM_0
100
AcDbEllipse
 10
-22.32410221944997
 20
78.57410221945002
 30
0.0
 11
-2.121481893392686
 21
2.121481893392648
 31
0.0
210
0.0
220
0.0
230
1.0
 40
0.9999238504775707
 41
5.497825219993075
 42
7.068545394366089
  0
LINE
  5
1458
330
13D3
100
AcDbEntity
  8
AM_0
100
AcDbLine
 10
22.32433068541471
 20
81.57421645460704
 30
0.0
 11
-22.32433068541465
 21
81.57421645460704
 31
0.0
  0
ELLIPSE
  5
1459
330
13D3
100
AcDbEntity
  8
AM_0
100
AcDbEllipse
 10
22.32410221944994
 20
78.57410221945002
 30
0.0
 11
2.121481893392666
 21
2.121481893392666
 31
0.0
210
0.0
220
0.0
230
1.0
 40
0.9999238504775703
 41
5.497825219993084
 42
7.068545394366085
  0
LINE
  5
145A
330
13D3
100
AcDbEntity
  8
AM_0
100
AcDbLine
 10
25.32421645460721
 20
-78.57433068541471
 30
0.0
 11
25.32421645460721
 21
78.57433068541474
 31
0.0
  0
ELLIPSE
  5
145B
330
13D3
100
AcDbEntity
  8
AM_0
100
AcDbEllipse
 10
22.32410221945
 20
-78.57410221944997
 30
0.0
 11
2.121481893392666
 21
-2.121481893392666
 31
0.0
210
0.0
220
0.0
230
1.0
 40
0.9999238504775703
 41
5.497825219993075
 42
7.068545394366097
  0
LINE
  5
145C
330
13D3
100
AcDbEntity
  8
AM_0
100
AcDbLine
 10
-22.32433068541465
 20
-81.5742164546072
 30
0.0
 11
22.32433068541471
 21
-81.57421645460729
 31
0.0
  0
ELLIPSE
  5
145D
330
13D3
100
AcDbEntity
  8
AM_0
100
AcDbEllipse
 10
-22.32410221944997
 20
-78.57410221944997
 30
0.0
 11
-2.121481893392666
 21
-2.121481893392666
 31
0.0
210
0.0
220
0.0
230
1.0
 40
0.9999238504775703
 41
5.497825219993079
 42
7.068545394366097
  0
LINE
  5
145E
330
13D3
100
AcDbEntity
  8
AM_0
100
AcDbLine
 10
-24.32425453154298
 20
78.57433068541457
 30
0.0
 11
-25.32421645460715
 21
78.57433068541457
 31
0.0
  0
LINE
  5
145F
330
13D3
100
AcDbEntity
  8
AM_0
100
AcDbLine
 10
-25.32421645460715
 20
-78.57433068541471
 30
0.0
 11
-24.32425453154298
 21
-78.57433068541471
 31
0.0
  0
LINE
  5
1460
330
13D3
100
AcDbEntity
  8
AM_0
100
AcDbLine
 10
-24.32425453154298
 20
-78.57433068541471
 30
0.0
 11
-24.32425453154298
 21
78.57433068541457
 31
0.0
  0
LINE
  5
1461
330
13D3
100
AcDbEntity
  8
AM_0
100
AcDbLine
 10
-22.32433068541465
 20
80.57425453154285
 30
0.0
 11
-22.32433068541465
 21
81.57421645460704
 31
0.0
  0
ELLIPSE
  5
1462
330
13D3
100
AcDbEntity
  8
AM_0
100
AcDbEllipse
 10
-22.32410221944997
 20
78.57410221945002
 30
0.0
 11
-1.414428958049826
 21
1.4144289580498
 31
0.0
210
0.0
220
0.0
230
1.0
 40
0.999847715450473
 41
5.497825219993063
 42
7.068545394366087
  0
LINE
  5
1463
330
13D3
100
AcDbEntity
  8
AM_0
100
AcDbLine
 10
-22.32433068541465
 20
-81.5742164546072
 30
0.0
 11
-22.32433068541465
 21
-80.57425453154312
 31
0.0
  0
ELLIPSE
  5
1464
330
13D3
100
AcDbEntity
  8
AM_0
100
AcDbEllipse
 10
-22.32410221944997
 20
-78.57410221944997
 30
0.0
 11
-1.414428958049809
 21
-1.414428958049809
 31
0.0
210
0.0
220
0.0
230
1.0
 40
0.9998477154504712
 41
5.497825219993072
 42
7.068545394366098
  0
LINE
  5
1465
330
13D3
100
AcDbEntity
  8
AM_0
100
AcDbLine
 10
22.32433068541471
 20
80.57425453154303
 30
0.0
 11
22.32433068541471
 21
81.57421645460704
 31
0.0
  0
LINE
  5
1466
330
13D3
100
AcDbEntity
  8
AM_0
100
AcDbLine
 10
-22.32433068541465
 20
80.57425453154285
 30
0.0
 11
22.32433068541471
 21
80.57425453154303
 31
0.0
  0
LINE
  5
1467
330
13D3
100
AcDbEntity
  8
AM_0
100
AcDbLine
 10
22.32433068541471
 20
-81.57421645460729
 30
0.0
 11
22.32433068541471
 21
-80.57425453154312
 31
0.0
  0
LINE
  5
1468
330
13D3
100
AcDbEntity
  8
AM_0
100
AcDbLine
 10
22.32433068541471
 20
-80.57425453154312
 30
0.0
 11
-22.32433068541465
 21
-80.57425453154312
 31
0.0
  0
LINE
  5
1469
330
13D3
100
AcDbEntity
  8
AM_0
100
AcDbLine
 10
24.32425453154304
 20
78.57433068541474
 30
0.0
 11
25.32421645460721
 21
78.57433068541474
 31
0.0
  0
ELLIPSE
  5
146A
330
13D3
100
AcDbEntity
  8
AM_0
100
AcDbEllipse
 10
22.32410221945
 20
78.57410221945002
 30
0.0
 11
1.414428958049809
 21
1.414428958049817
 31
0.0
210
0.0
220
0.0
230
1.0
 40
0.9998477154504714
 41
5.497825219993071
 42
7.068545394366094
  0
LINE
  5
146B
330
13D3
100
AcDbEntity
  8
AM_0
100
AcDbLine
 10
25.32421645460721
 20
-78.57433068541471
 30
0.0
 11
24.32425453154304
 21
-78.57433068541479
 31
0.0
  0
ELLIPSE
  5
146C
330
13D3
100
AcDbEntity
  8
AM_0
100
AcDbEllipse
 10
22.32410221945
 20
-78.57410221944997
 30
0.0
 11
1.414428958049813
 21
-1.414428958049817
 31
0.0
210
0.0
220
0.0
230
1.0
 40
0.9998477154504683
 41
5.497825219993072
 42
7.068545394366092
  0
LINE
  5
146D
330
13D3
100
AcDbEntity
  8
AM_0
100
AcDbLine
 10
24.32425453154304
 20
78.57433068541474
 30
0.0
 11
24.32425453154304
 21
-78.57433068541479
 31
0.0
  0
LINE
  5
146E
330
13D3
100
AcDbEntity
  8
AM_0
100
AcDbLine
 10
-10.29627108803495
 20
97.76029963643253
 30
0.0
 11
-7.644544171741785
 21
97.76029963643253
 31
0.0
  0
LINE
  5
146F
330
13D3
100
AcDbEntity
  8
AM_0
100
AcDbLine
 10
-7.644544171741785
 20
97.76029963643253
 30
0.0
 11
-7.644544171741898
 21
90.81084409411586
 31
0.0
  0
LINE
  5
1470
330
13D3
100
AcDbEntity
  8
AM_0
100
AcDbLine
 10
-7.644544171741898
 20
90.81084409411586
 30
0.0
 11
-10.29520734653917
 21
90.81084409411586
 31
0.0
  0
ARC
  5
1471
330
13D3
100
AcDbEntity
  8
AM_0
100
AcDbCircle
 10
-14.03175244471364
 20
94.28500000000003
 30
0.0
 40
5.102110203541537
100
AcDbArc
 50
317.0840086012435
 51
42.93353173622741
  0
LINE
  5
1472
330
13D3
100
AcDbEntity
  8
AM_0
100
AcDbLine
 10
-3.725374476365459
 20
93.00868330133909
 30
0.0
 11
-3.757697525399663
 21
93.50160979910697
 31
0.0
  0
ARC
  5
1473
330
13D3
100
AcDbEntity
  8
AM_0
100
AcDbCircle
 10
-4.171456555299357
 20
93.41836194633499
 30
0.0
 40
0.4220506365528565
100
AcDbArc
 50
11.37596594781682
 51
100.8114800752794
  0
LINE
  5
1474
330
13D3
100
AcDbEntity
  8
AM_0
100
AcDbLine
 10
-4.250624023168541
 20
93.83292105170585
 30
0.0
 11
-4.517289177699268
 21
93.83292105170585
 31
0.0
  0
LINE
  5
1475
330
13D3
100
AcDbEntity
  8
AM_0
100
AcDbLine
 10
-4.517289177699268
 20
93.83292105170585
 30
0.0
 11
-4.517289177699268
 21
92.27333393581369
 31
0.0
  0
LINE
  5
1476
330
13D3
100
AcDbEntity
  8
AM_0
100
AcDbLine
 10
-4.517289177699268
 20
92.27333393581369
 30
0.0
 11
-5.697080467441594
 21
92.27333393581369
 31
0.0
  0
LINE
  5
1477
330
13D3
100
AcDbEntity
  8
AM_0
100
AcDbLine
 10
-5.697080467441594
 20
92.27333393581369
 30
0.0
 11
-5.697080467441594
 21
96.16826134441481
 31
0.0
  0
LINE
  5
1478
330
13D3
100
AcDbEntity
  8
AM_0
100
AcDbLine
 10
-5.697080467441594
 20
96.16826134441481
 30
0.0
 11
-3.531436182161399
 21
96.16826134441481
 31
0.0
  0
LINE
  5
1479
330
13D3
100
AcDbEntity
  8
AM_0
100
AcDbLine
 10
-3.531436182161399
 20
96.16826134441481
 30
0.0
 11
-3.385982461508405
 21
96.16018058215599
 31
0.0
  0
ARC
  5
147A
330
13D3
100
AcDbEntity
  8
AM_0
100
AcDbCircle
 10
-3.414560095688273
 20
94.80825981321368
 30
0.0
 40
1.352222779971145
100
AcDbArc
 50
77.38851466568248
 51
88.78903109628181
  0
ARC
  5
147B
330
13D3
100
AcDbEntity
  8
AM_0
100
AcDbCircle
 10
-3.274745896959302
 20
95.43316414587934
 30
0.0
 40
0.7118686317449268
100
AcDbArc
 50
30.69463155046577
 51
77.38851466567691
  0
ARC
  5
147C
330
13D3
100
AcDbEntity
  8
AM_0
100
AcDbCircle
 10
-4.13602524550626
 20
95.19374161306201
 30
0.0
 40
1.591956655531653
100
AcDbArc
 50
348.1656515276995
 51
22.25048533843231
  0
ARC
  5
147D
330
13D3
100
AcDbEntity
  8
AM_0
100
AcDbCircle
 10
-3.303141065723565
 20
94.93600667460373
 30
0.0
 40
0.7284860009933709
100
AcDbArc
 50
276.847446023386
 51
354.584873867538
  0
ARC
  5
147E
330
13D3
100
AcDbEntity
  8
AM_0
100
AcDbCircle
 10
-3.29237758337058
 20
93.49332538860608
 30
0.0
 40
0.7234044337449493
100
AcDbArc
 50
9.013547133538333
 51
83.96218792413451
  0
LINE
  5
147F
330
13D3
100
AcDbEntity
  8
AM_0
100
AcDbLine
 10
-2.577906235657309
 20
93.60665970846781
 30
0.0
 11
-2.553663948881848
 21
93.30767150490288
 31
0.0
  0
LINE
  5
1480
330
13D3
100
AcDbEntity
  8
AM_0
100
AcDbLine
 10
-2.553663948881848
 20
93.30767150490288
 30
0.0
 11
-2.537502424364959
 21
92.73393738454888
 31
0.0
  0
ARC
  5
1481
330
13D3
100
AcDbEntity
  8
AM_0
100
AcDbCircle
 10
-0.2627678485953879
 20
92.97231987117504
 30
0.0
 40
2.287191203229786
100
AcDbArc
 50
185.9825169258617
 51
197.7947991534085
  0
LINE
  5
1482
330
13D3
100
AcDbEntity
  8
AM_0
100
AcDbLine
 10
-2.440533277262801
 20
92.27333393581369
 30
0.0
 11
-3.636486091521959
 21
92.27333393581369
 31
0.0
  0
LINE
  5
1483
330
13D3
100
AcDbEntity
  8
AM_0
100
AcDbLine
 10
-3.636486091521959
 20
92.27333393581369
 30
0.0
 11
-3.660728378297363
 21
92.36222232065756
 31
0.0
  0
LINE
  5
1484
330
13D3
100
AcDbEntity
  8
AM_0
100
AcDbLine
 10
-3.660728378297363
 20
92.36222232065756
 30
0.0
 11
-3.709212951848371
 21
92.72585662229051
 31
0.0
  0
LINE
  5
1485
330
13D3
100
AcDbEntity
  8
AM_0
100
AcDbLine
 10
-3.709212951848371
 20
92.72585662229051
 30
0.0
 11
-3.725374476365459
 21
93.00868330133909
 31
0.0
  0
LINE
  5
1486
330
13D3
100
AcDbEntity
  8
AM_0
100
AcDbLine
 10
0.3715719886979514
 20
92.24101088677986
 30
0.0
 11
-1.236499700744076
 21
92.24101088677986
 31
0.0
  0
LINE
  5
1487
330
13D3
100
AcDbEntity
  8
AM_0
100
AcDbLine
 10
-1.236499700744076
 20
92.24101088677986
 30
0.0
 11
-1.438518757207674
 21
92.2490916490384
 31
0.0
  0
ARC
  5
1488
330
13D3
100
AcDbEntity
  8
AM_0
100
AcDbCircle
 10
-1.433006033802655
 20
92.8235448202713
 30
0.0
 40
0.5744796219700782
100
AcDbArc
 50
191.4304844914627
 51
269.4501795705461
  0
LINE
  5
1489
330
13D3
100
AcDbEntity
  8
AM_0
100
AcDbLine
 10
-1.996091353044874
 20
92.70969509777335
 30
0.0
 11
-2.012252877561849
 21
92.83898729390939
 31
0.0
  0
LINE
  5
148A
330
13D3
100
AcDbEntity
  8
AM_0
100
AcDbLine
 10
-2.012252877561849
 20
92.83898729390939
 30
0.0
 11
-2.020333639820393
 21
94.6733203265909
 31
0.0
  0
ARC
  5
148B
330
13D3
100
AcDbEntity
  8
AM_0
100
AcDbCircle
 10
-1.404631689671958
 20
94.78358363095702
 30
0.0
 40
0.6254973123093685
100
AcDbArc
 50
87.9222070547042
 51
190.1532141872595
  0
LINE
  5
148C
330
13D3
100
AcDbEntity
  8
AM_0
100
AcDbLine
 10
-1.381953421398293
 20
95.40866969211521
 30
0.0
 11
0.3958142754734126
 21
95.40866969211487
 31
0.0
  0
ARC
  5
148D
330
13D3
100
AcDbEntity
  8
AM_0
100
AcDbCircle
 10
0.4310754674114321
 20
94.83085346552536
 30
0.0
 40
0.5788911325691064
100
AcDbArc
 50
0.4040300223579097
 51
93.49213999073075
  0
LINE
  5
148E
330
13D3
100
AcDbEntity
  8
AM_0
100
AcDbLine
 10
1.009952207120107
 20
94.83493557176132
 30
0.0
 11
1.009952207120107
 21
92.83090653165107
 31
0.0
  0
ARC
  5
148F
330
13D3
100
AcDbEntity
  8
AM_0
100
AcDbCircle
 10
0.4149126408994448
 20
92.85452585217319
 30
0.0
 40
0.5955081508006519
100
AcDbArc
 50
278.298663029679
 51
357.7269119786955
  0
ARC
  5
1490
330
13D3
100
AcDbEntity
  8
AM_0
100
AcDbCircle
 10
0.7352757152063419
 20
90.65815801181889
 30
0.0
 40
1.624100866463748
100
AcDbArc
 50
98.29866302968724
 51
102.940647522622
  0
LINE
  5
1491
330
13D3
100
AcDbEntity
  8
AM_0
100
AcDbLine
 10
-14.03140608843878
 20
91.8608239913704
 30
0.0
 11
-14.02799999999999
 21
96.70967222130071
 31
0.0
  0
ARC
  5
1492
330
13D3
100
AcDbEntity
  8
AM_0
100
AcDbCircle
 10
-14.02970304427779
 20
94.28524810633559
 30
0.0
 40
2.424424713119408
100
AcDbArc
 50
269.9597524076786
 51
89.9597524076786
  0
LINE
  5
1493
330
13D3
100
AcDbEntity
  8
AM_0
100
AcDbLine
 10
9.99030327059404
 20
92.21299331609719
 30
0.0
 11
9.808486119777541
 21
92.18875102932235
 31
0.0
  0
LINE
  5
1494
330
13D3
100
AcDbEntity
  8
AM_0
100
AcDbLine
 10
9.808486119777541
 20
92.18875102932235
 30
0.0
 11
8.06304147193984
 21
92.18875102931718
 31
0.0
  0
LINE
  5
1495
330
13D3
100
AcDbEntity
  8
AM_0
100
AcDbLine
 10
8.06304147193984
 20
92.18875102931718
 30
0.0
 11
7.949910800320708
 21
92.19683179158039
 31
0.0
  0
LINE
  5
1496
330
13D3
100
AcDbEntity
  8
AM_0
100
AcDbLine
 10
7.949910800320708
 20
92.19683179158039
 30
0.0
 11
7.852941653218692
 21
92.22107407835585
 31
0.0
  0
LINE
  5
1497
330
13D3
100
AcDbEntity
  8
AM_0
100
AcDbLine
 10
7.852941653218692
 20
92.22107407835585
 30
0.0
 11
7.75597250611662
 21
92.25339712738998
 31
0.0
  0
LINE
  5
1498
330
13D3
100
AcDbEntity
  8
AM_0
100
AcDbLine
 10
7.75597250611662
 20
92.25339712738998
 30
0.0
 11
7.667084121272949
 21
92.29380093868252
 31
0.0
  0
LINE
  5
1499
330
13D3
100
AcDbEntity
  8
AM_0
100
AcDbLine
 10
7.667084121272949
 20
92.29380093868252
 30
0.0
 11
7.594357260946452
 21
92.35036627449199
 31
0.0
  0
LINE
  5
149A
330
13D3
100
AcDbEntity
  8
AM_0
100
AcDbLine
 10
7.594357260946452
 20
92.35036627449199
 30
0.0
 11
7.529711162878356
 21
92.4311738970772
 31
0.0
  0
LINE
  5
149B
330
13D3
100
AcDbEntity
  8
AM_0
100
AcDbLine
 10
7.529711162878356
 20
92.4311738970772
 30
0.0
 11
7.473145827068833
 21
92.52006228192072
 31
0.0
  0
LINE
  5
149C
330
13D3
100
AcDbEntity
  8
AM_0
100
AcDbLine
 10
7.473145827068833
 20
92.52006228192072
 30
0.0
 11
7.432742015776113
 21
92.63319295353989
 31
0.0
  0
LINE
  5
149D
330
13D3
100
AcDbEntity
  8
AM_0
100
AcDbLine
 10
7.432742015776113
 20
92.63319295353989
 30
0.0
 11
7.408499729000709
 21
92.77056591193456
 31
0.0
  0
LINE
  5
149E
330
13D3
100
AcDbEntity
  8
AM_0
100
AcDbLine
 10
7.408499729000709
 20
92.77056591193456
 30
0.0
 11
7.400418966742222
 21
92.93218115710482
 31
0.0
  0
LINE
  5
149F
330
13D3
100
AcDbEntity
  8
AM_0
100
AcDbLine
 10
7.400418966742222
 20
92.93218115710482
 30
0.0
 11
7.400418966742222
 21
94.62106046913289
 31
0.0
  0
LINE
  5
14A0
330
13D3
100
AcDbEntity
  8
AM_0
100
AcDbLine
 10
7.400418966742222
 20
94.62106046913289
 30
0.0
 11
7.408499729000709
 21
94.78267571430308
 31
0.0
  0
LINE
  5
14A1
330
13D3
100
AcDbEntity
  8
AM_0
100
AcDbLine
 10
7.408499729000709
 20
94.78267571430308
 30
0.0
 11
7.440822778034601
 21
94.92004867269759
 31
0.0
  0
LINE
  5
14A2
330
13D3
100
AcDbEntity
  8
AM_0
100
AcDbLine
 10
7.440822778034601
 20
94.92004867269759
 30
0.0
 11
7.481226589327434
 21
95.03317934431658
 31
0.0
  0
LINE
  5
14A3
330
13D3
100
AcDbEntity
  8
AM_0
100
AcDbLine
 10
7.481226589327434
 20
95.03317934431658
 30
0.0
 11
7.545872687395217
 21
95.13014849141887
 31
0.0
  0
LINE
  5
14A4
330
13D3
100
AcDbEntity
  8
AM_0
100
AcDbLine
 10
7.545872687395217
 20
95.13014849141887
 30
0.0
 11
7.618599547721942
 21
95.20287535174531
 31
0.0
  0
LINE
  5
14A5
330
13D3
100
AcDbEntity
  8
AM_0
100
AcDbLine
 10
7.618599547721942
 20
95.20287535174531
 30
0.0
 11
7.707487932565442
 21
95.26752144981339
 31
0.0
  0
LINE
  5
14A6
330
13D3
100
AcDbEntity
  8
AM_0
100
AcDbLine
 10
7.707487932565442
 20
95.26752144981339
 30
0.0
 11
7.820618604184431
 21
95.307925261106
 31
0.0
  0
LINE
  5
14A7
330
13D3
100
AcDbEntity
  8
AM_0
100
AcDbLine
 10
7.820618604184431
 20
95.307925261106
 30
0.0
 11
7.941830038062221
 21
95.34024831014011
 31
0.0
  0
LINE
  5
14A8
330
13D3
100
AcDbEntity
  8
AM_0
100
AcDbLine
 10
7.941830038062221
 20
95.34024831014011
 30
0.0
 11
8.079202996456842
 21
95.35640983465697
 31
0.0
  0
LINE
  5
14A9
330
13D3
100
AcDbEntity
  8
AM_0
100
AcDbLine
 10
8.079202996456842
 20
95.35640983465697
 30
0.0
 11
9.784243833002022
 21
95.35640983465697
 31
0.0
  0
ARC
  5
14AA
330
13D3
100
AcDbEntity
  8
AM_0
100
AcDbCircle
 10
9.854894907535452
 20
94.78466265243303
 30
0.0
 40
0.5760958381326426
100
AcDbArc
 50
358.1947406809014
 51
97.04435690989262
  0
LINE
  5
14AB
330
13D3
100
AcDbEntity
  8
AM_0
100
AcDbLine
 10
10.43070481368261
 20
94.7665141897861
 30
0.0
 11
10.43878557594101
 21
94.62106046913289
 31
0.0
  0
LINE
  5
14AC
330
13D3
100
AcDbEntity
  8
AM_0
100
AcDbLine
 10
10.43878557594101
 20
94.62106046913289
 30
0.0
 11
10.43878557594101
 21
93.45743070390756
 31
0.0
  0
LINE
  5
14AD
330
13D3
100
AcDbEntity
  8
AM_0
100
AcDbLine
 10
10.43878557594101
 20
93.45743070390756
 30
0.0
 11
8.580210256484349
 21
93.45743070390756
 31
0.0
  0
LINE
  5
14AE
330
13D3
100
AcDbEntity
  8
AM_0
100
AcDbLine
 10
8.580210256484349
 20
93.45743070390756
 30
0.0
 11
8.588291018742722
 21
93.12611945130901
 31
0.0
  0
LINE
  5
14AF
330
13D3
100
AcDbEntity
  8
AM_0
100
AcDbLine
 10
8.588291018742722
 20
93.12611945130901
 30
0.0
 11
8.620614067776728
 21
92.99682725517261
 31
0.0
  0
LINE
  5
14B0
330
13D3
100
AcDbEntity
  8
AM_0
100
AcDbLine
 10
8.620614067776728
 20
92.99682725517261
 30
0.0
 11
8.652937116811045
 21
92.94026191936337
 31
0.0
  0
LINE
  5
14B1
330
13D3
100
AcDbEntity
  8
AM_0
100
AcDbLine
 10
8.652937116811045
 20
92.94026191936337
 30
0.0
 11
8.693340928103424
 21
92.89177734581199
 31
0.0
  0
LINE
  5
14B2
330
13D3
100
AcDbEntity
  8
AM_0
100
AcDbLine
 10
8.693340928103424
 20
92.89177734581199
 30
0.0
 11
8.757987026171548
 21
92.85137353451949
 31
0.0
  0
LINE
  5
14B3
330
13D3
100
AcDbEntity
  8
AM_0
100
AcDbLine
 10
8.757987026171548
 20
92.85137353451949
 30
0.0
 11
8.830713886498045
 21
92.82713124774387
 31
0.0
  0
LINE
  5
14B4
330
13D3
100
AcDbEntity
  8
AM_0
100
AcDbLine
 10
8.830713886498045
 20
92.82713124774387
 30
0.0
 11
8.91960227134183
 21
92.8190504854855
 31
0.0
  0
LINE
  5
14B5
330
13D3
100
AcDbEntity
  8
AM_0
100
AcDbLine
 10
8.91960227134183
 20
92.8190504854855
 30
0.0
 11
8.976167607151012
 21
92.82713124774387
 31
0.0
  0
LINE
  5
14B6
330
13D3
100
AcDbEntity
  8
AM_0
100
AcDbLine
 10
8.976167607151012
 20
92.82713124774387
 30
0.0
 11
9.024652180702332
 21
92.83521201000269
 31
0.0
  0
LINE
  5
14B7
330
13D3
100
AcDbEntity
  8
AM_0
100
AcDbLine
 10
9.024652180702332
 20
92.83521201000269
 30
0.0
 11
9.081217516511941
 21
92.85945429677809
 31
0.0
  0
LINE
  5
14B8
330
13D3
100
AcDbEntity
  8
AM_0
100
AcDbLine
 10
9.081217516511941
 20
92.85945429677809
 30
0.0
 11
9.12970209006292
 21
92.89177734581199
 31
0.0
  0
LINE
  5
14B9
330
13D3
100
AcDbEntity
  8
AM_0
100
AcDbLine
 10
9.12970209006292
 20
92.89177734581199
 30
0.0
 11
9.178186663613956
 21
92.93218115710482
 31
0.0
  0
LINE
  5
14BA
330
13D3
100
AcDbEntity
  8
AM_0
100
AcDbLine
 10
9.178186663613956
 20
92.93218115710482
 30
0.0
 11
9.218590474906449
 21
92.98874649291423
 31
0.0
  0
LINE
  5
14BB
330
13D3
100
AcDbEntity
  8
AM_0
100
AcDbLine
 10
9.218590474906449
 20
92.98874649291423
 30
0.0
 11
9.250913523940624
 21
93.06147335324073
 31
0.0
  0
LINE
  5
14BC
330
13D3
100
AcDbEntity
  8
AM_0
100
AcDbLine
 10
9.250913523940624
 20
93.06147335324073
 30
0.0
 11
9.25899428619914
 21
93.15844250034286
 31
0.0
  0
LINE
  5
14BD
330
13D3
100
AcDbEntity
  8
AM_0
100
AcDbLine
 10
9.25899428619914
 20
93.15844250034286
 30
0.0
 11
10.43878557594101
 21
93.15844250034286
 31
0.0
  0
LINE
  5
14BE
330
13D3
100
AcDbEntity
  8
AM_0
100
AcDbLine
 10
10.43878557594101
 20
93.15844250034286
 30
0.0
 11
10.43878557594101
 21
92.92410039484611
 31
0.0
  0
LINE
  5
14BF
330
13D3
100
AcDbEntity
  8
AM_0
100
AcDbLine
 10
10.43878557594101
 20
92.92410039484611
 30
0.0
 11
10.43070481368272
 21
92.77056591193456
 31
0.0
  0
LINE
  5
14C0
330
13D3
100
AcDbEntity
  8
AM_0
100
AcDbLine
 10
10.43070481368272
 20
92.77056591193456
 30
0.0
 11
10.40646252690712
 21
92.63319295353989
 31
0.0
  0
LINE
  5
14C1
330
13D3
100
AcDbEntity
  8
AM_0
100
AcDbLine
 10
10.40646252690712
 20
92.63319295353989
 30
0.0
 11
10.36605871561462
 21
92.51198151966219
 31
0.0
  0
LINE
  5
14C2
330
13D3
100
AcDbEntity
  8
AM_0
100
AcDbLine
 10
10.36605871561462
 20
92.51198151966219
 30
0.0
 11
10.30949337980505
 21
92.41501237256006
 31
0.0
  0
LINE
  5
14C3
330
13D3
100
AcDbEntity
  8
AM_0
100
AcDbLine
 10
10.30949337980505
 20
92.41501237256006
 30
0.0
 11
10.18020118366883
 21
92.28572017642381
 31
0.0
  0
LINE
  5
14C4
330
13D3
100
AcDbEntity
  8
AM_0
100
AcDbLine
 10
10.18020118366883
 20
92.28572017642381
 30
0.0
 11
10.09520353620894
 21
92.25219997742584
 31
0.0
  0
LINE
  5
14C5
330
13D3
100
AcDbEntity
  8
AM_0
100
AcDbLine
 10
10.09520353620894
 20
92.25219997742584
 30
0.0
 11
10.04282822527432
 21
92.237235602873
 31
0.0
  0
LINE
  5
14C6
330
13D3
100
AcDbEntity
  8
AM_0
100
AcDbLine
 10
10.04282822527432
 20
92.237235602873
 30
0.0
 11
9.99030327059404
 21
92.21299331609719
 31
0.0
  0
LINE
  5
14C7
330
13D3
100
AcDbEntity
  8
AM_0
100
AcDbLine
 10
10.94879491531804
 20
92.82282576939252
 30
0.0
 11
10.94071415305961
 21
92.9844410145626
 31
0.0
  0
LINE
  5
14C8
330
13D3
100
AcDbEntity
  8
AM_0
100
AcDbLine
 10
10.94071415305961
 20
92.9844410145626
 30
0.0
 11
10.94071415305961
 21
94.66523956433235
 31
0.0
  0
LINE
  5
14C9
330
13D3
100
AcDbEntity
  8
AM_0
100
AcDbLine
 10
10.94071415305961
 20
94.66523956433235
 30
0.0
 11
10.94879491531804
 21
94.81877404724384
 31
0.0
  0
LINE
  5
14CA
330
13D3
100
AcDbEntity
  8
AM_0
100
AcDbLine
 10
10.94879491531804
 20
94.81877404724384
 30
0.0
 11
10.96495643983502
 21
94.94806624338002
 31
0.0
  0
LINE
  5
14CB
330
13D3
100
AcDbEntity
  8
AM_0
100
AcDbLine
 10
10.96495643983502
 20
94.94806624338002
 30
0.0
 11
11.00536025112771
 21
95.06119691499902
 31
0.0
  0
LINE
  5
14CC
330
13D3
100
AcDbEntity
  8
AM_0
100
AcDbLine
 10
11.00536025112771
 20
95.06119691499902
 30
0.0
 11
11.05384482467843
 21
95.15008529984289
 31
0.0
  0
LINE
  5
14CD
330
13D3
100
AcDbEntity
  8
AM_0
100
AcDbLine
 10
11.05384482467843
 20
95.15008529984289
 30
0.0
 11
11.16374319139433
 21
95.27372096239782
 31
0.0
  0
LINE
  5
14CE
330
13D3
100
AcDbEntity
  8
AM_0
100
AcDbLine
 10
11.16374319139433
 20
95.27372096239782
 30
0.0
 11
11.27202540565813
 21
95.32786206953
 31
0.0
  0
LINE
  5
14CF
330
13D3
100
AcDbEntity
  8
AM_0
100
AcDbLine
 10
11.27202540565813
 20
95.32786206953
 30
0.0
 11
11.36899455276045
 21
95.36018511856401
 31
0.0
  0
LINE
  5
14D0
330
13D3
100
AcDbEntity
  8
AM_0
100
AcDbLine
 10
11.36899455276045
 20
95.36018511856401
 30
0.0
 11
11.46596369986252
 21
95.38442740533952
 31
0.0
  0
LINE
  5
14D1
330
13D3
100
AcDbEntity
  8
AM_0
100
AcDbLine
 10
11.46596369986252
 20
95.38442740533952
 30
0.0
 11
11.57101360922303
 21
95.40058892985632
 31
0.0
  0
LINE
  5
14D2
330
13D3
100
AcDbEntity
  8
AM_0
100
AcDbLine
 10
11.57101360922303
 20
95.40058892985632
 30
0.0
 11
11.67606351858362
 21
95.40866969211487
 31
0.0
  0
LINE
  5
14D3
330
13D3
100
AcDbEntity
  8
AM_0
100
AcDbLine
 10
11.67606351858362
 20
95.40866969211487
 30
0.0
 11
13.31645825706101
 21
95.40866969211487
 31
0.0
  0
LINE
  5
14D4
330
13D3
100
AcDbEntity
  8
AM_0
100
AcDbLine
 10
13.31645825706101
 20
95.40866969211487
 30
0.0
 11
13.39713437939434
 21
95.40621364993961
 31
0.0
  0
LINE
  5
14D5
330
13D3
100
AcDbEntity
  8
AM_0
100
AcDbLine
 10
13.39713437939434
 20
95.40621364993961
 30
0.0
 11
13.52655807578202
 21
95.37634664308086
 31
0.0
  0
LINE
  5
14D6
330
13D3
100
AcDbEntity
  8
AM_0
100
AcDbLine
 10
13.52655807578202
 20
95.37634664308086
 30
0.0
 11
13.62352722288403
 21
95.35210435630535
 31
0.0
  0
LINE
  5
14D7
330
13D3
100
AcDbEntity
  8
AM_0
100
AcDbLine
 10
13.62352722288403
 20
95.35210435630535
 30
0.0
 11
13.7043348454691
 21
95.30361978275436
 31
0.0
  0
LINE
  5
14D8
330
13D3
100
AcDbEntity
  8
AM_0
100
AcDbLine
 10
13.7043348454691
 20
95.30361978275436
 30
0.0
 11
13.78514246805415
 21
95.24705444694474
 31
0.0
  0
LINE
  5
14D9
330
13D3
100
AcDbEntity
  8
AM_0
100
AcDbLine
 10
13.78514246805415
 20
95.24705444694474
 30
0.0
 11
13.84978856612244
 21
95.17432758661806
 31
0.0
  0
LINE
  5
14DA
330
13D3
100
AcDbEntity
  8
AM_0
100
AcDbLine
 10
13.84978856612244
 20
95.17432758661806
 30
0.0
 11
13.89827313967333
 21
95.07735843951598
 31
0.0
  0
LINE
  5
14DB
330
13D3
100
AcDbEntity
  8
AM_0
100
AcDbLine
 10
13.89827313967333
 20
95.07735843951598
 30
0.0
 11
13.938676950966
 21
94.964227767897
 31
0.0
  0
LINE
  5
14DC
330
13D3
100
AcDbEntity
  8
AM_0
100
AcDbLine
 10
13.938676950966
 20
94.964227767897
 30
0.0
 11
13.96291923774152
 21
94.82685480950232
 31
0.0
  0
LINE
  5
14DD
330
13D3
100
AcDbEntity
  8
AM_0
100
AcDbLine
 10
13.96291923774152
 20
94.82685480950232
 30
0.0
 11
13.971
 21
94.66523956433206
 31
0.0
  0
LINE
  5
14DE
330
13D3
100
AcDbEntity
  8
AM_0
100
AcDbLine
 10
13.971
 20
94.66523956433206
 30
0.0
 11
13.971
 21
94.11574773075358
 31
0.0
  0
LINE
  5
14DF
330
13D3
100
AcDbEntity
  8
AM_0
100
AcDbLine
 10
13.971
 20
94.11574773075358
 30
0.0
 11
12.79120871025785
 21
94.11574773075358
 31
0.0
  0
LINE
  5
14E0
330
13D3
100
AcDbEntity
  8
AM_0
100
AcDbLine
 10
12.79120871025785
 20
94.11574773075358
 30
0.0
 11
12.79120871025785
 21
94.40665517206003
 31
0.0
  0
LINE
  5
14E1
330
13D3
100
AcDbEntity
  8
AM_0
100
AcDbLine
 10
12.79120871025785
 20
94.40665517206003
 30
0.0
 11
12.7935174994746
 21
94.46322050786937
 31
0.0
  0
LINE
  5
14E2
330
13D3
100
AcDbEntity
  8
AM_0
100
AcDbLine
 10
12.7935174994746
 20
94.46322050786937
 30
0.0
 11
12.75888566122373
 21
94.58443194174732
 31
0.0
  0
LINE
  5
14E3
330
13D3
100
AcDbEntity
  8
AM_0
100
AcDbLine
 10
12.75888566122373
 20
94.58443194174732
 30
0.0
 11
12.72656261218961
 21
94.63291651529806
 31
0.0
  0
LINE
  5
14E4
330
13D3
100
AcDbEntity
  8
AM_0
100
AcDbLine
 10
12.72656261218961
 20
94.63291651529806
 30
0.0
 11
12.68615880089703
 21
94.68140108884933
 31
0.0
  0
LINE
  5
14E5
330
13D3
100
AcDbEntity
  8
AM_0
100
AcDbLine
 10
12.68615880089703
 20
94.68140108884933
 30
0.0
 11
12.64575498960442
 21
94.71372413788321
 31
0.0
  0
LINE
  5
14E6
330
13D3
100
AcDbEntity
  8
AM_0
100
AcDbLine
 10
12.64575498960442
 20
94.71372413788321
 30
0.0
 11
12.54878584250235
 21
94.76220871143386
 31
0.0
  0
LINE
  5
14E7
330
13D3
100
AcDbEntity
  8
AM_0
100
AcDbLine
 10
12.54878584250235
 20
94.76220871143386
 30
0.0
 11
12.50030126895112
 21
94.77028947369257
 31
0.0
  0
LINE
  5
14E8
330
13D3
100
AcDbEntity
  8
AM_0
100
AcDbLine
 10
12.50030126895112
 20
94.77028947369257
 30
0.0
 11
12.43565517088333
 21
94.77837023595123
 31
0.0
  0
LINE
  5
14E9
330
13D3
100
AcDbEntity
  8
AM_0
100
AcDbLine
 10
12.43565517088333
 20
94.77837023595123
 30
0.0
 11
12.36292831055661
 21
94.77028947369275
 31
0.0
  0
LINE
  5
14EA
330
13D3
100
AcDbEntity
  8
AM_0
100
AcDbLine
 10
12.36292831055661
 20
94.77028947369275
 30
0.0
 11
12.30059100170544
 21
94.7495103707422
 31
0.0
  0
LINE
  5
14EB
330
13D3
100
AcDbEntity
  8
AM_0
100
AcDbLine
 10
12.30059100170544
 20
94.7495103707422
 30
0.0
 11
12.22555535216233
 21
94.68948185110718
 31
0.0
  0
LINE
  5
14EC
330
13D3
100
AcDbEntity
  8
AM_0
100
AcDbLine
 10
12.22555535216233
 20
94.68948185110718
 30
0.0
 11
12.18515154086941
 21
94.6329165152979
 31
0.0
  0
LINE
  5
14ED
330
13D3
100
AcDbEntity
  8
AM_0
100
AcDbLine
 10
12.18515154086941
 20
94.6329165152979
 30
0.0
 11
12.14474772957692
 21
94.56018965497122
 31
0.0
  0
LINE
  5
14EE
330
13D3
100
AcDbEntity
  8
AM_0
100
AcDbLine
 10
12.14474772957692
 20
94.56018965497122
 30
0.0
 11
12.12858620505995
 21
94.47130127012769
 31
0.0
  0
LINE
  5
14EF
330
13D3
100
AcDbEntity
  8
AM_0
100
AcDbLine
 10
12.12858620505995
 20
94.47130127012769
 30
0.0
 11
12.12050544280134
 21
94.35817059850871
 31
0.0
  0
LINE
  5
14F0
330
13D3
100
AcDbEntity
  8
AM_0
100
AcDbLine
 10
12.12050544280134
 20
94.35817059850871
 30
0.0
 11
12.12050544280134
 21
93.25918693135173
 31
0.0
  0
LINE
  5
14F1
330
13D3
100
AcDbEntity
  8
AM_0
100
AcDbLine
 10
12.12050544280134
 20
93.25918693135173
 30
0.0
 11
12.12858620505995
 21
93.1622177842496
 31
0.0
  0
LINE
  5
14F2
330
13D3
100
AcDbEntity
  8
AM_0
100
AcDbLine
 10
12.12858620505995
 20
93.1622177842496
 30
0.0
 11
12.14474772957692
 21
93.0814101616645
 31
0.0
  0
LINE
  5
14F3
330
13D3
100
AcDbEntity
  8
AM_0
100
AcDbLine
 10
12.14474772957692
 20
93.0814101616645
 30
0.0
 11
12.18515154086952
 21
93.00868330133784
 31
0.0
  0
LINE
  5
14F4
330
13D3
100
AcDbEntity
  8
AM_0
100
AcDbLine
 10
12.18515154086952
 20
93.00868330133784
 30
0.0
 11
12.23363611442045
 21
92.94403720326972
 31
0.0
  0
LINE
  5
14F5
330
13D3
100
AcDbEntity
  8
AM_0
100
AcDbLine
 10
12.23363611442045
 20
92.94403720326972
 30
0.0
 11
12.29828221248854
 21
92.90363339197723
 31
0.0
  0
LINE
  5
14F6
330
13D3
100
AcDbEntity
  8
AM_0
100
AcDbLine
 10
12.29828221248854
 20
92.90363339197723
 30
0.0
 11
12.37100907281521
 21
92.87939110520131
 31
0.0
  0
LINE
  5
14F7
330
13D3
100
AcDbEntity
  8
AM_0
100
AcDbLine
 10
12.37100907281521
 20
92.87939110520131
 30
0.0
 11
12.45989745765863
 21
92.87131034294299
 31
0.0
  0
LINE
  5
14F8
330
13D3
100
AcDbEntity
  8
AM_0
100
AcDbLine
 10
12.45989745765863
 20
92.87131034294299
 30
0.0
 11
12.54070508024384
 21
92.87939110520142
 31
0.0
  0
LINE
  5
14F9
330
13D3
100
AcDbEntity
  8
AM_0
100
AcDbLine
 10
12.54070508024384
 20
92.87939110520142
 30
0.0
 11
12.58918965379484
 21
92.89555262971873
 31
0.0
  0
LINE
  5
14FA
330
13D3
100
AcDbEntity
  8
AM_0
100
AcDbLine
 10
12.58918965379484
 20
92.89555262971873
 30
0.0
 11
12.63767422734594
 21
92.91979491649408
 31
0.0
  0
LINE
  5
14FB
330
13D3
100
AcDbEntity
  8
AM_0
100
AcDbLine
 10
12.63767422734594
 20
92.91979491649408
 30
0.0
 11
12.68615880089686
 21
92.96019872778657
 31
0.0
  0
LINE
  5
14FC
330
13D3
100
AcDbEntity
  8
AM_0
100
AcDbLine
 10
12.68615880089686
 20
92.96019872778657
 30
0.0
 11
12.72656261218935
 21
93.00868330133772
 31
0.0
  0
LINE
  5
14FD
330
13D3
100
AcDbEntity
  8
AM_0
100
AcDbLine
 10
12.72656261218935
 20
93.00868330133772
 30
0.0
 11
12.75888566122342
 21
93.07332939940584
 31
0.0
  0
LINE
  5
14FE
330
13D3
100
AcDbEntity
  8
AM_0
100
AcDbLine
 10
12.75888566122342
 20
93.07332939940584
 30
0.0
 11
12.78312794799902
 21
93.15413702199071
 31
0.0
  0
LINE
  5
14FF
330
13D3
100
AcDbEntity
  8
AM_0
100
AcDbLine
 10
12.78312794799902
 20
93.15413702199071
 30
0.0
 11
12.79120871025753
 21
93.25918693135156
 31
0.0
  0
LINE
  5
1500
330
13D3
100
AcDbEntity
  8
AM_0
100
AcDbLine
 10
12.79120871025753
 20
93.25918693135156
 30
0.0
 11
12.79120871025753
 21
93.52585208588232
 31
0.0
  0
LINE
  5
1501
330
13D3
100
AcDbEntity
  8
AM_0
100
AcDbLine
 10
12.79120871025753
 20
93.52585208588232
 30
0.0
 11
13.97099999999994
 21
93.52585208588232
 31
0.0
  0
LINE
  5
1502
330
13D3
100
AcDbEntity
  8
AM_0
100
AcDbLine
 10
13.97099999999994
 20
93.52585208588232
 30
0.0
 11
13.97099999999994
 21
92.98444101456272
 31
0.0
  0
LINE
  5
1503
330
13D3
100
AcDbEntity
  8
AM_0
100
AcDbLine
 10
13.97099999999994
 20
92.98444101456272
 30
0.0
 11
13.96291923774134
 21
92.83090653165102
 31
0.0
  0
LINE
  5
1504
330
13D3
100
AcDbEntity
  8
AM_0
100
AcDbLine
 10
13.96291923774134
 20
92.83090653165102
 30
0.0
 11
13.94675771322443
 21
92.70161433551482
 31
0.0
  0
LINE
  5
1505
330
13D3
100
AcDbEntity
  8
AM_0
100
AcDbLine
 10
13.94675771322443
 20
92.70161433551482
 30
0.0
 11
13.90635390193194
 21
92.58848366389605
 31
0.0
  0
LINE
  5
1506
330
13D3
100
AcDbEntity
  8
AM_0
100
AcDbLine
 10
13.90635390193194
 20
92.58848366389605
 30
0.0
 11
13.85786932838093
 21
92.49959527905202
 31
0.0
  0
LINE
  5
1507
330
13D3
100
AcDbEntity
  8
AM_0
100
AcDbLine
 10
13.85786932838093
 20
92.49959527905202
 30
0.0
 11
13.8013039925712
 21
92.42686841872552
 31
0.0
  0
LINE
  5
1508
330
13D3
100
AcDbEntity
  8
AM_0
100
AcDbLine
 10
13.8013039925712
 20
92.42686841872552
 30
0.0
 11
13.73665789450311
 21
92.37030308291611
 31
0.0
  0
LINE
  5
1509
330
13D3
100
AcDbEntity
  8
AM_0
100
AcDbLine
 10
13.73665789450311
 20
92.37030308291611
 30
0.0
 11
13.65585027191818
 21
92.32181850936489
 31
0.0
  0
LINE
  5
150A
330
13D3
100
AcDbEntity
  8
AM_0
100
AcDbLine
 10
13.65585027191818
 20
92.32181850936489
 30
0.0
 11
13.57504264933314
 21
92.2894954603309
 31
0.0
  0
LINE
  5
150B
330
13D3
100
AcDbEntity
  8
AM_0
100
AcDbLine
 10
13.57504264933314
 20
92.2894954603309
 30
0.0
 11
13.48615426448961
 21
92.26525317355532
 31
0.0
  0
LINE
  5
150C
330
13D3
100
AcDbEntity
  8
AM_0
100
AcDbLine
 10
13.48615426448961
 20
92.26525317355532
 30
0.0
 11
13.3891851173872
 21
92.2490916490384
 31
0.0
  0
LINE
  5
150D
330
13D3
100
AcDbEntity
  8
AM_0
100
AcDbLine
 10
13.3891851173872
 20
92.2490916490384
 30
0.0
 11
13.29221597028521
 21
92.24101088678009
 31
0.0
  0
LINE
  5
150E
330
13D3
100
AcDbEntity
  8
AM_0
100
AcDbLine
 10
13.29221597028521
 20
92.24101088678009
 30
0.0
 11
11.61141742051552
 21
92.24101088677969
 31
0.0
  0
LINE
  5
150F
330
13D3
100
AcDbEntity
  8
AM_0
100
AcDbLine
 10
11.61141742051552
 20
92.24101088677969
 30
0.0
 11
11.49828674889653
 21
92.2490916490384
 31
0.0
  0
LINE
  5
1510
330
13D3
100
AcDbEntity
  8
AM_0
100
AcDbLine
 10
11.49828674889653
 20
92.2490916490384
 30
0.0
 11
11.38515607727754
 21
92.26158009980139
 31
0.0
  0
LINE
  5
1511
330
13D3
100
AcDbEntity
  8
AM_0
100
AcDbLine
 10
11.38515607727754
 20
92.26158009980139
 30
0.0
 11
11.19929854533185
 21
92.34606079614048
 31
0.0
  0
LINE
  5
1512
330
13D3
100
AcDbEntity
  8
AM_0
100
AcDbLine
 10
11.19929854533185
 20
92.34606079614048
 30
0.0
 11
11.12657168500513
 21
92.41070689420837
 31
0.0
  0
LINE
  5
1513
330
13D3
100
AcDbEntity
  8
AM_0
100
AcDbLine
 10
11.12657168500513
 20
92.41070689420837
 30
0.0
 11
11.06192558693692
 21
92.48343375453499
 31
0.0
  0
LINE
  5
1514
330
13D3
100
AcDbEntity
  8
AM_0
100
AcDbLine
 10
11.06192558693692
 20
92.48343375453499
 30
0.0
 11
11.00536025112771
 21
92.57232213937857
 31
0.0
  0
LINE
  5
1515
330
13D3
100
AcDbEntity
  8
AM_0
100
AcDbLine
 10
11.00536025112771
 20
92.57232213937857
 30
0.0
 11
10.9730372020935
 21
92.69353357325622
 31
0.0
  0
LINE
  5
1516
330
13D3
100
AcDbEntity
  8
AM_0
100
AcDbLine
 10
10.9730372020935
 20
92.69353357325622
 30
0.0
 11
10.94879491531804
 21
92.82282576939252
 31
0.0
  0
LINE
  5
1517
330
13D3
100
AcDbEntity
  8
AM_0
100
AcDbLine
 10
3.070546583039714
 20
93.372317602971
 30
0.0
 11
2.577620085270638
 21
92.27333393581369
 31
0.0
  0
LINE
  5
1518
330
13D3
100
AcDbEntity
  8
AM_0
100
AcDbLine
 10
2.577620085270638
 20
92.27333393581369
 30
0.0
 11
1.422071082303943
 21
92.27333393581369
 31
0.0
  0
LINE
  5
1519
330
13D3
100
AcDbEntity
  8
AM_0
100
AcDbLine
 10
1.422071082303943
 20
92.27333393581369
 30
0.0
 11
2.141258923311141
 21
93.90564791203235
 31
0.0
  0
LINE
  5
151A
330
13D3
100
AcDbEntity
  8
AM_0
100
AcDbLine
 10
2.141258923311141
 20
93.90564791203235
 30
0.0
 11
1.510959467147529
 21
95.38442740533952
 31
0.0
  0
LINE
  5
151B
330
13D3
100
AcDbEntity
  8
AM_0
100
AcDbLine
 10
1.510959467147529
 20
95.38442740533952
 30
0.0
 11
2.731154568182347
 21
95.38442740533952
 31
0.0
  0
LINE
  5
151C
330
13D3
100
AcDbEntity
  8
AM_0
100
AcDbLine
 10
2.731154568182347
 20
95.38442740533952
 30
0.0
 11
3.16751573014173
 21
94.37433212302602
 31
0.0
  0
LINE
  5
151D
330
13D3
100
AcDbEntity
  8
AM_0
100
AcDbLine
 10
3.16751573014173
 20
94.37433212302602
 30
0.0
 11
3.603876892101112
 21
95.38442740533952
 31
0.0
  0
LINE
  5
151E
330
13D3
100
AcDbEntity
  8
AM_0
100
AcDbLine
 10
3.603876892101112
 20
95.38442740533952
 30
0.0
 11
4.735183608292203
 21
95.38442740533952
 31
0.0
  0
LINE
  5
151F
330
13D3
100
AcDbEntity
  8
AM_0
100
AcDbLine
 10
4.735183608292203
 20
95.38442740533952
 30
0.0
 11
4.104884152128533
 21
93.92989019880799
 31
0.0
  0
LINE
  5
1520
330
13D3
100
AcDbEntity
  8
AM_0
100
AcDbLine
 10
4.104884152128533
 20
93.92989019880799
 30
0.0
 11
4.848314279911448
 21
92.27333393581369
 31
0.0
  0
LINE
  5
1521
330
13D3
100
AcDbEntity
  8
AM_0
100
AcDbLine
 10
4.848314279911448
 20
92.27333393581369
 30
0.0
 11
3.563473080808535
 21
92.27333393581369
 31
0.0
  0
LINE
  5
1522
330
13D3
100
AcDbEntity
  8
AM_0
100
AcDbLine
 10
3.563473080808535
 20
92.27333393581369
 30
0.0
 11
3.070546583039714
 21
93.372317602971
 31
0.0
  0
LINE
  5
1523
330
13D3
100
AcDbEntity
  8
AM_0
100
AcDbLine
 10
-14.03175244471376
 20
90.79903447693885
 30
0.0
 11
-14.03175244471376
 21
91.31222717200058
 31
0.0
  0
ARC
  5
1524
330
13D3
100
AcDbEntity
  8
AM_0
100
AcDbCircle
 10
-14.03004940033838
 20
94.28524812897967
 30
0.0
 40
2.973021444758959
100
AcDbArc
 50
269.9671790929923
 51
89.96717909299231
  0
LINE
  5
1525
330
13D3
100
AcDbEntity
  8
AM_0
100
AcDbLine
 10
-14.02834635596298
 20
97.25826908595866
 30
0.0
 11
-14.02834635596298
 21
97.77146206823761
 31
0.0
  0
ARC
  5
1526
330
13D3
100
AcDbEntity
  8
AM_0
100
AcDbCircle
 10
-14.03004940033827
 20
94.28524827258815
 30
0.0
 40
3.486214211624951
100
AcDbArc
 50
269.9720105383693
 51
89.9720105383685
  0
ARC
  5
1527
330
13D3
100
AcDbEntity
  8
AM_0
100
AcDbCircle
 10
6.074037735205621
 20
92.87085451144202
 30
0.0
 40
0.6299906345175871
100
AcDbArc
 50
169.6128402964387
 51
268.7621949374017
  0
LINE
  5
1528
330
13D3
100
AcDbEntity
  8
AM_0
100
AcDbLine
 10
5.454371449299515
 20
92.98444101456272
 30
0.0
 11
5.454371449299515
 21
94.7460471869174
 31
0.0
  0
LINE
  5
1529
330
13D3
100
AcDbEntity
  8
AM_0
100
AcDbLine
 10
5.454371449299515
 20
94.7460471869174
 30
0.0
 11
5.252352392836627
 21
94.7460471869174
 31
0.0
  0
LINE
  5
152A
330
13D3
100
AcDbEntity
  8
AM_0
100
AcDbLine
 10
5.252352392836627
 20
94.7460471869174
 30
0.0
 11
5.252352392836627
 21
95.34402359404685
 31
0.0
  0
LINE
  5
152B
330
13D3
100
AcDbEntity
  8
AM_0
100
AcDbLine
 10
5.252352392836627
 20
95.34402359404685
 30
0.0
 11
6.634162739041613
 21
96.12785753312209
 31
0.0
  0
LINE
  5
152C
330
13D3
100
AcDbEntity
  8
AM_0
100
AcDbLine
 10
6.634162739041613
 20
96.12785753312209
 30
0.0
 11
6.634162739041613
 21
95.38442740533952
 31
0.0
  0
LINE
  5
152D
330
13D3
100
AcDbEntity
  8
AM_0
100
AcDbLine
 10
6.634162739041613
 20
95.38442740533952
 30
0.0
 11
6.900827893572312
 21
95.38442740533952
 31
0.0
  0
LINE
  5
152E
330
13D3
100
AcDbEntity
  8
AM_0
100
AcDbLine
 10
6.900827893572312
 20
95.38442740533952
 30
0.0
 11
6.900827893572312
 21
94.7460471869174
 31
0.0
  0
LINE
  5
152F
330
13D3
100
AcDbEntity
  8
AM_0
100
AcDbLine
 10
6.900827893572312
 20
94.7460471869174
 30
0.0
 11
6.634162739041613
 21
94.7460471869174
 31
0.0
  0
LINE
  5
1530
330
13D3
100
AcDbEntity
  8
AM_0
100
AcDbLine
 10
6.634162739041613
 20
94.7460471869174
 30
0.0
 11
6.634162739041727
 21
92.8713103429435
 31
0.0
  0
LINE
  5
1531
330
13D3
100
AcDbEntity
  8
AM_0
100
AcDbLine
 10
6.634162739041727
 20
92.8713103429435
 30
0.0
 11
6.916989418089343
 21
92.8713103429435
 31
0.0
  0
LINE
  5
1532
330
13D3
100
AcDbEntity
  8
AM_0
100
AcDbLine
 10
6.916989418089343
 20
92.8713103429435
 30
0.0
 11
6.916989418089343
 21
92.24101088677986
 31
0.0
  0
LINE
  5
1533
330
13D3
100
AcDbEntity
  8
AM_0
100
AcDbLine
 10
6.916989418089343
 20
92.24101088677986
 30
0.0
 11
6.060428618688433
 21
92.24101088677986
 31
0.0
  0
LINE
  5
1534
330
13D3
100
AcDbEntity
  8
AM_0
100
AcDbLine
 10
-11.98833720610548
 20
97.76017150934052
 30
0.0
 11
-11.11513014188116
 21
97.76017150934052
 31
0.0
  0
ARC
  5
1535
330
13D3
100
AcDbEntity
  8
AM_0
100
AcDbCircle
 10
-14.03175244471364
 20
94.28524910453957
 30
0.0
 40
4.536713719948336
100
AcDbArc
 50
310.0155427753971
 51
49.9921036036407
  0
LINE
  5
1536
330
13D3
100
AcDbEntity
  8
AM_0
100
AcDbLine
 10
-11.11466642385767
 20
90.81071596702406
 30
0.0
 11
-11.98767538328226
 21
90.81071596702406
 31
0.0
  0
ARC
  5
1537
330
13D3
100
AcDbEntity
  8
AM_0
100
AcDbCircle
 10
-14.03175244471364
 20
94.28524910453957
 30
0.0
 40
4.03120720836374
100
AcDbArc
 50
300.468412070287
 51
59.54250091540298
  0
LINE
  5
1538
330
13D3
100
AcDbEntity
  8
AM_0
100
AcDbLine
 10
8.613949492375923
 20
94.57635117948871
 30
0.0
 11
8.589707205600518
 21
94.49554355690372
 31
0.0
  0
LINE
  5
1539
330
13D3
100
AcDbEntity
  8
AM_0
100
AcDbLine
 10
8.589707205600518
 20
94.49554355690372
 30
0.0
 11
8.581626443341917
 21
94.3985744098016
 31
0.0
  0
LINE
  5
153A
330
13D3
100
AcDbEntity
  8
AM_0
100
AcDbLine
 10
8.581626443341917
 20
94.3985744098016
 30
0.0
 11
8.581626443341917
 21
94.13999001752932
 31
0.0
  0
LINE
  5
153B
330
13D3
100
AcDbEntity
  8
AM_0
100
AcDbLine
 10
8.581626443341917
 20
94.13999001752932
 30
0.0
 11
9.260410473056424
 21
94.13999001752932
 31
0.0
  0
LINE
  5
153C
330
13D3
100
AcDbEntity
  8
AM_0
100
AcDbLine
 10
9.260410473056424
 20
94.13999001752932
 30
0.0
 11
9.260410473056424
 21
94.35008983624999
 31
0.0
  0
LINE
  5
153D
330
13D3
100
AcDbEntity
  8
AM_0
100
AcDbLine
 10
9.260410473056424
 20
94.35008983624999
 30
0.0
 11
9.252329710797624
 21
94.45513974561384
 31
0.0
  0
LINE
  5
153E
330
13D3
100
AcDbEntity
  8
AM_0
100
AcDbLine
 10
9.252329710797624
 20
94.45513974561384
 30
0.0
 11
9.236168186281219
 21
94.5440281304547
 31
0.0
  0
LINE
  5
153F
330
13D3
100
AcDbEntity
  8
AM_0
100
AcDbLine
 10
9.236168186281219
 20
94.5440281304547
 30
0.0
 11
9.203845137247128
 21
94.6167549907812
 31
0.0
  0
LINE
  5
1540
330
13D3
100
AcDbEntity
  8
AM_0
100
AcDbLine
 10
9.203845137247128
 20
94.6167549907812
 30
0.0
 11
9.163441325954607
 21
94.68140108884922
 31
0.0
  0
LINE
  5
1541
330
13D3
100
AcDbEntity
  8
AM_0
100
AcDbLine
 10
9.163441325954607
 20
94.68140108884922
 30
0.0
 11
9.106875990144942
 21
94.72180490014171
 31
0.0
  0
LINE
  5
1542
330
13D3
100
AcDbEntity
  8
AM_0
100
AcDbLine
 10
9.106875990144942
 20
94.72180490014171
 30
0.0
 11
9.050310654335333
 21
94.75412794917588
 31
0.0
  0
LINE
  5
1543
330
13D3
100
AcDbEntity
  8
AM_0
100
AcDbLine
 10
9.050310654335333
 20
94.75412794917588
 30
0.0
 11
8.985664556267522
 21
94.77028947369285
 31
0.0
  0
LINE
  5
1544
330
13D3
100
AcDbEntity
  8
AM_0
100
AcDbLine
 10
8.985664556267522
 20
94.77028947369285
 30
0.0
 11
8.912937695940826
 21
94.77837023595151
 31
0.0
  0
LINE
  5
1545
330
13D3
100
AcDbEntity
  8
AM_0
100
AcDbLine
 10
8.912937695940826
 20
94.77837023595151
 30
0.0
 11
8.832130073355727
 21
94.77028947369285
 31
0.0
  0
LINE
  5
1546
330
13D3
100
AcDbEntity
  8
AM_0
100
AcDbLine
 10
8.832130073355727
 20
94.77028947369285
 30
0.0
 11
8.767483975287518
 21
94.7460471869174
 31
0.0
  0
LINE
  5
1547
330
13D3
100
AcDbEntity
  8
AM_0
100
AcDbLine
 10
8.767483975287518
 20
94.7460471869174
 30
0.0
 11
8.702837877219451
 21
94.69756261336636
 31
0.0
  0
LINE
  5
1548
330
13D3
100
AcDbEntity
  8
AM_0
100
AcDbLine
 10
8.702837877219451
 20
94.69756261336636
 30
0.0
 11
8.654353303668955
 21
94.64907803981537
 31
0.0
  0
LINE
  5
1549
330
13D3
100
AcDbEntity
  8
AM_0
100
AcDbLine
 10
8.654353303668955
 20
94.64907803981537
 30
0.0
 11
8.613949492375923
 21
94.57635117948871
 31
0.0
  0
LINE
  5
154A
330
13D3
100
AcDbEntity
  8
AM_0
100
AcDbLine
 10
-0.2748889919825501
 20
92.92787567875308
 30
0.0
 11
-0.2021621316559958
 21
93.01676406359661
 31
0.0
  0
LINE
  5
154B
330
13D3
100
AcDbEntity
  8
AM_0
100
AcDbLine
 10
-0.2021621316559958
 20
93.01676406359661
 30
0.0
 11
-0.1860006071390785
 21
93.0733293994062
 31
0.0
  0
LINE
  5
154C
330
13D3
100
AcDbEntity
  8
AM_0
100
AcDbLine
 10
-0.1860006071390785
 20
93.0733293994062
 30
0.0
 11
-0.1698390826220475
 21
93.12181397295722
 31
0.0
  0
LINE
  5
154D
330
13D3
100
AcDbEntity
  8
AM_0
100
AcDbLine
 10
-0.1698390826220475
 20
93.12181397295722
 30
0.0
 11
-0.1617583203635604
 21
93.17837930876686
 31
0.0
  0
LINE
  5
154E
330
13D3
100
AcDbEntity
  8
AM_0
100
AcDbLine
 10
-0.1617583203635604
 20
93.17837930876686
 30
0.0
 11
-0.1617583203635604
 21
94.37433212302556
 31
0.0
  0
LINE
  5
154F
330
13D3
100
AcDbEntity
  8
AM_0
100
AcDbLine
 10
-0.1617583203635604
 20
94.37433212302556
 30
0.0
 11
-0.1698390826225591
 21
94.50362431916198
 31
0.0
  0
LINE
  5
1550
330
13D3
100
AcDbEntity
  8
AM_0
100
AcDbLine
 10
-0.1698390826225591
 20
94.50362431916198
 30
0.0
 11
-0.2021621316554842
 21
94.6167549907812
 31
0.0
  0
LINE
  5
1551
330
13D3
100
AcDbEntity
  8
AM_0
100
AcDbLine
 10
-0.2021621316554842
 20
94.6167549907812
 30
0.0
 11
-0.2344851806901431
 21
94.6652395643324
 31
0.0
  0
LINE
  5
1552
330
13D3
100
AcDbEntity
  8
AM_0
100
AcDbLine
 10
-0.2344851806901431
 20
94.6652395643324
 30
0.0
 11
-0.2748889919825501
 21
94.71372413788333
 31
0.0
  0
LINE
  5
1553
330
13D3
100
AcDbEntity
  8
AM_0
100
AcDbLine
 10
-0.2748889919825501
 20
94.71372413788333
 30
0.0
 11
-0.3395350900507879
 21
94.75412794917582
 31
0.0
  0
LINE
  5
1554
330
13D3
100
AcDbEntity
  8
AM_0
100
AcDbLine
 10
-0.3395350900507879
 20
94.75412794917582
 30
0.0
 11
-0.4122619503773706
 21
94.77837023595151
 31
0.0
  0
LINE
  5
1555
330
13D3
100
AcDbEntity
  8
AM_0
100
AcDbLine
 10
-0.4122619503773706
 20
94.77837023595151
 30
0.0
 11
-0.5900387200645696
 21
94.77837023595151
 31
0.0
  0
LINE
  5
1556
330
13D3
100
AcDbEntity
  8
AM_0
100
AcDbLine
 10
-0.5900387200645696
 20
94.77837023595151
 30
0.0
 11
-0.6708463426495542
 21
94.75412794917582
 31
0.0
  0
LINE
  5
1557
330
13D3
100
AcDbEntity
  8
AM_0
100
AcDbLine
 10
-0.6708463426495542
 20
94.75412794917582
 30
0.0
 11
-0.7274116784590774
 21
94.71372413788333
 31
0.0
  0
LINE
  5
1558
330
13D3
100
AcDbEntity
  8
AM_0
100
AcDbLine
 10
-0.7274116784590774
 20
94.71372413788333
 30
0.0
 11
-0.7678154897515697
 21
94.6652395643324
 31
0.0
  0
LINE
  5
1559
330
13D3
100
AcDbEntity
  8
AM_0
100
AcDbLine
 10
-0.7678154897515697
 20
94.6652395643324
 30
0.0
 11
-0.816300063302549
 21
94.5601896549715
 31
0.0
  0
LINE
  5
155A
330
13D3
100
AcDbEntity
  8
AM_0
100
AcDbLine
 10
-0.816300063302549
 20
94.5601896549715
 30
0.0
 11
-0.8405423500782944
 21
94.45513974561089
 31
0.0
  0
LINE
  5
155B
330
13D3
100
AcDbEntity
  8
AM_0
100
AcDbLine
 10
-0.8405423500782944
 20
94.45513974561089
 30
0.0
 11
-0.8405423500782944
 21
93.17837930876686
 31
0.0
  0
LINE
  5
155C
330
13D3
100
AcDbEntity
  8
AM_0
100
AcDbLine
 10
-0.8405423500782944
 20
93.17837930876686
 30
0.0
 11
-0.816300063302549
 21
93.0733293994062
 31
0.0
  0
LINE
  5
155D
330
13D3
100
AcDbEntity
  8
AM_0
100
AcDbLine
 10
-0.816300063302549
 20
93.0733293994062
 30
0.0
 11
-0.7880173953979011
 21
92.98848139569191
 31
0.0
  0
LINE
  5
155E
330
13D3
100
AcDbEntity
  8
AM_0
100
AcDbLine
 10
-0.7880173953979011
 20
92.98848139569191
 30
0.0
 11
-0.7274116784590774
 21
92.92787567875308
 31
0.0
  0
LINE
  5
155F
330
13D3
100
AcDbEntity
  8
AM_0
100
AcDbLine
 10
-0.7274116784590774
 20
92.92787567875308
 30
0.0
 11
-0.5900387200655644
 21
92.87939110520232
 31
0.0
  0
LINE
  5
1560
330
13D3
100
AcDbEntity
  8
AM_0
100
AcDbLine
 10
-0.5900387200655644
 20
92.87939110520232
 30
0.0
 11
-0.5011503352191653
 21
92.87131034294374
 31
0.0
  0
LINE
  5
1561
330
13D3
100
AcDbEntity
  8
AM_0
100
AcDbLine
 10
-0.5011503352191653
 20
92.87131034294374
 30
0.0
 11
-0.4122619503773706
 21
92.87939110520188
 31
0.0
  0
LINE
  5
1562
330
13D3
100
AcDbEntity
  8
AM_0
100
AcDbLine
 10
-0.4122619503773706
 20
92.87939110520188
 30
0.0
 11
-0.3395350900507879
 21
92.90363339197757
 31
0.0
  0
LINE
  5
1563
330
13D3
100
AcDbEntity
  8
AM_0
100
AcDbLine
 10
-0.3395350900507879
 20
92.90363339197757
 30
0.0
 11
-0.2748889919825501
 21
92.92787567875308
 31
0.0
  0
ARC
  5
1564
330
13D3
100
AcDbEntity
  8
AM_0
100
AcDbCircle
 10
-4.118741811238095
 20
95.00187850126616
 30
0.0
 40
0.4056126045202606
100
AcDbArc
 50
276.4984299332854
 51
332.8918771288162
  0
ARC
  5
1565
330
13D3
100
AcDbEntity
  8
AM_0
100
AcDbCircle
 10
-4.097078491140962
 20
94.99078894454971
 30
0.0
 40
0.3812758482491635
100
AcDbArc
 50
332.8918771288034
 51
27.10812287102833
  0
ARC
  5
1566
330
13D3
100
AcDbEntity
  8
AM_0
100
AcDbCircle
 10
-4.110973949757294
 20
94.96525279101438
 30
0.0
 40
0.4056126045202715
100
AcDbArc
 50
29.42526304057802
 51
180.0998033553732
  0
LINE
  5
1567
330
13D3
100
AcDbEntity
  8
AM_0
100
AcDbLine
 10
-4.516585938921792
 20
94.96454625592951
 30
0.0
 11
-4.517289177699268
 21
95.36826588082249
 31
0.0
  0
LINE
  5
1568
330
13D3
100
AcDbEntity
  8
AM_0
100
AcDbLine
 10
-4.517289177699268
 20
95.36826588082249
 30
0.0
 11
-4.517289177699268
 21
94.59887197501206
 31
0.0
  0
LINE
  5
1569
330
13D3
100
AcDbEntity
  8
AM_0
100
AcDbLine
 10
-4.517289177699268
 20
94.59887197501206
 30
0.0
 11
-4.072836204365131
 21
94.59887197501217
 31
0.0
  0
LINE
  5
156A
330
13D3
100
AcDbEntity
  8
AM_0
100
AcDbLine
 10
20.0
 20
46.22074023069564
 30
0.0
 11
20.0
 21
-74.80000000000012
 31
0.0
  0
LINE
  5
156B
330
13D3
100
AcDbEntity
  8
AM_0
100
AcDbLine
 10
20.0
 20
-74.80000000000012
 30
0.0
 11
-19.99999999999997
 21
-74.80000000000012
 31
0.0
  0
LINE
  5
156C
330
13D3
100
AcDbEntity
  8
AM_0
100
AcDbLine
 10
-19.99999999999997
 20
-74.80000000000012
 30
0.0
 11
-20.00000000000006
 21
46.22074023069564
 31
0.0
  0
LINE
  5
156D
330
13D3
100
AcDbEntity
  8
AM_0
100
AcDbLine
 10
22.32433068541471
 20
80.57425453154303
 30
0.0
 11
22.26737757881003
 21
80.51730142493836
 31
0.0
  0
ELLIPSE
  5
156E
330
13D3
100
AcDbEntity
  8
AM_0
100
AcDbEllipse
 10
22.26737757881003
 20
78.51737757881005
 30
0.0
 11
1.414213562372176
 21
-1.41421356237401
 31
0.0
210
0.0
220
0.0
230
1.0
 40
0.9999238504775703
 41
0.7854362396090357
 42
2.356156413982054
  0
LINE
  5
156F
330
13D3
100
AcDbEntity
  8
AM_0
100
AcDbLine
 10
24.26730142493844
 20
78.51737757881005
 30
0.0
 11
24.32425453154304
 21
78.57433068541474
 31
0.0
  0
LINE
  5
1570
330
13D3
100
AcDbEntity
  8
AM_0
100
AcDbLine
 10
-22.26737757881005
 20
80.51730142493836
 30
0.0
 11
-22.32433068541465
 21
80.57425453154285
 31
0.0
  0
LINE
  5
1571
330
13D3
100
AcDbEntity
  8
AM_0
100
AcDbLine
 10
-24.32425453154298
 20
78.57433068541457
 30
0.0
 11
-24.26730142493838
 21
78.51737757881
 31
0.0
  0
ELLIPSE
  5
1572
330
13D3
100
AcDbEntity
  8
AM_0
100
AcDbEllipse
 10
-22.26737757881005
 20
78.51737757881005
 30
0.0
 11
1.414213562375607
 21
1.414213562370578
 31
0.0
210
0.0
220
0.0
230
1.0
 40
0.9999238504775703
 41
0.7854362396101653
 42
2.356156413983184
  0
LINE
  5
1573
330
13D3
100
AcDbEntity
  8
AM_0
100
AcDbLine
 10
-24.26730142493838
 20
-78.51737757881011
 30
0.0
 11
-24.32425453154298
 21
-78.57433068541471
 31
0.0
  0
LINE
  5
1574
330
13D3
100
AcDbEntity
  8
AM_0
100
AcDbLine
 10
22.26737757881003
 20
78.51737757881
 30
0.0
 11
22.26737757881003
 21
80.51730142493836
 31
0.0
  0
LINE
  5
1575
330
13D3
100
AcDbEntity
  8
AM_0
100
AcDbLine
 10
24.26730142493844
 20
78.51737757881005
 30
0.0
 11
22.26737757881003
 21
78.51737757881005
 31
0.0
  0
LINE
  5
1576
330
13D3
100
AcDbEntity
  8
AM_0
100
AcDbLine
 10
24.32425453154304
 20
-78.57433068541479
 30
0.0
 11
24.26730142493844
 21
-78.51737757881011
 31
0.0
  0
ELLIPSE
  5
1577
330
13D3
100
AcDbEntity
  8
AM_0
100
AcDbEllipse
 10
22.26737757881003
 20
-78.51737757881011
 30
0.0
 11
-1.414213562373996
 21
-1.4142135623722
 31
0.0
210
0.0
220
0.0
230
1.0
 40
0.9999238504775703
 41
0.7854362396090231
 42
2.356156413982059
  0
LINE
  5
1578
330
13D3
100
AcDbEntity
  8
AM_0
100
AcDbLine
 10
22.26737757881003
 20
-80.5173014249385
 30
0.0
 11
22.32433068541471
 21
-80.57425453154312
 31
0.0
  0
LINE
  5
1579
330
13D3
100
AcDbEntity
  8
AM_0
100
AcDbLine
 10
22.26737757881003
 20
-78.51737757881011
 30
0.0
 11
24.26730142493844
 21
-78.51737757881011
 31
0.0
  0
LINE
  5
157A
330
13D3
100
AcDbEntity
  8
AM_0
100
AcDbLine
 10
22.26737757881003
 20
-80.5173014249385
 30
0.0
 11
22.26737757881003
 21
-78.51737757881011
 31
0.0
  0
LINE
  5
157B
330
13D3
100
AcDbEntity
  8
AM_0
100
AcDbLine
 10
-22.32433068541465
 20
-80.57425453154312
 30
0.0
 11
-22.26737757881005
 21
-80.5173014249385
 31
0.0
  0
ELLIPSE
  5
157C
330
13D3
100
AcDbEntity
  8
AM_0
100
AcDbEllipse
 10
-22.26737757881005
 20
-78.51737757881011
 30
0.0
 11
-1.414213562372182
 21
1.414213562374015
 31
0.0
210
0.0
220
0.0
230
1.0
 40
0.9999238504775703
 41
0.7854362396090357
 42
2.356156413982054
  0
LINE
  5
157D
330
13D3
100
AcDbEntity
  8
AM_0
100
AcDbLine
 10
-22.26737757881005
 20
-78.51737757881011
 30
0.0
 11
-22.26737757881005
 21
-80.5173014249385
 31
0.0
  0
LINE
  5
157E
330
13D3
100
AcDbEntity
  8
AM_0
100
AcDbLine
 10
-24.26730142493838
 20
-78.51737757881011
 30
0.0
 11
-22.26737757881005
 21
-78.51737757881011
 31
0.0
  0
LINE
  5
157F
330
13D3
100
AcDbEntity
  8
AM_0
100
AcDbLine
 10
-22.26737757881005
 20
78.51737757881
 30
0.0
 11
-24.26730142493838
 21
78.51737757881
 31
0.0
  0
LINE
  5
1580
330
13D3
100
AcDbEntity
  8
AM_0
100
AcDbLine
 10
-22.26737757881005
 20
80.51730142493836
 30
0.0
 11
-22.26737757881005
 21
78.51737757881
 31
0.0
  0
LINE
  5
1581
330
13D3
100
AcDbEntity
  8
AM_0
100
AcDbLine
 10
22.26737757881003
 20
80.51730142493836
 30
0.0
 11
-22.26737757881005
 21
80.51730142493836
 31
0.0
  0
LINE
  5
1582
330
13D3
100
AcDbEntity
  8
AM_0
100
AcDbLine
 10
-24.26730142493838
 20
78.51737757881
 30
0.0
 11
-24.26730142493838
 21
-78.51737757881011
 31
0.0
  0
LINE
  5
1583
330
13D3
100
AcDbEntity
  8
AM_0
100
AcDbLine
 10
24.26730142493844
 20
-78.51737757881011
 30
0.0
 11
24.26730142493844
 21
78.51737757881005
 31
0.0
  0
LINE
  5
1584
330
13D3
100
AcDbEntity
  8
AM_0
100
AcDbLine
 10
-22.26737757881005
 20
-80.5173014249385
 30
0.0
 11
22.26737757881003
 21
-80.5173014249385
 31
0.0
  0
LINE
  5
1585
330
13D3
100
AcDbEntity
  8
AM_0
100
AcDbLine
 10
22.26737757881003
 20
78.51737757881005
 30
0.0
 11
22.26737757881003
 21
-78.51737757881011
 31
0.0
  0
LINE
  5
1586
330
13D3
100
AcDbEntity
  8
AM_0
100
AcDbLine
 10
22.26737757881003
 20
-78.51737757881011
 30
0.0
 11
-22.26737757881005
 21
-78.51737757881011
 31
0.0
  0
LINE
  5
1587
330
13D3
100
AcDbEntity
  8
AM_0
100
AcDbLine
 10
-22.26737757881005
 20
-78.51737757881011
 30
0.0
 11
-22.26737757881005
 21
78.51737757881
 31
0.0
  0
LINE
  5
1588
330
13D3
100
AcDbEntity
  8
AM_0
100
AcDbLine
 10
-22.26737757881005
 20
78.51737757881
 30
0.0
 11
22.26737757881003
 21
78.51737757881005
 31
0.0
  0
CIRCLE
  5
1589
330
13D3
100
AcDbEntity
  8
AM_0
100
AcDbCircle
 10
-0.0000000000000568
 20
61.22074023069558
 30
0.0
 40
10.5
  0
LINE
  5
158A
330
13D3
100
AcDbEntity
  8
AM_0
100
AcDbLine
 10
-20.00000000000006
 20
46.22074023069564
 30
0.0
 11
20.0
 21
46.22074023069564
 31
0.0
  0
LINE
  5
158B
330
13D3
100
AcDbEntity
  8
AM_0
100
AcDbLine
 10
-19.99999999999997
 20
45.83289214121328
 30
0.0
 11
20.0
 21
45.83289214121328
 31
0.0
  0
LINE
  5
158C
330
13D3
100
AcDbEntity
  8
AM_0
100
AcDbLine
 10
20.0
 20
45.19999999999988
 30
0.0
 11
-19.99999999999997
 21
45.19999999999988
 31
0.0
  0
CIRCLE
  5
158D
330
13D3
100
AcDbEntity
  8
AM_0
100
AcDbCircle
 10
-0.0000000000000568
 20
61.22074023069558
 30
0.0
 40
10.32499999999997
  0
SPLINE
  5
158E
330
13D3
100
AcDbEntity
  8
AM_0
100
AcDbSpline
210
0.0
220
0.0
230
1.0
 70
    28
 71
     2
 72
     6
 73
     3
 74
     0
 42
0.0000000001
 43
0.0000000001
 40
0.3807113172039051
 40
0.3807113172039051
 40
0.3807113172039051
 40
0.7614226344078102
 40
0.7614226344078102
 40
0.7614226344078102
 10
36.62916512459893
 20
93.25000000000001
 30
0.0
 41
1.0
 10
35.75833024919771
 20
91.74166975080231
 30
0.0
 41
1.037954849302032
 10
34.75277674973262
 20
90.0
 30
0.0
 41
1.0
  0
ARC
  5
158F
330
13D3
100
AcDbEntity
  8
AM_0
100
AcDbCircle
 10
31.00000000000003
 20
96.5
 30
0.0
 40
6.500000000000027
100
AcDbArc
 50
270.0
 51
329.9999999999999
  0
SPLINE
  5
1590
330
13D3
100
AcDbEntity
  8
AM_0
100
AcDbSpline
210
0.0
220
0.0
230
1.0
 70
    28
 71
     2
 72
     6
 73
     3
 74
     0
 42
0.0000000001
 43
0.0000000001
 40
0.0
 40
0.0
 40
0.0
 40
0.3807113172039049
 40
0.3807113172039049
 40
0.3807113172039049
 10
34.75277674973262
 20
90.0
 30
0.0
 41
1.0
 10
32.74166975080238
 20
90.0
 30
0.0
 41
1.037954849302044
 10
31.00000000000003
 20
90.0
 30
0.0
 41
1.0
  0
SPLINE
  5
1591
330
13D3
100
AcDbEntity
  8
AM_0
100
AcDbSpline
210
0.0
220
0.0
230
1.0
 70
    28
 71
     2
 72
     6
 73
     3
 74
     0
 42
0.0000000001
 43
0.0000000001
 40
0.0
 40
0.0
 40
0.0
 40
0.380711317203904
 40
0.380711317203904
 40
0.380711317203904
 10
27.24722325026744
 20
90.00000000000012
 30
0.0
 41
1.0
 10
26.24166975080238
 20
91.74166975080231
 30
0.0
 41
1.037954849302052
 10
25.37083487540113
 20
93.25000000000001
 30
0.0
 41
1.0
  0
SPLINE
  5
1592
330
13D3
100
AcDbEntity
  8
AM_0
100
AcDbSpline
210
0.0
220
0.0
230
1.0
 70
    28
 71
     2
 72
     6
 73
     3
 74
     0
 42
0.0000000001
 43
0.0000000001
 40
0.3807113172039049
 40
0.3807113172039049
 40
0.3807113172039049
 40
0.7614226344078097
 40
0.7614226344078097
 40
0.7614226344078097
 10
31.00000000000003
 20
90.0
 30
0.0
 41
1.0
 10
29.25833024919771
 20
90.0
 30
0.0
 41
1.037954849302014
 10
27.24722325026744
 20
90.0
 30
0.0
 41
1.0
  0
ARC
  5
1593
330
13D3
100
AcDbEntity
  8
AM_0
100
AcDbCircle
 10
31.00000000000003
 20
96.5
 30
0.0
 40
6.500000000000028
100
AcDbArc
 50
210.0000000000001
 51
270.0
  0
SPLINE
  5
1594
330
13D3
100
AcDbEntity
  8
AM_0
100
AcDbSpline
210
0.0
220
0.0
230
1.0
 70
    28
 71
     2
 72
     6
 73
     3
 74
     0
 42
0.0000000001
 43
0.0000000001
 40
0.3807113172039051
 40
0.3807113172039051
 40
0.3807113172039051
 40
0.7614226344078103
 40
0.7614226344078103
 40
0.7614226344078103
 10
36.62916512459893
 20
99.75000000000001
 30
0.0
 41
1.0
 10
37.50000000000003
 20
98.24166975080231
 30
0.0
 41
1.037954849302055
 10
38.50555349946524
 20
96.5
 30
0.0
 41
1.0
  0
ARC
  5
1595
330
13D3
100
AcDbEntity
  8
AM_0
100
AcDbCircle
 10
31.00000000000003
 20
96.5
 30
0.0
 40
6.500000000000024
100
AcDbArc
 50
329.9999999999999
 51
30.00000000000014
  0
SPLINE
  5
1596
330
13D3
100
AcDbEntity
  8
AM_0
100
AcDbSpline
210
0.0
220
0.0
230
1.0
 70
    28
 71
     2
 72
     6
 73
     3
 74
     0
 42
0.0000000001
 43
0.0000000001
 40
0.0
 40
0.0
 40
0.0
 40
0.3807113172039051
 40
0.3807113172039051
 40
0.3807113172039051
 10
38.50555349946524
 20
96.5
 30
0.0
 41
1.0
 10
37.50000000000003
 20
94.75833024919769
 30
0.0
 41
1.037954849302045
 10
36.62916512459893
 20
93.25000000000001
 30
0.0
 41
1.0
  0
SPLINE
  5
1597
330
13D3
100
AcDbEntity
  8
AM_0
100
AcDbSpline
210
0.0
220
0.0
230
1.0
 70
    28
 71
     2
 72
     6
 73
     3
 74
     0
 42
0.0000000001
 43
0.0000000001
 40
0.0
 40
0.0
 40
0.0
 40
0.3807113172039044
 40
0.3807113172039044
 40
0.3807113172039044
 10
23.49444650053496
 20
96.5
 30
0.0
 41
1.0
 10
24.50000000000003
 20
98.24166975080231
 30
0.0
 41
1.037954849302037
 10
25.37083487540113
 20
99.75000000000001
 30
0.0
 41
1.0
  0
SPLINE
  5
1598
330
13D3
100
AcDbEntity
  8
AM_0
100
AcDbSpline
210
0.0
220
0.0
230
1.0
 70
    28
 71
     2
 72
     6
 73
     3
 74
     0
 42
0.0000000001
 43
0.0000000001
 40
0.380711317203904
 40
0.380711317203904
 40
0.380711317203904
 40
0.7614226344078081
 40
0.7614226344078081
 40
0.7614226344078081
 10
25.37083487540113
 20
93.25000000000001
 30
0.0
 41
1.0
 10
24.50000000000003
 20
94.75833024919769
 30
0.0
 41
1.037954849302052
 10
23.49444650053496
 20
96.5
 30
0.0
 41
1.0
  0
ARC
  5
1599
330
13D3
100
AcDbEntity
  8
AM_0
100
AcDbCircle
 10
31.00000000000003
 20
96.5
 30
0.0
 40
6.500000000000027
100
AcDbArc
 50
149.9999999999998
 51
210.0000000000001
  0
SPLINE
  5
159A
330
13D3
100
AcDbEntity
  8
AM_0
100
AcDbSpline
210
0.0
220
0.0
230
1.0
 70
    28
 71
     2
 72
     6
 73
     3
 74
     0
 42
0.0000000001
 43
0.0000000001
 40
0.3807113172039045
 40
0.3807113172039045
 40
0.3807113172039045
 40
0.7614226344078091
 40
0.7614226344078091
 40
0.7614226344078091
 10
31.00000000000003
 20
103.0
 30
0.0
 41
1.0
 10
32.74166975080238
 20
103.0
 30
0.0
 41
1.037954849302044
 10
34.75277674973262
 20
103.0
 30
0.0
 41
1.0
  0
ARC
  5
159B
330
13D3
100
AcDbEntity
  8
AM_0
100
AcDbCircle
 10
31.00000000000003
 20
96.5
 30
0.0
 40
6.500000000000026
100
AcDbArc
 50
30.00000000000014
 51
90.0
  0
SPLINE
  5
159C
330
13D3
100
AcDbEntity
  8
AM_0
100
AcDbSpline
210
0.0
220
0.0
230
1.0
 70
    28
 71
     2
 72
     6
 73
     3
 74
     0
 42
0.0000000001
 43
0.0000000001
 40
0.0
 40
0.0
 40
0.0
 40
0.3807113172039051
 40
0.3807113172039051
 40
0.3807113172039051
 10
34.75277674973262
 20
103.0
 30
0.0
 41
1.0
 10
35.75833024919771
 20
101.2583302491975
 30
0.0
 41
1.037954849302046
 10
36.62916512459893
 20
99.75000000000001
 30
0.0
 41
1.0
  0
SPLINE
  5
159D
330
13D3
100
AcDbEntity
  8
AM_0
100
AcDbSpline
210
0.0
220
0.0
230
1.0
 70
    28
 71
     2
 72
     6
 73
     3
 74
     0
 42
0.0000000001
 43
0.0000000001
 40
0.0
 40
0.0
 40
0.0
 40
0.3807113172039045
 40
0.3807113172039045
 40
0.3807113172039045
 10
27.24722325026744
 20
103.0
 30
0.0
 41
1.0
 10
29.25833024919771
 20
103.0
 30
0.0
 41
1.037954849302042
 10
31.00000000000003
 20
103.0
 30
0.0
 41
1.0
  0
SPLINE
  5
159E
330
13D3
100
AcDbEntity
  8
AM_0
100
AcDbSpline
210
0.0
220
0.0
230
1.0
 70
    28
 71
     2
 72
     6
 73
     3
 74
     0
 42
0.0000000001
 43
0.0000000001
 40
0.3807113172039044
 40
0.3807113172039044
 40
0.3807113172039044
 40
0.7614226344078091
 40
0.7614226344078091
 40
0.7614226344078091
 10
25.37083487540113
 20
99.75000000000001
 30
0.0
 41
1.0
 10
26.24166975080238
 20
101.2583302491977
 30
0.0
 41
1.037954849302054
 10
27.24722325026744
 20
103.0
 30
0.0
 41
1.0
  0
ARC
  5
159F
330
13D3
100
AcDbEntity
  8
AM_0
100
AcDbCircle
 10
31.00000000000003
 20
96.5
 30
0.0
 40
6.500000000000028
100
AcDbArc
 50
90.0
 51
149.9999999999998
  0
SPLINE
  5
15A0
330
13D3
100
AcDbEntity
  8
AM_0
100
AcDbSpline
210
0.0
220
0.0
230
1.0
 70
    28
 71
     2
 72
     6
 73
     3
 74
     0
 42
0.0000000001
 43
0.0000000001
 40
0.3807113172039051
 40
0.3807113172039051
 40
0.3807113172039051
 40
0.7614226344078102
 40
0.7614226344078102
 40
0.7614226344078102
 10
36.62916512459893
 20
-99.7500000000001
 30
0.0
 41
1.0
 10
35.75833024919771
 20
-101.2583302491978
 30
0.0
 41
1.037954849302032
 10
34.75277674973262
 20
-103.0
 30
0.0
 41
1.0
  0
ARC
  5
15A1
330
13D3
100
AcDbEntity
  8
AM_0
100
AcDbCircle
 10
31.00000000000003
 20
-96.5
 30
0.0
 40
6.500000000000027
100
AcDbArc
 50
270.0
 51
329.9999999999999
  0
SPLINE
  5
15A2
330
13D3
100
AcDbEntity
  8
AM_0
100
AcDbSpline
210
0.0
220
0.0
230
1.0
 70
    28
 71
     2
 72
     6
 73
     3
 74
     0
 42
0.0000000001
 43
0.0000000001
 40
0.0
 40
0.0
 40
0.0
 40
0.3807113172039049
 40
0.3807113172039049
 40
0.3807113172039049
 10
34.75277674973262
 20
-103.0000000000001
 30
0.0
 41
1.0
 10
32.74166975080238
 20
-103.0000000000001
 30
0.0
 41
1.037954849302044
 10
31.00000000000003
 20
-103.0000000000001
 30
0.0
 41
1.0
  0
SPLINE
  5
15A3
330
13D3
100
AcDbEntity
  8
AM_0
100
AcDbSpline
210
0.0
220
0.0
230
1.0
 70
    28
 71
     2
 72
     6
 73
     3
 74
     0
 42
0.0000000001
 43
0.0000000001
 40
0.0
 40
0.0
 40
0.0
 40
0.380711317203904
 40
0.380711317203904
 40
0.380711317203904
 10
27.24722325026744
 20
-103.0
 30
0.0
 41
1.0
 10
26.24166975080238
 20
-101.2583302491978
 30
0.0
 41
1.037954849302052
 10
25.37083487540113
 20
-99.7500000000001
 30
0.0
 41
1.0
  0
SPLINE
  5
15A4
330
13D3
100
AcDbEntity
  8
AM_0
100
AcDbSpline
210
0.0
220
0.0
230
1.0
 70
    28
 71
     2
 72
     6
 73
     3
 74
     0
 42
0.0000000001
 43
0.0000000001
 40
0.3807113172039049
 40
0.3807113172039049
 40
0.3807113172039049
 40
0.7614226344078097
 40
0.7614226344078097
 40
0.7614226344078097
 10
31.00000000000003
 20
-103.0000000000001
 30
0.0
 41
1.0
 10
29.25833024919771
 20
-103.0000000000001
 30
0.0
 41
1.037954849302014
 10
27.24722325026744
 20
-103.0000000000001
 30
0.0
 41
1.0
  0
ARC
  5
15A5
330
13D3
100
AcDbEntity
  8
AM_0
100
AcDbCircle
 10
31.00000000000003
 20
-96.5
 30
0.0
 40
6.500000000000028
100
AcDbArc
 50
210.0000000000001
 51
270.0
  0
SPLINE
  5
15A6
330
13D3
100
AcDbEntity
  8
AM_0
100
AcDbSpline
210
0.0
220
0.0
230
1.0
 70
    28
 71
     2
 72
     6
 73
     3
 74
     0
 42
0.0000000001
 43
0.0000000001
 40
0.3807113172039051
 40
0.3807113172039051
 40
0.3807113172039051
 40
0.7614226344078103
 40
0.7614226344078103
 40
0.7614226344078103
 10
36.62916512459893
 20
-93.25000000000011
 30
0.0
 41
1.0
 10
37.50000000000003
 20
-94.75833024919779
 30
0.0
 41
1.037954849302055
 10
38.50555349946524
 20
-96.5
 30
0.0
 41
1.0
  0
ARC
  5
15A7
330
13D3
100
AcDbEntity
  8
AM_0
100
AcDbCircle
 10
31.00000000000003
 20
-96.5
 30
0.0
 40
6.500000000000024
100
AcDbArc
 50
329.9999999999999
 51
30.00000000000014
  0
SPLINE
  5
15A8
330
13D3
100
AcDbEntity
  8
AM_0
100
AcDbSpline
210
0.0
220
0.0
230
1.0
 70
    28
 71
     2
 72
     6
 73
     3
 74
     0
 42
0.0000000001
 43
0.0000000001
 40
0.0
 40
0.0
 40
0.0
 40
0.3807113172039051
 40
0.3807113172039051
 40
0.3807113172039051
 10
38.50555349946524
 20
-96.50000000000012
 30
0.0
 41
1.0
 10
37.50000000000003
 20
-98.24166975080238
 30
0.0
 41
1.037954849302045
 10
36.62916512459893
 20
-99.7500000000001
 30
0.0
 41
1.0
  0
SPLINE
  5
15A9
330
13D3
100
AcDbEntity
  8
AM_0
100
AcDbSpline
210
0.0
220
0.0
230
1.0
 70
    28
 71
     2
 72
     6
 73
     3
 74
     0
 42
0.0000000001
 43
0.0000000001
 40
0.0
 40
0.0
 40
0.0
 40
0.3807113172039044
 40
0.3807113172039044
 40
0.3807113172039044
 10
23.49444650053496
 20
-96.5
 30
0.0
 41
1.0
 10
24.50000000000003
 20
-94.75833024919779
 30
0.0
 41
1.037954849302037
 10
25.37083487540113
 20
-93.25000000000011
 30
0.0
 41
1.0
  0
SPLINE
  5
15AA
330
13D3
100
AcDbEntity
  8
AM_0
100
AcDbSpline
210
0.0
220
0.0
230
1.0
 70
    28
 71
     2
 72
     6
 73
     3
 74
     0
 42
0.0000000001
 43
0.0000000001
 40
0.380711317203904
 40
0.380711317203904
 40
0.380711317203904
 40
0.7614226344078081
 40
0.7614226344078081
 40
0.7614226344078081
 10
25.37083487540113
 20
-99.7500000000001
 30
0.0
 41
1.0
 10
24.50000000000003
 20
-98.24166975080238
 30
0.0
 41
1.037954849302052
 10
23.49444650053496
 20
-96.50000000000012
 30
0.0
 41
1.0
  0
ARC
  5
15AB
330
13D3
100
AcDbEntity
  8
AM_0
100
AcDbCircle
 10
31.00000000000003
 20
-96.5
 30
0.0
 40
6.500000000000027
100
AcDbArc
 50
149.9999999999998
 51
210.0000000000001
  0
SPLINE
  5
15AC
330
13D3
100
AcDbEntity
  8
AM_0
100
AcDbSpline
210
0.0
220
0.0
230
1.0
 70
    28
 71
     2
 72
     6
 73
     3
 74
     0
 42
0.0000000001
 43
0.0000000001
 40
0.3807113172039045
 40
0.3807113172039045
 40
0.3807113172039045
 40
0.7614226344078091
 40
0.7614226344078091
 40
0.7614226344078091
 10
31.00000000000003
 20
-90.00000000000012
 30
0.0
 41
1.0
 10
32.74166975080238
 20
-90.00000000000012
 30
0.0
 41
1.037954849302044
 10
34.75277674973262
 20
-90.00000000000012
 30
0.0
 41
1.0
  0
ARC
  5
15AD
330
13D3
100
AcDbEntity
  8
AM_0
100
AcDbCircle
 10
31.00000000000003
 20
-96.5
 30
0.0
 40
6.500000000000026
100
AcDbArc
 50
30.00000000000014
 51
90.0
  0
SPLINE
  5
15AE
330
13D3
100
AcDbEntity
  8
AM_0
100
AcDbSpline
210
0.0
220
0.0
230
1.0
 70
    28
 71
     2
 72
     6
 73
     3
 74
     0
 42
0.0000000001
 43
0.0000000001
 40
0.0
 40
0.0
 40
0.0
 40
0.3807113172039051
 40
0.3807113172039051
 40
0.3807113172039051
 10
34.75277674973262
 20
-90.00000000000012
 30
0.0
 41
1.0
 10
35.75833024919771
 20
-91.7416697508024
 30
0.0
 41
1.037954849302046
 10
36.62916512459893
 20
-93.25000000000011
 30
0.0
 41
1.0
  0
SPLINE
  5
15AF
330
13D3
100
AcDbEntity
  8
AM_0
100
AcDbSpline
210
0.0
220
0.0
230
1.0
 70
    28
 71
     2
 72
     6
 73
     3
 74
     0
 42
0.0000000001
 43
0.0000000001
 40
0.0
 40
0.0
 40
0.0
 40
0.3807113172039045
 40
0.3807113172039045
 40
0.3807113172039045
 10
27.24722325026744
 20
-90.00000000000012
 30
0.0
 41
1.0
 10
29.25833024919771
 20
-90.00000000000012
 30
0.0
 41
1.037954849302042
 10
31.00000000000003
 20
-90.00000000000012
 30
0.0
 41
1.0
  0
SPLINE
  5
15B0
330
13D3
100
AcDbEntity
  8
AM_0
100
AcDbSpline
210
0.0
220
0.0
230
1.0
 70
    28
 71
     2
 72
     6
 73
     3
 74
     0
 42
0.0000000001
 43
0.0000000001
 40
0.3807113172039044
 40
0.3807113172039044
 40
0.3807113172039044
 40
0.7614226344078091
 40
0.7614226344078091
 40
0.7614226344078091
 10
25.37083487540113
 20
-93.25000000000011
 30
0.0
 41
1.0
 10
26.24166975080238
 20
-91.7416697508024
 30
0.0
 41
1.037954849302054
 10
27.24722325026744
 20
-90.00000000000012
 30
0.0
 41
1.0
  0
ARC
  5
15B1
330
13D3
100
AcDbEntity
  8
AM_0
100
AcDbCircle
 10
31.00000000000003
 20
-96.5
 30
0.0
 40
6.500000000000028
100
AcDbArc
 50
90.0
 51
149.9999999999998
  0
SPLINE
  5
15B2
330
13D3
100
AcDbEntity
  8
AM_0
100
AcDbSpline
210
0.0
220
0.0
230
1.0
 70
    28
 71
     2
 72
     6
 73
     3
 74
     0
 42
0.0000000001
 43
0.0000000001
 40
0.3807113172039051
 40
0.3807113172039051
 40
0.3807113172039051
 40
0.7614226344078102
 40
0.7614226344078102
 40
0.7614226344078102
 10
-24.80397655716365
 20
-98.46450846163172
 30
0.0
 41
1.0
 10
-25.33036501298199
 20
-100.1247279394239
 30
0.0
 41
1.037954849302032
 10
-25.93818604631199
 20
-102.0417842642584
 30
0.0
 41
1.0
  0
ARC
  5
15B3
330
13D3
100
AcDbEntity
  8
AM_0
100
AcDbCircle
 10
-30.99999999999997
 20
-96.5
 30
0.0
 40
6.500000000000018
100
AcDbArc
 50
282.4082840800758
 51
342.4082840800772
  0
SPLINE
  5
15B4
330
13D3
100
AcDbEntity
  8
AM_0
100
AcDbSpline
210
0.0
220
0.0
230
1.0
 70
    28
 71
     2
 72
     6
 73
     3
 74
     0
 42
0.0000000001
 43
0.0000000001
 40
0.0
 40
0.0
 40
0.0
 40
0.3807113172039049
 40
0.3807113172039049
 40
0.3807113172039049
 10
-25.93818604631199
 20
-102.0417842642584
 30
0.0
 41
1.0
 10
-27.90231604076928
 20
-102.4739239708574
 30
0.0
 41
1.037954849302044
 10
-29.60330251230428
 20
-102.8481679347561
 30
0.0
 41
1.0
  0
SPLINE
  5
15B5
330
13D3
100
AcDbEntity
  8
AM_0
100
AcDbSpline
210
0.0
220
0.0
230
1.0
 70
    28
 71
     2
 72
     6
 73
     3
 74
     0
 42
0.0000000001
 43
0.0000000001
 40
0.0
 40
0.0
 40
0.0
 40
0.380711317203904
 40
0.380711317203904
 40
0.380711317203904
 10
-33.26841897829658
 20
-103.6545516052536
 30
0.0
 41
1.0
 10
-34.62472793942388
 20
-102.1696349870181
 30
0.0
 41
1.037954849302052
 10
-35.79932595514055
 20
-100.8836594731245
 30
0.0
 41
1.0
  0
SPLINE
  5
15B6
330
13D3
100
AcDbEntity
  8
AM_0
100
AcDbSpline
210
0.0
220
0.0
230
1.0
 70
    28
 71
     2
 72
     6
 73
     3
 74
     0
 42
0.0000000001
 43
0.0000000001
 40
0.3807113172039049
 40
0.3807113172039049
 40
0.3807113172039049
 40
0.7614226344078097
 40
0.7614226344078097
 40
0.7614226344078097
 10
-29.60330251230428
 20
-102.8481679347561
 30
0.0
 41
1.0
 10
-31.30428898383929
 20
-103.2224118986547
 30
0.0
 41
1.037954849302014
 10
-33.26841897829658
 20
-103.6545516052537
 30
0.0
 41
1.0
  0
ARC
  5
15B7
330
13D3
100
AcDbEntity
  8
AM_0
100
AcDbCircle
 10
-30.99999999999997
 20
-96.5
 30
0.0
 40
6.500000000000018
100
AcDbArc
 50
222.408284080077
 51
282.4082840800758
  0
SPLINE
  5
15B8
330
13D3
100
AcDbEntity
  8
AM_0
100
AcDbSpline
210
0.0
220
0.0
230
1.0
 70
    28
 71
     2
 72
     6
 73
     3
 74
     0
 42
0.0000000001
 43
0.0000000001
 40
0.3807113172039051
 40
0.3807113172039051
 40
0.3807113172039051
 40
0.7614226344078103
 40
0.7614226344078103
 40
0.7614226344078103
 10
-26.20067404485937
 20
-92.11634052687571
 30
0.0
 41
1.0
 10
-25.02607602914264
 20
-93.40231604076931
 30
0.0
 41
1.037954849302055
 10
-23.66976706801537
 20
-94.8872326590048
 30
0.0
 41
1.0
  0
ARC
  5
15B9
330
13D3
100
AcDbEntity
  8
AM_0
100
AcDbCircle
 10
-30.99999999999997
 20
-96.5
 30
0.0
 40
6.500000000000014
100
AcDbArc
 50
342.4082840800772
 51
42.40828408007703
  0
SPLINE
  5
15BA
330
13D3
100
AcDbEntity
  8
AM_0
100
AcDbSpline
210
0.0
220
0.0
230
1.0
 70
    28
 71
     2
 72
     6
 73
     3
 74
     0
 42
0.0000000001
 43
0.0000000001
 40
0.0
 40
0.0
 40
0.0
 40
0.3807113172039051
 40
0.3807113172039051
 40
0.3807113172039051
 10
-23.66976706801537
 20
-94.88723265900489
 30
0.0
 41
1.0
 10
-24.27758810134537
 20
-96.8042889838394
 30
0.0
 41
1.037954849302045
 10
-24.80397655716365
 20
-98.46450846163172
 30
0.0
 41
1.0
  0
SPLINE
  5
15BB
330
13D3
100
AcDbEntity
  8
AM_0
100
AcDbSpline
210
0.0
220
0.0
230
1.0
 70
    28
 71
     2
 72
     6
 73
     3
 74
     0
 42
0.0000000001
 43
0.0000000001
 40
0.0
 40
0.0
 40
0.0
 40
0.3807113172039044
 40
0.3807113172039044
 40
0.3807113172039044
 10
-38.33023293198465
 20
-98.11276734099529
 30
0.0
 41
1.0
 10
-37.72241189865457
 20
-96.19571101616081
 30
0.0
 41
1.037954849302037
 10
-37.19602344283638
 20
-94.53549153836849
 30
0.0
 41
1.0
  0
SPLINE
  5
15BC
330
13D3
100
AcDbEntity
  8
AM_0
100
AcDbSpline
210
0.0
220
0.0
230
1.0
 70
    28
 71
     2
 72
     6
 73
     3
 74
     0
 42
0.0000000001
 43
0.0000000001
 40
0.380711317203904
 40
0.380711317203904
 40
0.380711317203904
 40
0.7614226344078081
 40
0.7614226344078081
 40
0.7614226344078081
 10
-35.79932595514055
 20
-100.8836594731245
 30
0.0
 41
1.0
 10
-36.97392397085727
 20
-99.59768395923079
 30
0.0
 41
1.037954849302052
 10
-38.33023293198457
 20
-98.11276734099529
 30
0.0
 41
1.0
  0
ARC
  5
15BD
330
13D3
100
AcDbEntity
  8
AM_0
100
AcDbCircle
 10
-30.99999999999997
 20
-96.5
 30
0.0
 40
6.500000000000017
100
AcDbArc
 50
162.4082840800772
 51
222.408284080077
  0
SPLINE
  5
15BE
330
13D3
100
AcDbEntity
  8
AM_0
100
AcDbSpline
210
0.0
220
0.0
230
1.0
 70
    28
 71
     2
 72
     6
 73
     3
 74
     0
 42
0.0000000001
 43
0.0000000001
 40
0.3807113172039045
 40
0.3807113172039045
 40
0.3807113172039045
 40
0.7614226344078091
 40
0.7614226344078091
 40
0.7614226344078091
 10
-32.39669748769566
 20
-90.1518320652441
 30
0.0
 41
1.0
 10
-30.69571101616066
 20
-89.7775881013454
 30
0.0
 41
1.037954849302044
 10
-28.73158102170348
 20
-89.34544839474639
 30
0.0
 41
1.0
  0
ARC
  5
15BF
330
13D3
100
AcDbEntity
  8
AM_0
100
AcDbCircle
 10
-30.99999999999997
 20
-96.5
 30
0.0
 40
6.500000000000017
100
AcDbArc
 50
42.40828408007703
 51
102.4082840800766
  0
SPLINE
  5
15C0
330
13D3
100
AcDbEntity
  8
AM_0
100
AcDbSpline
210
0.0
220
0.0
230
1.0
 70
    28
 71
     2
 72
     6
 73
     3
 74
     0
 42
0.0000000001
 43
0.0000000001
 40
0.0
 40
0.0
 40
0.0
 40
0.3807113172039051
 40
0.3807113172039051
 40
0.3807113172039051
 10
-28.73158102170339
 20
-89.34544839474652
 30
0.0
 41
1.0
 10
-27.37527206057615
 20
-90.83036501298201
 30
0.0
 41
1.037954849302046
 10
-26.20067404485937
 20
-92.11634052687571
 30
0.0
 41
1.0
  0
SPLINE
  5
15C1
330
13D3
100
AcDbEntity
  8
AM_0
100
AcDbSpline
210
0.0
220
0.0
230
1.0
 70
    28
 71
     2
 72
     6
 73
     3
 74
     0
 42
0.0000000001
 43
0.0000000001
 40
0.0
 40
0.0
 40
0.0
 40
0.3807113172039045
 40
0.3807113172039045
 40
0.3807113172039045
 10
-36.06181395368799
 20
-90.9582157357417
 30
0.0
 41
1.0
 10
-34.09768395923078
 20
-90.52607602914269
 30
0.0
 41
1.037954849302042
 10
-32.39669748769566
 20
-90.1518320652441
 30
0.0
 41
1.0
  0
SPLINE
  5
15C2
330
13D3
100
AcDbEntity
  8
AM_0
100
AcDbSpline
210
0.0
220
0.0
230
1.0
 70
    28
 71
     2
 72
     6
 73
     3
 74
     0
 42
0.0000000001
 43
0.0000000001
 40
0.3807113172039044
 40
0.3807113172039044
 40
0.3807113172039044
 40
0.7614226344078091
 40
0.7614226344078091
 40
0.7614226344078091
 10
-37.19602344283638
 20
-94.53549153836849
 30
0.0
 41
1.0
 10
-36.66963498701807
 20
-92.87527206057621
 30
0.0
 41
1.037954849302054
 10
-36.06181395368807
 20
-90.9582157357417
 30
0.0
 41
1.0
  0
ARC
  5
15C3
330
13D3
100
AcDbEntity
  8
AM_0
100
AcDbCircle
 10
-30.99999999999997
 20
-96.5
 30
0.0
 40
6.500000000000018
100
AcDbArc
 50
102.4082840800766
 51
162.4082840800772
  0
SPLINE
  5
15C4
330
13D3
100
AcDbEntity
  8
AM_0
100
AcDbSpline
210
0.0
220
0.0
230
1.0
 70
    28
 71
     2
 72
     6
 73
     3
 74
     0
 42
0.0000000001
 43
0.0000000001
 40
0.3807113172039051
 40
0.3807113172039051
 40
0.3807113172039051
 40
0.7614226344078102
 40
0.7614226344078102
 40
0.7614226344078102
 10
-25.37083487540116
 20
93.25000000000001
 30
0.0
 41
1.0
 10
-26.24166975080229
 20
91.74166975080231
 30
0.0
 41
1.037954849302032
 10
-27.24722325026738
 20
90.0
 30
0.0
 41
1.0
  0
ARC
  5
15C5
330
13D3
100
AcDbEntity
  8
AM_0
100
AcDbCircle
 10
-30.99999999999997
 20
96.5
 30
0.0
 40
6.500000000000027
100
AcDbArc
 50
270.0
 51
329.9999999999999
  0
SPLINE
  5
15C6
330
13D3
100
AcDbEntity
  8
AM_0
100
AcDbSpline
210
0.0
220
0.0
230
1.0
 70
    28
 71
     2
 72
     6
 73
     3
 74
     0
 42
0.0000000001
 43
0.0000000001
 40
0.0
 40
0.0
 40
0.0
 40
0.3807113172039049
 40
0.3807113172039049
 40
0.3807113172039049
 10
-27.24722325026747
 20
90.0
 30
0.0
 41
1.0
 10
-29.25833024919766
 20
90.0
 30
0.0
 41
1.037954849302044
 10
-30.99999999999997
 20
90.0
 30
0.0
 41
1.0
  0
SPLINE
  5
15C7
330
13D3
100
AcDbEntity
  8
AM_0
100
AcDbSpline
210
0.0
220
0.0
230
1.0
 70
    28
 71
     2
 72
     6
 73
     3
 74
     0
 42
0.0000000001
 43
0.0000000001
 40
0.0
 40
0.0
 40
0.0
 40
0.380711317203904
 40
0.380711317203904
 40
0.380711317203904
 10
-34.75277674973256
 20
90.00000000000012
 30
0.0
 41
1.0
 10
-35.75833024919766
 20
91.74166975080231
 30
0.0
 41
1.037954849302052
 10
-36.62916512459887
 20
93.25000000000001
 30
0.0
 41
1.0
  0
SPLINE
  5
15C8
330
13D3
100
AcDbEntity
  8
AM_0
100
AcDbSpline
210
0.0
220
0.0
230
1.0
 70
    28
 71
     2
 72
     6
 73
     3
 74
     0
 42
0.0000000001
 43
0.0000000001
 40
0.3807113172039049
 40
0.3807113172039049
 40
0.3807113172039049
 40
0.7614226344078097
 40
0.7614226344078097
 40
0.7614226344078097
 10
-30.99999999999997
 20
90.0
 30
0.0
 41
1.0
 10
-32.74166975080229
 20
90.0
 30
0.0
 41
1.037954849302014
 10
-34.75277674973256
 20
90.0
 30
0.0
 41
1.0
  0
ARC
  5
15C9
330
13D3
100
AcDbEntity
  8
AM_0
100
AcDbCircle
 10
-30.99999999999997
 20
96.5
 30
0.0
 40
6.500000000000028
100
AcDbArc
 50
210.0000000000001
 51
270.0
  0
SPLINE
  5
15CA
330
13D3
100
AcDbEntity
  8
AM_0
100
AcDbSpline
210
0.0
220
0.0
230
1.0
 70
    28
 71
     2
 72
     6
 73
     3
 74
     0
 42
0.0000000001
 43
0.0000000001
 40
0.3807113172039051
 40
0.3807113172039051
 40
0.3807113172039051
 40
0.7614226344078103
 40
0.7614226344078103
 40
0.7614226344078103
 10
-25.37083487540116
 20
99.75000000000001
 30
0.0
 41
1.0
 10
-24.49999999999997
 20
98.24166975080231
 30
0.0
 41
1.037954849302055
 10
-23.49444650053488
 20
96.5
 30
0.0
 41
1.0
  0
ARC
  5
15CB
330
13D3
100
AcDbEntity
  8
AM_0
100
AcDbCircle
 10
-30.99999999999997
 20
96.5
 30
0.0
 40
6.500000000000024
100
AcDbArc
 50
329.9999999999999
 51
30.00000000000014
  0
SPLINE
  5
15CC
330
13D3
100
AcDbEntity
  8
AM_0
100
AcDbSpline
210
0.0
220
0.0
230
1.0
 70
    28
 71
     2
 72
     6
 73
     3
 74
     0
 42
0.0000000001
 43
0.0000000001
 40
0.0
 40
0.0
 40
0.0
 40
0.3807113172039051
 40
0.3807113172039051
 40
0.3807113172039051
 10
-23.49444650053488
 20
96.5
 30
0.0
 41
1.0
 10
-24.49999999999997
 20
94.75833024919769
 30
0.0
 41
1.037954849302045
 10
-25.37083487540116
 20
93.25000000000001
 30
0.0
 41
1.0
  0
SPLINE
  5
15CD
330
13D3
100
AcDbEntity
  8
AM_0
100
AcDbSpline
210
0.0
220
0.0
230
1.0
 70
    28
 71
     2
 72
     6
 73
     3
 74
     0
 42
0.0000000001
 43
0.0000000001
 40
0.0
 40
0.0
 40
0.0
 40
0.3807113172039044
 40
0.3807113172039044
 40
0.3807113172039044
 10
-38.50555349946507
 20
96.5
 30
0.0
 41
1.0
 10
-37.49999999999997
 20
98.24166975080231
 30
0.0
 41
1.037954849302037
 10
-36.62916512459879
 20
99.75000000000001
 30
0.0
 41
1.0
  0
SPLINE
  5
15CE
330
13D3
100
AcDbEntity
  8
AM_0
100
AcDbSpline
210
0.0
220
0.0
230
1.0
 70
    28
 71
     2
 72
     6
 73
     3
 74
     0
 42
0.0000000001
 43
0.0000000001
 40
0.380711317203904
 40
0.380711317203904
 40
0.380711317203904
 40
0.7614226344078081
 40
0.7614226344078081
 40
0.7614226344078081
 10
-36.62916512459887
 20
93.25000000000001
 30
0.0
 41
1.0
 10
-37.49999999999997
 20
94.75833024919769
 30
0.0
 41
1.037954849302052
 10
-38.50555349946507
 20
96.5
 30
0.0
 41
1.0
  0
ARC
  5
15CF
330
13D3
100
AcDbEntity
  8
AM_0
100
AcDbCircle
 10
-30.99999999999997
 20
96.5
 30
0.0
 40
6.500000000000027
100
AcDbArc
 50
149.9999999999998
 51
210.0000000000001
  0
SPLINE
  5
15D0
330
13D3
100
AcDbEntity
  8
AM_0
100
AcDbSpline
210
0.0
220
0.0
230
1.0
 70
    28
 71
     2
 72
     6
 73
     3
 74
     0
 42
0.0000000001
 43
0.0000000001
 40
0.3807113172039045
 40
0.3807113172039045
 40
0.3807113172039045
 40
0.7614226344078091
 40
0.7614226344078091
 40
0.7614226344078091
 10
-30.99999999999997
 20
103.0
 30
0.0
 41
1.0
 10
-29.25833024919766
 20
103.0
 30
0.0
 41
1.037954849302044
 10
-27.24722325026747
 20
103.0
 30
0.0
 41
1.0
  0
ARC
  5
15D1
330
13D3
100
AcDbEntity
  8
AM_0
100
AcDbCircle
 10
-30.99999999999997
 20
96.5
 30
0.0
 40
6.500000000000026
100
AcDbArc
 50
30.00000000000014
 51
90.0
  0
SPLINE
  5
15D2
330
13D3
100
AcDbEntity
  8
AM_0
100
AcDbSpline
210
0.0
220
0.0
230
1.0
 70
    28
 71
     2
 72
     6
 73
     3
 74
     0
 42
0.0000000001
 43
0.0000000001
 40
0.0
 40
0.0
 40
0.0
 40
0.3807113172039051
 40
0.3807113172039051
 40
0.3807113172039051
 10
-27.24722325026738
 20
103.0
 30
0.0
 41
1.0
 10
-26.24166975080229
 20
101.2583302491975
 30
0.0
 41
1.037954849302046
 10
-25.37083487540116
 20
99.75000000000001
 30
0.0
 41
1.0
  0
SPLINE
  5
15D3
330
13D3
100
AcDbEntity
  8
AM_0
100
AcDbSpline
210
0.0
220
0.0
230
1.0
 70
    28
 71
     2
 72
     6
 73
     3
 74
     0
 42
0.0000000001
 43
0.0000000001
 40
0.0
 40
0.0
 40
0.0
 40
0.3807113172039045
 40
0.3807113172039045
 40
0.3807113172039045
 10
-34.75277674973248
 20
103.0
 30
0.0
 41
1.0
 10
-32.74166975080229
 20
103.0
 30
0.0
 41
1.037954849302042
 10
-30.99999999999997
 20
103.0
 30
0.0
 41
1.0
  0
SPLINE
  5
15D4
330
13D3
100
AcDbEntity
  8
AM_0
100
AcDbSpline
210
0.0
220
0.0
230
1.0
 70
    28
 71
     2
 72
     6
 73
     3
 74
     0
 42
0.0000000001
 43
0.0000000001
 40
0.3807113172039044
 40
0.3807113172039044
 40
0.3807113172039044
 40
0.7614226344078091
 40
0.7614226344078091
 40
0.7614226344078091
 10
-36.62916512459879
 20
99.75000000000001
 30
0.0
 41
1.0
 10
-35.75833024919766
 20
101.2583302491977
 30
0.0
 41
1.037954849302054
 10
-34.75277674973256
 20
103.0
 30
0.0
 41
1.0
  0
ARC
  5
15D5
330
13D3
100
AcDbEntity
  8
AM_0
100
AcDbCircle
 10
-30.99999999999997
 20
96.5
 30
0.0
 40
6.500000000000028
100
AcDbArc
 50
90.0
 51
149.9999999999998
  0
LINE
  5
15D6
330
13D3
100
AcDbEntity
  8
AM_5
100
AcDbLine
 10
-19.99999999999997
 20
-75.80000000000012
 30
0.0
 11
-19.99999999999997
 21
-125.6403776411764
 31
0.0
  0
LINE
  5
15D7
330
13D3
100
AcDbEntity
  8
AM_5
100
AcDbLine
 10
20.0
 20
-75.80000000000012
 30
0.0
 11
20.0
 21
-125.6403776411764
 31
0.0
  0
LINE
  5
15D8
330
13D3
100
AcDbEntity
  8
AM_5
100
AcDbLine
 10
-17.49999999999997
 20
-124.6403776411764
 30
0.0
 11
17.5
 21
-124.6403776411764
 31
0.0
  0
SOLID
  5
15D9
330
13D3
100
AcDbEntity
  8
AM_5
100
AcDbTrace
 10
-17.49999999999997
 20
-124.2237109745097
 30
0.0
 11
-17.49999999999997
 21
-125.0570443078431
 31
0.0
 12
-19.99999999999997
 22
-124.6403776411764
 32
0.0
 13
-19.99999999999997
 23
-124.6403776411764
 33
0.0
  0
SOLID
  5
15DA
330
13D3
100
AcDbEntity
  8
AM_5
100
AcDbTrace
 10
17.5
 20
-124.2237109745097
 30
0.0
 11
17.5
 21
-125.0570443078431
 31
0.0
 12
20.0
 22
-124.6403776411764
 32
0.0
 13
20.0
 23
-124.6403776411764
 33
0.0
  0
MTEXT
  5
15DB
330
13D3
100
AcDbEntity
  8
AM_5
 62
     2
100
AcDbMText
 10
0.0000000000000142
 20
-121.2153776411764
 30
0.0
 40
3.5
 41
0.0
 71
     5
 72
     1
  1
40 [1.575"]
 73
     1
 44
1.0
1001
ACAD
1000
MTEXTBEGIN
1070
    73
1070
     1
1070
    44
1040
1.0
1070
    74
1070
     0
1000
MTEXTEND
  0
LINE
  5
15DC
330
13D3
100
AcDbEntity
  8
AM_5
100
AcDbLine
 10
44.00000000000003
 20
-101.0000000000001
 30
0.0
 11
44.00000000000003
 21
-135.6403776411766
 31
0.0
  0
LINE
  5
15DD
330
13D3
100
AcDbEntity
  8
AM_5
100
AcDbLine
 10
-43.99999999999997
 20
-101.0000000000001
 30
0.0
 11
-43.99999999999997
 21
-135.6403776411766
 31
0.0
  0
LINE
  5
15DE
330
13D3
100
AcDbEntity
  8
AM_5
100
AcDbLine
 10
41.50000000000003
 20
-134.6403776411766
 30
0.0
 11
-41.49999999999997
 21
-134.6403776411766
 31
0.0
  0
SOLID
  5
15DF
330
13D3
100
AcDbEntity
  8
AM_5
100
AcDbTrace
 10
41.50000000000003
 20
-134.2237109745099
 30
0.0
 11
41.50000000000003
 21
-135.0570443078433
 31
0.0
 12
44.00000000000003
 22
-134.6403776411766
 32
0.0
 13
44.00000000000003
 23
-134.6403776411766
 33
0.0
  0
SOLID
  5
15E0
330
13D3
100
AcDbEntity
  8
AM_5
100
AcDbTrace
 10
-41.49999999999997
 20
-134.2237109745099
 30
0.0
 11
-41.49999999999997
 21
-135.0570443078433
 31
0.0
 12
-43.99999999999997
 22
-134.6403776411766
 32
0.0
 13
-43.99999999999997
 23
-134.6403776411766
 33
0.0
  0
MTEXT
  5
15E1
330
13D3
100
AcDbEntity
  8
AM_5
 62
     2
100
AcDbMText
 10
0.0000000000000284
 20
-131.2153776411766
 30
0.0
 40
3.5
 41
0.0
 71
     5
 72
     1
  1
88 [3.465"]
 73
     1
 44
1.0
1001
ACAD
1000
MTEXTBEGIN
1070
    73
1070
     1
1070
    44
1040
1.0
1070
    74
1070
     0
1000
MTEXTEND
  0
LINE
  5
15E2
330
13D3
100
AcDbEntity
  8
AM_5
100
AcDbLine
 10
-20.99999999999997
 20
-74.80000000000012
 30
0.0
 11
-56.49029989615002
 21
-74.80000000000012
 31
0.0
  0
LINE
  5
15E3
330
13D3
100
AcDbEntity
  8
AM_5
100
AcDbLine
 10
-20.99999999999997
 20
45.19999999999988
 30
0.0
 11
-56.49029989614999
 21
45.19999999999988
 31
0.0
  0
LINE
  5
15E4
330
13D3
100
AcDbEntity
  8
AM_5
100
AcDbLine
 10
-55.49029989615001
 20
-72.30000000000012
 30
0.0
 11
-55.49029989614999
 21
42.69999999999988
 31
0.0
  0
SOLID
  5
15E5
330
13D3
100
AcDbEntity
  8
AM_5
100
AcDbTrace
 10
-55.90696656281668
 20
-72.30000000000012
 30
0.0
 11
-55.07363322948335
 21
-72.30000000000012
 31
0.0
 12
-55.49029989615001
 22
-74.80000000000012
 32
0.0
 13
-55.49029989615001
 23
-74.80000000000012
 33
0.0
  0
SOLID
  5
15E6
330
13D3
100
AcDbEntity
  8
AM_5
100
AcDbTrace
 10
-55.90696656281665
 20
42.69999999999988
 30
0.0
 11
-55.07363322948332
 21
42.69999999999988
 31
0.0
 12
-55.49029989614999
 22
45.19999999999988
 32
0.0
 13
-55.49029989614999
 23
45.19999999999988
 33
0.0
  0
MTEXT
  5
15E7
330
13D3
100
AcDbEntity
  8
AM_5
 62
     2
100
AcDbMText
 10
-58.91529989615001
 20
-14.80000000000007
 30
0.0
 40
3.5
 41
0.0
 71
     5
 72
     1
  1
120 [4.724"]
 11
0.0000000000000001
 21
1.0
 31
0.0
 73
     1
 44
1.0
1001
ACAD
1000
MTEXTBEGIN
1070
    73
1070
     1
1070
    44
1040
1.0
1070
    74
1070
     0
1000
MTEXTEND
  0
LINE
  5
15E8
330
13D3
100
AcDbEntity
  8
AM_5
100
AcDbLine
 10
-36.99999999999997
 20
108.0
 30
0.0
 11
-69.53780525449916
 21
108.0
 31
0.0
  0
LINE
  5
15E9
330
13D3
100
AcDbEntity
  8
AM_5
100
AcDbLine
 10
-36.99999999999997
 20
-108.0000000000001
 30
0.0
 11
-69.5378052544992
 21
-108.0000000000001
 31
0.0
  0
LINE
  5
15EA
330
13D3
100
AcDbEntity
  8
AM_5
100
AcDbLine
 10
-68.53780525449916
 20
105.5
 30
0.0
 11
-68.5378052544992
 21
-105.5000000000001
 31
0.0
  0
SOLID
  5
15EB
330
13D3
100
AcDbEntity
  8
AM_5
100
AcDbTrace
 10
-68.95447192116582
 20
105.5
 30
0.0
 11
-68.12113858783249
 21
105.5
 31
0.0
 12
-68.53780525449916
 22
108.0
 32
0.0
 13
-68.53780525449916
 23
108.0
 33
0.0
  0
SOLID
  5
15EC
330
13D3
100
AcDbEntity
  8
AM_5
100
AcDbTrace
 10
-68.95447192116588
 20
-105.5000000000001
 30
0.0
 11
-68.12113858783253
 21
-105.5000000000001
 31
0.0
 12
-68.5378052544992
 22
-108.0000000000001
 32
0.0
 13
-68.5378052544992
 23
-108.0000000000001
 33
0.0
  0
MTEXT
  5
15ED
330
13D3
100
AcDbEntity
  8
AM_5
 62
     2
100
AcDbMText
 10
-71.9628052544992
 20
-0.0000000000000568
 30
0.0
 40
3.5
 41
0.0
 71
     5
 72
     1
  1
216 [8.504"]
 11
0.0000000000000001
 21
1.0
 31
0.0
 73
     1
 44
1.0
1001
ACAD
1000
MTEXTBEGIN
1070
    73
1070
     1
1070
    44
1040
1.0
1070
    74
1070
     0
1000
MTEXTEND
  0
INSERT
  5
15EE
330
13D3
100
AcDbEntity
  8
0
100
AcDbBlockReference
 66
     1
  2
info
 10
-19.99999951309819
 20
-74.79999977844546
 30
0.0
 50
270.0
  0
ATTRIB
  5
15EF
330
15EE
100
AcDbEntity
  8
0
100
AcDbText
 10
-17.10890427761879
 20
-84.26709272876498
 30
0.00000001
 40
5.0
  1
40
 50
270.0
100
AcDbAttribute
  2
BRD
 70
     1
1001
AcDbAttr
1070
     0
1070
     1
  0
ATTRIB
  5
15F0
330
15EE
100
AcDbEntity
  8
0
100
AcDbText
 10
-25.44223761095201
 20
-84.26709272876498
 30
0.00000001
 40
5.0
  1
120
 50
270.0
100
AcDbAttribute
  2
HJD
 70
     1
1001
AcDbAttr
1070
     0
1070
     1
  0
SEQEND
  5
15F1
330
15EE
100
AcDbEntity
  8
0
  0
ENDBLK
  5
13D5
330
13D3
100
AcDbEntity
  8
0
100
AcDbBlockEnd
  0
ENDSEC
  0
SECTION
  2
ENTITIES
  0
INSERT
  5
15F2
330
1A
100
AcDbEntity
  8
AM_0
100
AcDbBlockReference
  2
COMSEALLW12FL21
 10
73.88780558321497
 20
135.6403779140448
 30
0.0
  0
VIEWPORT
  5
22
102
{ACAD_XDICTIONARY
360
15FA
102
}
330
17
100
AcDbEntity
 67
     1
  8
0
100
AcDbViewport
 10
7.900096624318575
 20
6.635154955787665
 30
0.0
 40
18.8944864125024
 41
11.87498859712033
 68
     1
 69
     1
 12
7.900096624318575
 22
6.635154955787665
 13
0.0
 23
0.0
 14
1.0
 24
1.0
 15
10.0
 25
10.0
 16
0.0
 26
0.0
 36
1.0
 17
0.0
 27
0.0
 37
0.0
 42
50.0
 43
0.0
 44
0.0
 45
11.87498859712033
 50
0.0
 51
0.0
 72
   100
 90
    32800
  1

281
     0
 71
     1
 74
     0
110
0.0
120
0.0
130
0.0
111
1.0
121
0.0
131
0.0
112
0.0
122
1.0
132
0.0
 79
     0
146
0.0
  0
ENDSEC
  0
SECTION
  2
OBJECTS
  0
DICTIONARY
  5
C
330
0
100
AcDbDictionary
281
     1
  3
ACAD_COLOR
350
3CA
  3
ACAD_GROUP
350
D
  3
ACAD_LAYOUT
350
167
  3
ACAD_MATERIAL
350
3C9
  3
ACAD_MLEADERSTYLE
350
A72
  3
ACAD_MLINESTYLE
350
E
  3
ACAD_PLOTSETTINGS
350
168
  3
ACAD_PLOTSTYLENAME
350
165
  3
ACAD_SCALELIST
350
A60
  3
ACAD_TABLESTYLE
350
650
  3
ACAD_VISUALSTYLE
350
A4F
  3
ACDB_RECOMPOSE_DATA
350
AF1
  3
ACDBVARIABLEDICTIONARY
350
5D
  3
ACMDICTIONARY
350
142
  3
AMG
350
171
  3
AMGSNAPSETTINGS
350
1F2
  3
ASE_INDEX_DICTIONARY
350
849
  3
DWGPROPS
350
15F9
  3
MAPISURF_MODULE
350
2E8
  0
DICTIONARY
  5
592
330
2
100
AcDbDictionary
280
     1
281
     1
  3
ACAD_LAYERFILTERS
360
C7C
  3
ACAD_LAYERSTATES
360
822
  3
ACLYDICTIONARY
360
C7B
  3
AMLAYER_GROUPCOLORS
360
593
  0
DICTIONARY
  5
AB7
330
F
100
AcDbDictionary
280
     1
281
     1
  3
ADSK_XREC_LAYER_RECONCILED
360
15F3
  0
DICTIONARY
  5
AB9
330
5CF
100
AcDbDictionary
280
     1
281
     1
  3
ADSK_XREC_LAYER_RECONCILED
360
15F4
  0
DICTIONARY
  5
15F5
330
C7A
100
AcDbDictionary
280
     1
281
     1
  3
ADSK_XREC_LAYER_RECONCILED
360
15F6
  0
DICTIONARY
  5
12A
330
1A
100
AcDbDictionary
280
     1
281
     1
  3
ACAD_INDEX
360
12B
  3
ACAD_SORTENTS
360
1168
  0
DICTIONARY
  5
13AF
330
13AE
100
AcDbDictionary
280
     1
281
     1
  3
ACAD_DIMASSOC
360
13B0
  0
DICTIONARY
  5
13B2
330
13B1
100
AcDbDictionary
280
     1
281
     1
  3
ACAD_DIMASSOC
360
13B3
  0
DICTIONARY
  5
13B5
330
13B4
100
AcDbDictionary
280
     1
281
     1
  3
ACAD_DIMASSOC
360
13B6
  0
DICTIONARY
  5
13B8
330
13B7
100
AcDbDictionary
280
     1
281
     1
  3
ACAD_DIMASSOC
360
13B9
  0
DICTIONARY
  5
15FA
330
22
100
AcDbDictionary
280
     1
281
     1
  3
ACAD_XREC_ROUNDTRIP
360
15FB
  0
DICTIONARY
  5
3CA
102
{ACAD_REACTORS
330
C
102
}
330
C
100
AcDbDictionary
281
     1
  0
DICTIONARY
  5
D
102
{ACAD_REACTORS
330
C
102
}
330
C
100
AcDbDictionary
281
     1
  0
DICTIONARY
  5
167
102
{ACAD_REACTORS
330
C
102
}
330
C
100
AcDbDictionary
281
     1
  3
Layout1
350
16A
  3
Model
350
169
  0
DICTIONARY
  5
3C9
102
{ACAD_REACTORS
330
C
102
}
330
C
100
AcDbDictionary
281
     1
  3
ByBlock
350
A3F
  3
ByLayer
350
A37
  3
Global
350
A47
  0
DICTIONARY
  5
A72
102
{ACAD_REACTORS
330
C
102
}
330
C
100
AcDbDictionary
281
     1
  3
Standard
350
A73
  0
DICTIONARY
  5
E
102
{ACAD_REACTORS
330
C
102
}
330
C
100
AcDbDictionary
281
     1
  3
STANDARD
350
13
  0
DICTIONARY
  5
168
102
{ACAD_REACTORS
330
C
102
}
330
C
100
AcDbDictionary
281
     1
  0
ACDBDICTIONARYWDFLT
  5
165
102
{ACAD_REACTORS
330
C
102
}
330
C
100
AcDbDictionary
281
     1
  3
Normal
350
166
100
AcDbDictionaryWithDefault
340
166
  0
DICTIONARY
  5
A60
102
{ACAD_REACTORS
330
C
102
}
330
C
100
AcDbDictionary
281
     1
  3
A0
350
A61
  3
A1
350
A62
  3
A2
350
A63
  3
A3
350
A64
  3
A4
350
A65
  3
A5
350
A66
  3
A6
350
A67
  3
A7
350
A68
  3
A8
350
A69
  3
A9
350
A6A
  3
B0
350
A6B
  3
B1
350
A6C
  3
B2
350
A6D
  3
B3
350
A6E
  3
B4
350
A6F
  3
B5
350
A70
  3
B6
350
A71
  0
DICTIONARY
  5
650
102
{ACAD_REACTORS
330
C
102
}
330
C
100
AcDbDictionary
281
     1
  3
Standard
350
651
  0
DICTIONARY
  5
A4F
102
{ACAD_REACTORS
330
C
102
}
330
C
100
AcDbDictionary
281
     1
  3
2dWireframe
350
A55
  3
3D Hidden
350
A57
  3
3dWireframe
350
A56
  3
Basic
350
A54
  3
Brighten
350
A5B
  3
ColorChange
350
A5F
  3
Conceptual
350
A58
  3
Dim
350
A5A
  3
Facepattern
350
A5E
  3
Flat
350
A50
  3
FlatWithEdges
350
A51
  3
Gouraud
350
A52
  3
GouraudWithEdges
350
A53
  3
Linepattern
350
A5D
  3
Realistic
350
A59
  3
Thicken
350
A5C
  0
XRECORD
  5
AF1
102
{ACAD_REACTORS
330
C
102
}
330
C
100
AcDbXrecord
280
     1
 90
        1
330
651
  0
DICTIONARY
  5
5D
102
{ACAD_REACTORS
330
C
102
}
330
C
100
AcDbDictionary
281
     1
  3
CANNOSCALE
350
AF4
  3
CMLEADERSTYLE
350
AF2
  3
CTABLESTYLE
350
66F
  3
DIMADEC
350
5E
  3
DIMASSOC
350
3C7
  3
INDEXCTL
350
128
  3
LAYEREVAL
350
AF6
  3
LAYERNOTIFY
350
AF7
  3
LIGHTINGUNITS
350
AF5
  3
MSLTSCALE
350
AF3
  3
SORTENTS
350
15F7
  0
DICTIONARY
  5
142
102
{ACAD_REACTORS
330
C
102
}
330
C
100
AcDbDictionary
281
     1
  3
ACMSTDDICTIONARY
350
143
  3
AMDTSECTSYM_ARROWCOLOR
350
47D
  0
DICTIONARY
  5
171
102
{ACAD_REACTORS
330
C
102
}
330
C
100
AcDbDictionary
281
     1
  3
AcMgSettings
350
172
  0
DICTIONARY
  5
1F2
102
{ACAD_REACTORS
330
C
102
}
330
C
100
AcDbDictionary
281
     1
  3
DIMENSION
350
C6F
  3
FEA
350
C70
  3
HATCH
350
C71
  3
SYMBOLS
350
C72
  0
DICTIONARY
  5
849
102
{ACAD_REACTORS
330
C
102
}
330
C
100
AcDbDictionary
281
     1
  3
ASEBlockHierarchyIndexRecord
350
84B
1001
DCO15
1040
1524370329.156
  0
XRECORD
  5
15F9
102
{ACAD_REACTORS
330
C
102
}
330
C
100
AcDbXrecord
280
     1
  1
DWGPROPS COOKIE
  2

  3

  4

  6

  7

  8
se-jenboh
  9

300
AmdtFileType=84
301
=
302
=
303
=
304
=
305
=
306
=
307
=
308
=
309
=
 40
0.0011487847222222
 41
2456269.647187732
 42
2456269.648334213
  1

 90
        1
  0
DICTIONARY
  5
C7C
102
{ACAD_REACTORS
330
592
102
}
330
592
100
AcDbDictionary
281
     1
  0
DICTIONARY
  5
822
102
{ACAD_REACTORS
330
592
102
}
330
592
100
AcDbDictionary
281
     1
  0
DICTIONARY
  5
C7B
102
{ACAD_REACTORS
330
592
102
}
330
592
100
AcDbDictionary
281
     1
1001
ACAD
1000
<All
  0
DICTIONARY
  5
593
102
{ACAD_REACTORS
330
592
102
}
330
592
100
AcDbDictionary
280
     1
281
     1
  0
XRECORD
  5
15F3
102
{ACAD_REACTORS
330
AB7
102
}
330
AB7
100
AcDbXrecord
280
     1
290
     1
  0
XRECORD
  5
15F4
102
{ACAD_REACTORS
330
AB9
102
}
330
AB9
100
AcDbXrecord
280
     1
290
     1
  0
XRECORD
  5
15F6
102
{ACAD_REACTORS
330
15F5
102
}
330
15F5
100
AcDbXrecord
280
     1
290
     1
  0
DICTIONARY
  5
12B
102
{ACAD_REACTORS
330
12A
102
}
330
12A
100
AcDbDictionary
281
     1
  3
*A1
350
12C
  0
SORTENTSTABLE
  5
1168
102
{ACAD_REACTORS
330
12A
102
}
330
12A
100
AcDbSortentsTable
330
1A
  0
DIMASSOC
  5
13B0
102
{ACAD_REACTORS
330
13AF
102
}
330
13AF
100
AcDbDimAssoc
330
13AE
 90
        3
 70
     0
 71
     0
  1
AcDbOsnapPointRef
 72
    13
331
1344
 73
     0
 91
        0
 40
0.0
 10
0.0
 20
0.0
 30
2.000000000000000E+50
 75
     0
  1
AcDbOsnapPointRef
 72
    13
331
1343
 73
     0
 91
        0
 40
0.0
 10
0.0
 20
0.0
 30
2.000000000000000E+50
 75
     0
  0
DIMASSOC
  5
13B3
102
{ACAD_REACTORS
330
13B2
102
}
330
13B2
100
AcDbDimAssoc
330
13B1
 90
        3
 70
     0
 71
     0
  1
AcDbOsnapPointRef
 72
     1
331
1225
 73
     0
 91
        0
 40
0.0
 10
0.0
 20
0.0
 30
2.000000000000000E+50
 75
     0
  1
AcDbOsnapPointRef
 72
    13
331
1221
 73
     0
 91
        0
 40
0.0
 10
0.0
 20
0.0
 30
2.000000000000000E+50
 75
     0
  0
DIMASSOC
  5
13B6
102
{ACAD_REACTORS
330
13B5
102
}
330
13B5
100
AcDbDimAssoc
330
13B4
 90
        3
 70
     0
 71
     0
  1
AcDbOsnapPointRef
 72
    13
331
1344
 73
     0
 91
        0
 40
0.0
 10
0.0
 20
0.0
 30
2.000000000000000E+50
 75
     0
  1
AcDbOsnapPointRef
 72
     1
331
1364
 73
     0
 91
        0
 40
0.0
 10
0.0
 20
0.0
 30
2.000000000000000E+50
 75
     0
  0
DIMASSOC
  5
13B9
102
{ACAD_REACTORS
330
13B8
102
}
330
13B8
100
AcDbDimAssoc
330
13B7
 90
        3
 70
     0
 71
     0
  1
AcDbOsnapPointRef
 72
    13
331
122D
 73
     0
 91
        0
 40
0.0
 10
0.0
 20
0.0
 30
2.000000000000000E+50
 75
     0
  1
AcDbOsnapPointRef
 72
     1
331
1211
 73
     0
 91
        0
 40
0.0
 10
0.0
 20
0.0
 30
2.000000000000000E+50
 75
     0
  0
XRECORD
  5
15FB
102
{ACAD_REACTORS
330
15FA
102
}
330
15FA
100
AcDbXrecord
280
     1
102
SHADEPLOT
 70
     0
  0
LAYOUT
  5
16A
102
{ACAD_XDICTIONARY
360
824
102
}
102
{ACAD_REACTORS
330
167
102
}
330
167
100
AcDbPlotSettings
  1

  2
none_device
  4
Letter_(8.50_x_11.00_Inches)
  6

 40
6.349999904632568
 41
6.349999904632568
 42
6.350006103515625
 43
6.350006103515625
 44
215.8999938964844
 45
279.3999938964844
 46
0.0
 47
7.25904629660107
 48
0.0
 49
0.0
140
0.0
141
0.0
142
1.0
143
1.0
 70
   688
 72
     0
 73
     1
 74
     5
  7
@Layout.ctb
 75
     0
147
1.0
148
-74.57150970956639
149
-30.33168042120906
100
AcDbLayout
  1
Layout1
 70
     1
 71
     1
 10
-0.2500002402958907
 20
-0.2499999962453767
 11
10.74999951940821
 21
8.249999763458731
 12
0.0
 22
0.0
 32
0.0
 14
1.000000000000000E+20
 24
1.000000000000000E+20
 34
1.000000000000000E+20
 15
-1.000000000000000E+20
 25
-1.000000000000000E+20
 35
-1.000000000000000E+20
146
0.0
 13
0.0
 23
0.0
 33
0.0
 16
1.0
 26
0.0
 36
0.0
 17
0.0
 27
1.0
 37
0.0
 76
     0
330
17
331
22
1001
ACAD_PSEXT
1000
None
1000
None
1000
Not applicable
1000
The layout will not be plotted unless a new plotter configuration name is selected.
1070
     0
  0
LAYOUT
  5
169
102
{ACAD_XDICTIONARY
360
15FC
102
}
102
{ACAD_REACTORS
330
167
102
}
330
167
100
AcDbPlotSettings
  1

  2
none_device
  4
Letter_(8.50_x_11.00_Inches)
  6

 40
6.349999904632568
 41
6.349999904632568
 42
6.350006103515625
 43
6.350006103515625
 44
215.8999938964844
 45
279.3999938964844
 46
38.1308720290886
 47
0.0
 48
0.0
 49
0.0
140
0.0
141
0.0
142
1.0
143
24.24127445441685
 70
 11956
 72
     0
 73
     1
 74
     0
  7
@Layout.ctb
 75
     0
147
0.0412519565289521
148
8019.824937415057
149
-189.2331007602539
100
AcDbLayout
  1
Model
 70
     1
 71
     0
 10
0.0
 20
0.0
 11
12.0
 21
9.0
 12
0.0
 22
0.0
 32
0.0
 14
0.0
 24
0.0
 34
0.0
 15
0.0
 25
0.0
 35
0.0
146
0.0
 13
0.0
 23
0.0
 33
0.0
 16
1.0
 26
0.0
 36
0.0
 17
0.0
 27
1.0
 37
0.0
 76
     0
330
1A
331
A35
1001
ACAD_PSEXT
1000
None
1000
None
1000
Not applicable
1000
The layout will not be plotted unless a new plotter configuration name is selected.
1070
     0
  0
MATERIAL
  5
A3F
102
{ACAD_XDICTIONARY
360
A40
102
}
102
{ACAD_REACTORS
330
3C9
102
}
330
3C9
100
AcDbMaterial
  1
ByBlock
 72
     0
 43
0.0008202099737533
 43
0.0
 43
0.0
 43
0.0
 43
0.0
 43
0.0008202099737533
 43
0.0
 43
0.0
 43
0.0
 43
0.0
 43
1.0
 43
0.0
 43
0.0
 43
0.0
 43
0.0
 43
1.0
 77
     0
 47
0.0008202099737533
 47
0.0
 47
0.0
 47
0.0
 47
0.0
 47
0.0008202099737533
 47
0.0
 47
0.0
 47
0.0
 47
0.0
 47
1.0
 47
0.0
 47
0.0
 47
0.0
 47
0.0
 47
1.0
171
     0
 49
0.0008202099737533
 49
0.0
 49
0.0
 49
0.0
 49
0.0
 49
0.0008202099737533
 49
0.0
 49
0.0
 49
0.0
 49
0.0
 49
1.0
 49
0.0
 49
0.0
 49
0.0
 49
0.0
 49
1.0
175
     0
142
0.0008202099737533
142
0.0
142
0.0
142
0.0
142
0.0
142
0.0008202099737533
142
0.0
142
0.0
142
0.0
142
0.0
142
1.0
142
0.0
142
0.0
142
0.0
142
0.0
142
1.0
179
     0
144
0.0008202099737533
144
0.0
144
0.0
144
0.0
144
0.0
144
0.0008202099737533
144
0.0
144
0.0
144
0.0
144
0.0
144
1.0
144
0.0
144
0.0
144
0.0
144
0.0
144
1.0
147
0.0008202099737533
147
0.0
147
0.0
147
0.0
147
0.0
147
0.0008202099737533
147
0.0
147
0.0
147
0.0
147
0.0
147
1.0
147
0.0
147
0.0
147
0.0
147
0.0
147
1.0
  0
MATERIAL
  5
A37
102
{ACAD_XDICTIONARY
360
A38
102
}
102
{ACAD_REACTORS
330
3C9
102
}
330
3C9
100
AcDbMaterial
  1
ByLayer
 72
     0
 43
0.0008202099737533
 43
0.0
 43
0.0
 43
0.0
 43
0.0
 43
0.0008202099737533
 43
0.0
 43
0.0
 43
0.0
 43
0.0
 43
1.0
 43
0.0
 43
0.0
 43
0.0
 43
0.0
 43
1.0
 77
     0
 47
0.0008202099737533
 47
0.0
 47
0.0
 47
0.0
 47
0.0
 47
0.0008202099737533
 47
0.0
 47
0.0
 47
0.0
 47
0.0
 47
1.0
 47
0.0
 47
0.0
 47
0.0
 47
0.0
 47
1.0
171
     0
 49
0.0008202099737533
 49
0.0
 49
0.0
 49
0.0
 49
0.0
 49
0.0008202099737533
 49
0.0
 49
0.0
 49
0.0
 49
0.0
 49
1.0
 49
0.0
 49
0.0
 49
0.0
 49
0.0
 49
1.0
175
     0
142
0.0008202099737533
142
0.0
142
0.0
142
0.0
142
0.0
142
0.0008202099737533
142
0.0
142
0.0
142
0.0
142
0.0
142
1.0
142
0.0
142
0.0
142
0.0
142
0.0
142
1.0
179
     0
144
0.0008202099737533
144
0.0
144
0.0
144
0.0
144
0.0
144
0.0008202099737533
144
0.0
144
0.0
144
0.0
144
0.0
144
1.0
144
0.0
144
0.0
144
0.0
144
0.0
144
1.0
147
0.0008202099737533
147
0.0
147
0.0
147
0.0
147
0.0
147
0.0008202099737533
147
0.0
147
0.0
147
0.0
147
0.0
147
1.0
147
0.0
147
0.0
147
0.0
147
0.0
147
1.0
  0
MATERIAL
  5
A47
102
{ACAD_XDICTIONARY
360
A48
102
}
102
{ACAD_REACTORS
330
3C9
102
}
330
3C9
100
AcDbMaterial
  1
Global
 72
     0
 43
0.0008202099737533
 43
0.0
 43
0.0
 43
0.0
 43
0.0
 43
0.0008202099737533
 43
0.0
 43
0.0
 43
0.0
 43
0.0
 43
1.0
 43
0.0
 43
0.0
 43
0.0
 43
0.0
 43
1.0
 77
     0
 47
0.0008202099737533
 47
0.0
 47
0.0
 47
0.0
 47
0.0
 47
0.0008202099737533
 47
0.0
 47
0.0
 47
0.0
 47
0.0
 47
1.0
 47
0.0
 47
0.0
 47
0.0
 47
0.0
 47
1.0
171
     0
 49
0.0008202099737533
 49
0.0
 49
0.0
 49
0.0
 49
0.0
 49
0.0008202099737533
 49
0.0
 49
0.0
 49
0.0
 49
0.0
 49
1.0
 49
0.0
 49
0.0
 49
0.0
 49
0.0
 49
1.0
175
     0
142
0.0008202099737533
142
0.0
142
0.0
142
0.0
142
0.0
142
0.0008202099737533
142
0.0
142
0.0
142
0.0
142
0.0
142
1.0
142
0.0
142
0.0
142
0.0
142
0.0
142
1.0
179
     0
144
0.0008202099737533
144
0.0
144
0.0
144
0.0
144
0.0
144
0.0008202099737533
144
0.0
144
0.0
144
0.0
144
0.0
144
1.0
144
0.0
144
0.0
144
0.0
144
0.0
144
1.0
147
0.0008202099737533
147
0.0
147
0.0
147
0.0
147
0.0
147
0.0008202099737533
147
0.0
147
0.0
147
0.0
147
0.0
147
1.0
147
0.0
147
0.0
147
0.0
147
0.0
147
1.0
  0
MLEADERSTYLE
  5
A73
102
{ACAD_REACTORS
330
A72
102
}
330
A72
100
AcDbMLeaderStyle
170
     2
171
     1
172
     0
 90
        2
 40
0.0
 41
0.0
173
     1
 91
-1056964608
340
14
 92
       -2
290
     1
 42
2.0
291
     1
 43
0.36
  3
Standard
 44
4.0
300

342
10
174
     1
178
     6
175
     1
176
     0
 93
-1056964608
 45
4.0
292
     0
297
     0
 46
4.0
 94
-1056964608
 47
1.0
 49
1.0
140
1.0
293
     1
141
0.0
294
     1
177
     0
142
1.0
295
     0
296
     0
143
0.125
1001
ACAD_MLEADERVER
1070
     2
  0
MLINESTYLE
  5
13
102
{ACAD_REACTORS
330
E
102
}
330
E
100
AcDbMlineStyle
  2
STANDARD
 70
     0
  3

 62
     0
 51
90.0
 52
90.0
 71
     2
 49
0.5
 62
   256
  6
BYLAYER
 49
-0.5
 62
   256
  6
BYLAYER
  0
ACDBPLACEHOLDER
  5
166
102
{ACAD_REACTORS
330
165
102
}
330
165
  0
SCALE
  5
A61
102
{ACAD_REACTORS
330
A60
102
}
330
A60
100
AcDbScale
 70
     0
300
1:1
140
1.0
141
1.0
290
     1
  0
SCALE
  5
A62
102
{ACAD_REACTORS
330
A60
102
}
330
A60
100
AcDbScale
 70
     0
300
1:2
140
1.0
141
2.0
290
     0
  0
SCALE
  5
A63
102
{ACAD_REACTORS
330
A60
102
}
330
A60
100
AcDbScale
 70
     0
300
1:4
140
1.0
141
4.0
290
     0
  0
SCALE
  5
A64
102
{ACAD_REACTORS
330
A60
102
}
330
A60
100
AcDbScale
 70
     0
300
1:5
140
1.0
141
5.0
290
     0
  0
SCALE
  5
A65
102
{ACAD_REACTORS
330
A60
102
}
330
A60
100
AcDbScale
 70
     0
300
1:8
140
1.0
141
8.0
290
     0
  0
SCALE
  5
A66
102
{ACAD_REACTORS
330
A60
102
}
330
A60
100
AcDbScale
 70
     0
300
1:10
140
1.0
141
10.0
290
     0
  0
SCALE
  5
A67
102
{ACAD_REACTORS
330
A60
102
}
330
A60
100
AcDbScale
 70
     0
300
1:16
140
1.0
141
16.0
290
     0
  0
SCALE
  5
A68
102
{ACAD_REACTORS
330
A60
102
}
330
A60
100
AcDbScale
 70
     0
300
1:20
140
1.0
141
20.0
290
     0
  0
SCALE
  5
A69
102
{ACAD_REACTORS
330
A60
102
}
330
A60
100
AcDbScale
 70
     0
300
1:30
140
1.0
141
30.0
290
     0
  0
SCALE
  5
A6A
102
{ACAD_REACTORS
330
A60
102
}
330
A60
100
AcDbScale
 70
     0
300
1:40
140
1.0
141
40.0
290
     0
  0
SCALE
  5
A6B
102
{ACAD_REACTORS
330
A60
102
}
330
A60
100
AcDbScale
 70
     0
300
1:50
140
1.0
141
50.0
290
     0
  0
SCALE
  5
A6C
102
{ACAD_REACTORS
330
A60
102
}
330
A60
100
AcDbScale
 70
     0
300
1:100
140
1.0
141
100.0
290
     0
  0
SCALE
  5
A6D
102
{ACAD_REACTORS
330
A60
102
}
330
A60
100
AcDbScale
 70
     0
300
2:1
140
2.0
141
1.0
290
     0
  0
SCALE
  5
A6E
102
{ACAD_REACTORS
330
A60
102
}
330
A60
100
AcDbScale
 70
     0
300
4:1
140
4.0
141
1.0
290
     0
  0
SCALE
  5
A6F
102
{ACAD_REACTORS
330
A60
102
}
330
A60
100
AcDbScale
 70
     0
300
8:1
140
8.0
141
1.0
290
     0
  0
SCALE
  5
A70
102
{ACAD_REACTORS
330
A60
102
}
330
A60
100
AcDbScale
 70
     0
300
10:1
140
10.0
141
1.0
290
     0
  0
SCALE
  5
A71
102
{ACAD_REACTORS
330
A60
102
}
330
A60
100
AcDbScale
 70
     0
300
100:1
140
100.0
141
1.0
290
     0
  0
TABLESTYLE
  5
651
102
{ACAD_XDICTIONARY
360
AED
102
}
102
{ACAD_REACTORS
330
650
102
}
330
650
100
AcDbTableStyle
  3
Standard
 70
     0
 71
     0
 40
1.5
 41
1.5
280
     0
281
     0
  7
STANDARD
140
4.5
170
     2
 62
     0
 63
     7
283
     0
274
    -2
284
     1
 64
     0
275
    -2
285
     1
 65
     0
276
    -2
286
     1
 66
     0
277
    -2
287
     1
 67
     0
278
    -2
288
     1
 68
     0
279
    -2
289
     1
 69
     0
  7
STANDARD
140
6.0
170
     5
 62
     0
 63
     7
283
     0
274
    -2
284
     1
 64
     0
275
    -2
285
     1
 65
     0
276
    -2
286
     1
 66
     0
277
    -2
287
     1
 67
     0
278
    -2
288
     1
 68
     0
279
    -2
289
     1
 69
     0
  7
STANDARD
140
4.5
170
     5
 62
     0
 63
     7
283
     0
274
    -2
284
     1
 64
     0
275
    -2
285
     1
 65
     0
276
    -2
286
     1
 66
     0
277
    -2
287
     1
 67
     0
278
    -2
288
     1
 68
     0
279
    -2
289
     1
 69
     0
  0
VISUALSTYLE
  5
A55
102
{ACAD_REACTORS
330
A4F
102
}
330
A4F
100
AcDbVisualStyle
  2
2dWireframe
 70
     4
 71
     0
 72
     2
 73
     0
 90
        0
 40
-0.6
 41
-30.0
 62
     5
 63
     7
 74
     1
 91
        4
 64
     7
 65
   257
 75
     1
175
     1
 42
1.0
 92
        0
 66
   257
 43
1.0
 76
     1
 77
     6
 78
     2
 67
     7
 79
     5
170
     0
171
     0
290
     0
174
     0
 93
        1
 44
0.0
173
     0
291
     0
 45
0.0
1001
ACAD
1000
AcDbSavedByObjectVersion
1070
     0
  0
VISUALSTYLE
  5
A57
102
{ACAD_REACTORS
330
A4F
102
}
330
A4F
100
AcDbVisualStyle
  2
3D Hidden
 70
     6
 71
     1
 72
     2
 73
     2
 90
        0
 40
-0.6
 41
-30.0
 62
     5
 63
     7
 74
     2
 91
        2
 64
     7
 65
   257
 75
     2
175
     1
 42
40.0
 92
        0
 66
   257
 43
1.0
 76
     1
 77
     6
 78
     2
 67
     7
 79
     3
170
     0
171
     0
290
     0
174
     0
 93
        1
 44
0.0
173
     0
291
     0
 45
0.0
1001
ACAD
1000
AcDbSavedByObjectVersion
1070
     0
  0
VISUALSTYLE
  5
A56
102
{ACAD_REACTORS
330
A4F
102
}
330
A4F
100
AcDbVisualStyle
  2
3dWireframe
 70
     5
 71
     0
 72
     2
 73
     0
 90
        0
 40
-0.6
 41
-30.0
 62
     5
 63
     7
 74
     1
 91
        4
 64
     7
 65
   257
 75
     1
175
     1
 42
1.0
 92
        0
 66
   257
 43
1.0
 76
     1
 77
     6
 78
     2
 67
     7
 79
     5
170
     0
171
     0
290
     0
174
     0
 93
        1
 44
0.0
173
     0
291
     0
 45
0.0
1001
ACAD
1000
AcDbSavedByObjectVersion
1070
     0
  0
VISUALSTYLE
  5
A54
102
{ACAD_REACTORS
330
A4F
102
}
330
A4F
100
AcDbVisualStyle
  2
Basic
 70
     7
 71
     1
 72
     0
 73
     1
 90
        0
 40
-0.6
 41
-30.0
 62
     5
 63
     7
 74
     0
 91
        4
 64
     7
 65
   257
 75
     1
175
     1
 42
1.0
 92
        8
 66
     7
 43
1.0
 76
     1
 77
     6
 78
     2
 67
     7
 79
     5
170
     0
171
     0
290
     0
174
     0
 93
        1
 44
0.0
173
     0
291
     1
 45
0.0
1001
ACAD
1000
AcDbSavedByObjectVersion
1070
     0
  0
VISUALSTYLE
  5
A5B
102
{ACAD_REACTORS
330
A4F
102
}
330
A4F
100
AcDbVisualStyle
  2
Brighten
 70
    12
 71
     2
 72
     2
 73
     0
 90
        0
 40
-0.6
 41
-30.0
 62
     5
 63
     7
 74
     1
 91
        4
 64
     7
 65
   257
 75
     1
175
     1
 42
1.0
 92
        8
 66
     7
 43
1.0
 76
     1
 77
     6
 78
     2
 67
     7
 79
     5
170
     0
171
     0
290
     0
174
     0
 93
        1
 44
50.0
173
     0
291
     1
 45
0.0
1001
ACAD
1000
AcDbSavedByObjectVersion
1070
     0
  0
VISUALSTYLE
  5
A5F
102
{ACAD_REACTORS
330
A4F
102
}
330
A4F
100
AcDbVisualStyle
  2
ColorChange
 70
    16
 71
     2
 72
     2
 73
     3
 90
        0
 40
-0.6
 41
-30.0
 62
     5
 63
     8
 74
     1
 91
        4
 64
     7
 65
   257
 75
     1
175
     1
 42
1.0
 92
        8
 66
     8
 43
1.0
 76
     1
 77
     6
 78
     2
 67
     7
 79
     5
170
     0
171
     0
290
     0
174
     0
 93
        1
 44
0.0
173
     0
291
     1
 45
0.0
1001
ACAD
1000
AcDbSavedByObjectVersion
1070
     0
  0
VISUALSTYLE
  5
A58
102
{ACAD_REACTORS
330
A4F
102
}
330
A4F
100
AcDbVisualStyle
  2
Conceptual
 70
     9
 71
     3
 72
     2
 73
     0
 90
        0
 40
-0.6
 41
-30.0
 62
     5
 63
     7
 74
     2
 91
        2
 64
     7
 65
   257
 75
     1
175
     1
 42
40.0
 92
        8
 66
     7
 43
1.0
 76
     1
 77
     6
 78
     2
 67
     7
 79
     3
170
     0
171
     0
290
     0
174
     0
 93
        1
 44
0.0
173
     0
291
     0
 45
0.0
1001
ACAD
1000
AcDbSavedByObjectVersion
1070
     0
  0
VISUALSTYLE
  5
A5A
102
{ACAD_REACTORS
330
A4F
102
}
330
A4F
100
AcDbVisualStyle
  2
Dim
 70
    11
 71
     2
 72
     2
 73
     0
 90
        0
 40
-0.6
 41
-30.0
 62
     5
 63
     7
 74
     1
 91
        4
 64
     7
 65
   257
 75
     1
175
     1
 42
1.0
 92
        8
 66
     7
 43
1.0
 76
     1
 77
     6
 78
     2
 67
     7
 79
     5
170
     0
171
     0
290
     0
174
     0
 93
        1
 44
-50.0
173
     0
291
     1
 45
0.0
1001
ACAD
1000
AcDbSavedByObjectVersion
1070
     0
  0
VISUALSTYLE
  5
A5E
102
{ACAD_REACTORS
330
A4F
102
}
330
A4F
100
AcDbVisualStyle
  2
Facepattern
 70
    15
 71
     2
 72
     2
 73
     0
 90
        0
 40
-0.6
 41
-30.0
 62
     5
 63
     7
 74
     1
 91
        4
 64
     7
 65
   257
 75
     1
175
     1
 42
1.0
 92
        8
 66
     7
 43
1.0
 76
     1
 77
     6
 78
     2
 67
     7
 79
     5
170
     0
171
     0
290
     0
174
     0
 93
        1
 44
0.0
173
     0
291
     1
 45
0.0
1001
ACAD
1000
AcDbSavedByObjectVersion
1070
     0
  0
VISUALSTYLE
  5
A50
102
{ACAD_REACTORS
330
A4F
102
}
330
A4F
100
AcDbVisualStyle
  2
Flat
 70
     0
 71
     2
 72
     1
 73
     1
 90
        2
 40
-0.6
 41
30.0
 62
     5
 63
     7
 74
     0
 91
        4
 64
     7
 65
   257
 75
     1
175
     1
 42
1.0
 92
        8
 66
     7
 43
1.0
 76
     1
 77
     6
 78
     2
 67
     7
 79
     5
170
     0
171
     0
290
     0
174
     0
 93
       13
 44
0.0
173
     0
291
     1
 45
0.0
1001
ACAD
1000
AcDbSavedByObjectVersion
1070
     0
  0
VISUALSTYLE
  5
A51
102
{ACAD_REACTORS
330
A4F
102
}
330
A4F
100
AcDbVisualStyle
  2
FlatWithEdges
 70
     1
 71
     2
 72
     1
 73
     1
 90
        2
 40
-0.6
 41
30.0
 62
     5
 63
     7
 74
     1
 91
        4
 64
     7
 65
   257
 75
     1
175
     1
 42
1.0
 92
        0
 66
   257
 43
1.0
 76
     1
 77
     6
 78
     2
 67
     7
 79
     5
170
     0
171
     0
290
     0
174
     0
 93
       13
 44
0.0
173
     0
291
     1
 45
0.0
1001
ACAD
1000
AcDbSavedByObjectVersion
1070
     0
  0
VISUALSTYLE
  5
A52
102
{ACAD_REACTORS
330
A4F
102
}
330
A4F
100
AcDbVisualStyle
  2
Gouraud
 70
     2
 71
     2
 72
     2
 73
     1
 90
        2
 40
-0.6
 41
30.0
 62
     5
 63
     7
 74
     0
 91
        4
 64
     7
 65
   257
 75
     1
175
     1
 42
1.0
 92
        0
 66
     7
 43
1.0
 76
     1
 77
     6
 78
     2
 67
     7
 79
     5
170
     0
171
     0
290
     0
174
     0
 93
       13
 44
0.0
173
     0
291
     1
 45
0.0
1001
ACAD
1000
AcDbSavedByObjectVersion
1070
     0
  0
VISUALSTYLE
  5
A53
102
{ACAD_REACTORS
330
A4F
102
}
330
A4F
100
AcDbVisualStyle
  2
GouraudWithEdges
 70
     3
 71
     2
 72
     2
 73
     1
 90
        2
 40
-0.6
 41
30.0
 62
     5
 63
     7
 74
     1
 91
        4
 64
     7
 65
   257
 75
     1
175
     1
 42
1.0
 92
        0
 66
   257
 43
1.0
 76
     1
 77
     6
 78
     2
 67
     7
 79
     5
170
     0
171
     0
290
     0
174
     0
 93
       13
 44
0.0
173
     0
291
     1
 45
0.0
1001
ACAD
1000
AcDbSavedByObjectVersion
1070
     0
  0
VISUALSTYLE
  5
A5D
102
{ACAD_REACTORS
330
A4F
102
}
330
A4F
100
AcDbVisualStyle
  2
Linepattern
 70
    14
 71
     2
 72
     2
 73
     0
 90
        0
 40
-0.6
 41
-30.0
 62
     5
 63
     7
 74
     1
 91
        4
 64
     7
 65
   257
 75
     7
175
     7
 42
1.0
 92
        8
 66
     7
 43
1.0
 76
     1
 77
     6
 78
     2
 67
     7
 79
     5
170
     0
171
     0
290
     0
174
     0
 93
        1
 44
0.0
173
     0
291
     1
 45
0.0
1001
ACAD
1000
AcDbSavedByObjectVersion
1070
     0
  0
VISUALSTYLE
  5
A59
102
{ACAD_REACTORS
330
A4F
102
}
330
A4F
100
AcDbVisualStyle
  2
Realistic
 70
     8
 71
     2
 72
     2
 73
     0
 90
        0
 40
-0.6
 41
-30.0
 62
     5
 63
     7
 74
     1
 91
        0
 64
     7
 65
   257
 75
     1
175
     1
 42
1.0
 92
        8
 66
     8
 43
1.0
 76
     1
 77
     6
 78
     2
 67
     7
 79
     5
170
     0
171
     0
290
     0
174
     0
 93
       13
 44
0.0
173
     0
291
     0
 45
0.0
1001
ACAD
1000
AcDbSavedByObjectVersion
1070
     0
  0
VISUALSTYLE
  5
A5C
102
{ACAD_REACTORS
330
A4F
102
}
330
A4F
100
AcDbVisualStyle
  2
Thicken
 70
    13
 71
     2
 72
     2
 73
     0
 90
        0
 40
-0.6
 41
-30.0
 62
     5
 63
     7
 74
     1
 91
        4
 64
     7
 65
   257
 75
     1
175
     1
 42
1.0
 92
       12
 66
     7
 43
1.0
 76
     1
 77
     6
 78
     2
 67
     7
 79
     5
170
     0
171
     0
290
     0
174
     0
 93
        1
 44
0.0
173
     0
291
     1
 45
0.0
1001
ACAD
1000
AcDbSavedByObjectVersion
1070
     0
  0
DICTIONARYVAR
  5
AF4
102
{ACAD_REACTORS
330
5D
102
}
330
5D
100
DictionaryVariables
280
     0
  1
1:1
  0
DICTIONARYVAR
  5
AF2
102
{ACAD_REACTORS
330
5D
102
}
330
5D
100
DictionaryVariables
280
     0
  1
STANDARD
  0
DICTIONARYVAR
  5
66F
102
{ACAD_REACTORS
330
5D
102
}
330
5D
100
DictionaryVariables
280
     0
  1
STANDARD
  0
DICTIONARYVAR
  5
5E
102
{ACAD_REACTORS
330
5D
102
}
330
5D
100
DictionaryVariables
280
     0
  1
0
  0
DICTIONARYVAR
  5
3C7
102
{ACAD_REACTORS
330
5D
102
}
330
5D
100
DictionaryVariables
280
     0
  1
2
  0
DICTIONARYVAR
  5
128
102
{ACAD_REACTORS
330
5D
102
}
330
5D
100
DictionaryVariables
280
     0
  1
1
  0
DICTIONARYVAR
  5
AF6
102
{ACAD_REACTORS
330
5D
102
}
330
5D
100
DictionaryVariables
280
     0
  1
1
  0
DICTIONARYVAR
  5
AF7
102
{ACAD_REACTORS
330
5D
102
}
330
5D
100
DictionaryVariables
280
     0
  1
15
  0
DICTIONARYVAR
  5
AF5
102
{ACAD_REACTORS
330
5D
102
}
330
5D
100
DictionaryVariables
280
     0
  1
0
  0
DICTIONARYVAR
  5
AF3
102
{ACAD_REACTORS
330
5D
102
}
330
5D
100
DictionaryVariables
280
     0
  1
0
  0
DICTIONARYVAR
  5
15F7
102
{ACAD_REACTORS
330
5D
102
}
330
5D
100
DictionaryVariables
280
     0
  1
127
  0
DICTIONARY
  5
143
102
{ACAD_REACTORS
330
142
102
}
330
142
100
AcDbDictionary
281
     1
  0
XRECORD
  5
47D
102
{ACAD_REACTORS
330
142
102
}
330
142
100
AcDbXrecord
280
     1
 90
-1056964608
  0
DICTIONARY
  5
172
102
{ACAD_REACTORS
330
171
102
}
330
171
100
AcDbDictionary
281
     1
  3
DWGSETTINGS
350
173
  3
FEM
350
4F0
  3
Shaft
350
37C
  3
TRANSSETTINGS
350
17D
  0
ACAMGFILTERDAT
  5
C6F
102
{ACAD_REACTORS
330
1F2
102
}
330
1F2
100
AcAmgFilterDat
 70
    15
  1
DIMENSION,AMDT_*_DIM
  2
*
  3
*
  4
*
  5
*
290
     1
  0
ACAMGFILTERDAT
  5
C70
102
{ACAD_REACTORS
330
1F2
102
}
330
1F2
100
AcAmgFilterDat
 70
    15
  1
*
  2
AM_FEA-AM_*
  3
*
  4
*
  5
*
290
     1
  0
ACAMGFILTERDAT
  5
C71
102
{ACAD_REACTORS
330
1F2
102
}
330
1F2
100
AcAmgFilterDat
 70
    15
  1
HATCH
  2
*
  3
*
  4
*
  5
*
290
     1
  0
ACAMGFILTERDAT
  5
C72
102
{ACAD_REACTORS
330
1F2
102
}
330
1F2
100
AcAmgFilterDat
 70
    15
  1
ACMFCFRAME,ACMDATUMTARGET,ACMDATUMID,ACMWELDSYM,ACMSURFSYM,ACMFEATID,ACMPARTREF,ACMBALLOON
  2
*
  3
*
  4
*
  5
*
290
     1
  0
XRECORD
  5
84B
102
{ACAD_REACTORS
330
849
102
}
330
849
100
AcDbXrecord
280
     1
  0
LAYER_INDEX
  5
12C
102
{ACAD_REACTORS
330
12B
102
}
330
12B
100
AcDbIndex
 40
2456269.648334213
100
AcDbLayerIndex
  8
0
360
12D
 90
        0
  8
AM_0
360
59B
 90
        1
  8
AM_5
360
8F9
 90
        0
  8
Defpoints
360
AD1
 90
        0
  0
DICTIONARY
  5
824
330
16A
100
AcDbDictionary
280
     1
281
     1
  3
ACAD_XREC_ROUNDTRIP
360
15FE
  3
ADSK_XREC_LAYOUTTHUMBNAIL
360
825
  0
DICTIONARY
  5
15FC
330
169
100
AcDbDictionary
280
     1
281
     1
  3
ACAD_XREC_ROUNDTRIP
360
15FD
  0
DICTIONARY
  5
A40
330
A3F
100
AcDbDictionary
280
     1
281
     1
  3
ACAD_XREC_ROUNDTRIP
360
1601
  3
BUMPTILE
360
A42
  3
DIFFUSETILE
360
A41
  3
OPACITYTILE
360
A45
  3
REFLECTIONTILE
360
A44
  3
REFRACTIONTILE
360
A46
  3
SPECULARTILE
360
A43
  0
DICTIONARY
  5
A38
330
A37
100
AcDbDictionary
280
     1
281
     1
  3
ACAD_XREC_ROUNDTRIP
360
1600
  3
BUMPTILE
360
A3A
  3
DIFFUSETILE
360
A39
  3
OPACITYTILE
360
A3D
  3
REFLECTIONTILE
360
A3C
  3
REFRACTIONTILE
360
A3E
  3
SPECULARTILE
360
A3B
  0
DICTIONARY
  5
A48
330
A47
100
AcDbDictionary
280
     1
281
     1
  3
ACAD_XREC_ROUNDTRIP
360
1602
  3
BUMPTILE
360
A4A
  3
DIFFUSETILE
360
A49
  3
OPACITYTILE
360
A4D
  3
REFLECTIONTILE
360
A4C
  3
REFRACTIONTILE
360
A4E
  3
SPECULARTILE
360
A4B
  0
DICTIONARY
  5
AED
330
651
100
AcDbDictionary
280
     1
281
     1
  3
ACAD_ROUNDTRIP_2008_TABLESTYLE_CELLSTYLEMAP
360
15F8
  3
ACAD_XREC_ROUNDTRIP
360
15FF
  0
IDBUFFER
  5
12D
330
0
100
AcDbIdBuffer
  0
IDBUFFER
  5
59B
330
0
100
AcDbIdBuffer
330
15F2
  0
IDBUFFER
  5
8F9
330
0
100
AcDbIdBuffer
  0
IDBUFFER
  5
AD1
330
0
100
AcDbIdBuffer
  0
XRECORD
  5
15FE
102
{ACAD_REACTORS
330
824
102
}
330
824
100
AcDbXrecord
280
     1
102
SHADEPLOT
 70
     0
102
SHADEPLOTRESLEVEL
 70
     2
102
SHADEPLOTCUSTOMDPI
 70
   300
  0
XRECORD
  5
825
102
{ACAD_REACTORS
330
824
102
}
330
824
100
AcDbXrecord
280
     1
310
28000000B40000008B0000000100080000000000BC610000000000000000000000010000000000000000000000000000FFFFFF000000000000000000000000000000000000000000000000000000000000000000330000006600000099000000CC000000FF00000000330000333300006633000099330000CC330000FF3300
310
0000660000336600006666000099660000CC660000FF66000000990000339900006699000099990000CC990000FF99000000CC000033CC000066CC000099CC0000CCCC0000FFCC000000FF000033FF000066FF000099FF0000CCFF0000FFFF000000003300330033006600330099003300CC003300FF003300003333003333
310
33006633330099333300CC333300FF33330000663300336633006666330099663300CC663300FF66330000993300339933006699330099993300CC993300FF99330000CC330033CC330066CC330099CC3300CCCC3300FFCC330000FF330033FF330066FF330099FF3300CCFF3300FFFF330000006600330066006600660099
310
006600CC006600FF00660000336600333366006633660099336600CC336600FF33660000666600336666006666660099666600CC666600FF66660000996600339966006699660099996600CC996600FF99660000CC660033CC660066CC660099CC6600CCCC6600FFCC660000FF660033FF660066FF660099FF6600CCFF6600
310
FFFF660000009900330099006600990099009900CC009900FF00990000339900333399006633990099339900CC339900FF33990000669900336699006666990099669900CC669900FF66990000999900339999006699990099999900CC999900FF99990000CC990033CC990066CC990099CC9900CCCC9900FFCC990000FF99
310
0033FF990066FF990099FF9900CCFF9900FFFF99000000CC003300CC006600CC009900CC00CC00CC00FF00CC000033CC003333CC006633CC009933CC00CC33CC00FF33CC000066CC003366CC006666CC009966CC00CC66CC00FF66CC000099CC003399CC006699CC009999CC00CC99CC00FF99CC0000CCCC0033CCCC0066CC
310
CC0099CCCC00CCCCCC00FFCCCC0000FFCC0033FFCC0066FFCC0099FFCC00CCFFCC00FFFFCC000000FF003300FF006600FF009900FF00CC00FF00FF00FF000033FF003333FF006633FF009933FF00CC33FF00FF33FF000066FF003366FF006666FF009966FF00CC66FF00FF66FF000099FF003399FF006699FF009999FF00CC
310
99FF00FF99FF0000CCFF0033CCFF0066CCFF0099CCFF00CCCCFF00FFCCFF0000FFFF0033FFFF0066FFFF0099FFFF00CCFFFF00FFFFFF00000000000D0D0D001A1A1A00282828003535350043434300505050005D5D5D006B6B6B00787878008686860093939300A1A1A100AEAEAE00BBBBBB00C9C9C900D6D6D600E4E4E400
310
F1F1F100FFFFFF0000000000000000000000000000000000000000000000000000000000000000000000000000000000E2E2E2E2E2E2E2E2E2E2E2E2E2E2E2E2E2E2E2E2E2E2E2E2E2E2E2E2E2E2E2E2E2E2E2E2E2E2E2E2E2E2E2E2E2E2E2E2E2E2E2E2E2E2E2E2E2E2E2E2E2E2E2E2E2E2E2E2E2E2E2E2E2E2E2E2E2E2E2
310
E2E2E2E2E2E2E2E2E2E2E2E2E2E2E2E2E2E2E2E2E2E2E2E2E2E2E2E2E2E2E2E2E2E2E2E2E2E2E2E2E2E2E2E2E2E2E2E2E2E2E2E2E2E2E2E2E2E2E2E2E2E2E2E2E2E2E2E2E2E2E2E2E2E2E2E2E2E2E2E2E2E2E2E2E2E2E2E2E2E2E2E2E2E2E2E2E2E2E2E2E2E2E2E2E2E2E2E2E2E2E2E2E2E2E2E2E2E2E2E2E2E2E2E2E2E2E2
310
E2E2E2E2E2E2E2E2E2E2E2E2E2E2E2E2E2E2E2E2E2E2E2E2E2E2E2E2E2E2E2E2E2E2E2E2E2E2E2E2E2E2E2E2E2E2E2E2E2E2E2E2E2E2E2E2E2E2E2E2E2E2E2E2E2E2E2E2E2E2E2E2E2E2E2E2E2E2E2E2E2E2E2E2E2E2E2E2E2E2E2E2E2E2E2E2E2E2E2E2E2E2E2E2E2E2E2E2E2E2E2E2E2E2E2E2E2E2E2E2E2E2E2E2E2E2E2
310
E2E2E2E2E2E2E2E2E2E2E2E2E2E2E2E2E2E2E2E2E2E2E2E2E2E2E2E2E2E2E2E2E2E2E2E2E2E2E2E2E2E2E2E2E2E2E2E2E2E2E2E2E2E2E2E2E2E2E2E2E2E2E2E2E2E2E2E2E2E2E2E2E2E2E2E2E2E2E2E2E2E2E2E2E2E2E2E2E2E2E2E2E2E2E2E2E2E2E2E2E2E2E2E2E2E2E2E2E2E2E2E2E2E2E2E2E2E2E2E2E2E2E2E2E2E2E2
310
E2E2E2E2E2E2E2E2E2E2E2E2E2E2E2E2E2E2E2E2E2E2E2E2E2E2E2E2E2E2E2E2E2E2E2E2E2E2E2E2E2E2E2E2E2E2E2E2E2E2E2E2E2E2E2E2E2E2E2E2E2E2E2E2E2E2E2E2E2E2E2E2E2E2E2E2E2E2E2E2E2E2E2E2E2E2E2E2E2E2E2E2E2E2E2E2E2E2E2E2E2E2E2E2E2E2E2E2E2E2E2E2E2E2E2E2E2E2E2E2E2E2E2E2E2E2E2
310
E2E2E2E2E2E2E2E2E2E2E2E2E2E2E2E2E2E2E2E2E2E2E2E2E2E2E2E2E2E2E2E2E2E2E2E2E2E2E2E2E2E2E2E2E2E2E2E2E2E2E2E2E2E2E2E2E2E2E2E2E2E2E2E2E2E2E2E2E2E2E2E2E2E2E2E2E2E2E2E2E2E2E2E2E2E2E2E2E2E2E2E2E2E2E2E2E2E2E2E2E2E2E2E2E2E2E2E2E2E2E2E2E2E2E2E2E2E2E2E2E2E2E2E2E2E2E2
310
E2E2E2E2E2E2E2E2E2E2E2E2E2E2E2E2E2E2E2E2E2E2E2E2E2E2E2E2E2E2E2E2E2E2E2E2E2E2E2E2E2E2E2E2E2E2E2E2E2E2E2E2E2E2E2E2E2E2E2E2E2E2E2E2E2E2E2E2E2E2E2E2E2E2E2E2E2E2E2E2E2E2E2E2E2E2E2E2E2E2E2E2E2E2E2E2E2E2E2E2E2E2E2E2E2E2E2E2E2E2E2E2E2E2E2E2E2E2E2E2E2E2E2E2E2E2E2
310
E2E2E2E2E2E2E2E2E2E2E2E2E2E2E2E2E2E2E2E2E2E2E2E2E2E2E2E2E2E2E2E2E2E2E2E2E2E2E2E2E2E2E2E2E2E2E2E2E2E2E2E2E2E2E2E2E2E2E2E2E2E2E2E2E2E2E2E2E2E2E2E2E2E2E2E2E2E2E2E2E2E2E2E2E2E2E2E2E2E2E2E2E2E2E2E2E2E2E2E2E2E2E2E2E2E2E2E2E2E2E2E2E2E2E2E2E2E2E2E2E2E2E2E2E2E2E2
310
E2E2E2E2E2E2E2E2E2E2E2E2E2E2E2E2E2E2E2E2E2E2E2E2E2E2E2E2E2E2E2E2E2E2E2E2E2E2E2E2E2E2E2E2E2E2E2E2E2E2E2E2E2E2E2E2E2E2E2E2E2E2E2E2E2E2E2E2E2E2E2E2E2E2E2E2E2E2E2E2E2E2E2E2E2E2E2E2E2E2E2E2E2E2E2E2E2E2E2E2E2E2E2E2E2E2E2E2E2E2E2E2E2E2E2E2E2E2E2E2E2E2E2E2E2E2E2
310
E2E2E2E2E2E2E2E2E2E2E2E2E2E2E2E2E2E2E2E2E2E2E2E2E2E2E2E2E2E2E2E2E2E2E2E2E2E2E2E2E2E2E2E2E2E2E2E2E2E2E2E2E2E2E2E2E2E2E2E2E2E2E2E2E2E2E2E2E2E2E2E2E2E2E2E2E2E2E2E2E2E2E2E2E2E2E2E2E2E2E2E2E2E2E2E2E2E2E2E2E2E2E2E2E2E2E2E2E2E2E2E2E2E2E2E2E2E2E2E2E2E2E2E2E2E2E2
310
E2E2E2E2E2E2E2E2E2E2E2E2E2E2E2E2E2E2E2E2E2E2E2E2E2E2E2E2E2E2E2E2E2E2E2E2E2E2E2E2E2E2E2E2E2E2E2E2E2E2E2E2E2E2E2E2E2E2E2E2E2E2E2E2E2E2E2E2E2E2E2E2E2E2E2E2E2E2E2E2E2E2E2E2E2E2E2E2E2E2E2E2E2E2E2E2E2E2E2E2E2E2E2E2E2E2E2E2E2E2E2E2E2E2E2E2E2E2E2E2E2E2E2E2E2E2E2
310
E2E2E2E2E2E2E2E2E2E2E2E2E2E2E2E2E2E2E2E2E2E2E2E2E2E2E2E2E2E2E2E2E2E2E2E2E2E2E2E2E2E2E2E2E2E2E2E2E2E2E2E2E2E2E2E2E2E2E2E2E2E2E2E2E2E2E2E2E2E2E2E2E2E2E2E2E2E2E2E2E2E2E2E2E2E2E2E2E2E2E2E2E2E2E2E2E2E2E2E2E2E2E2E2E2E2E2E2E2E2E2E2E2E2E2E2E2E2E2E2E2E2E2E2E2E2E2
310
E2E2E2E2E2E2E2E2E2E2E2E2E2E2E2E2E2E2E2E2E2E2E2E2E2E2E2E2E2E2E2E2E2E2E2E2E2E2E2E2E2E2E2E2E2E2E2E2E2E2E2E2E2E2E2E2E2E2E2E2E2E2E2E2E2E2E2E2E2E2E2E2E2E2E2E2E2E2E2E2E2E2E2E2E2E2E2E2E2E2E2E2E2E2E2E2E2E2E2E2E2E2E2E2E2E2E2E2E2E2E2E2E2E2E2E2E2E2E2E2E2E2E2E2E2E2E2
310
E2E2E2E2E2E2E2E2E2E2E2E2E2E2E2E2E2E2E2E2E2E2E2E2E2E2E2E2E2E2E2E2E2E2E2E2E2E2E2E2E2E2E2E2E2E2E2E2E2E2E2E2E2E2E2E2E2E2E2E2E2E2E2E2E2E2E2E2E2E2E2E2E2E2E2E2E2E2E2E2E2E2E2E2E2E2E2E2E2E2E2E2E2E2E2E2E2E2E2E2E2E2E2E2E2E2E2E2E2E2E2E2E2E2E2E2E2E2E2E2E2E2E2E2E2E2E2
310
E2E2E2E2E2E2E2E2E2E2E2E2E2E2E2E2E2E2E2E2E2E2E2E2E2E2E2E2E2E2E2E2E2E2E2E2E2E2E2E2E2E2E2E2E2E2E2E2E2E2E2E2E2E2E2E2E2E2E2E2E2E2E2E2E2E2E2E2E2E2E2E2E2E2E2E2E2E2E2E2E2E2E2E2E2E2E2E2E2E2E2E2E2E2E2E2E2E2E2E2E2E2E2E2E2E2E2E2E2E2E2E2E2E2E2E2E2E2E2E2E2E2E2E2E2E2E2
310
E2E2E2E2E2E2E2E2E2E2E2E2E2E2E2E2E2E2E2E2E2E2E2E2E2E2E2E2E2E2E2E2E2E2E2E2E2E2E2E2E2E2E2E2E2E2E2E2E2E2E2E2E2E2E2E2E2E2E2E2E2E2E2E2E2E2E2E2E2E2E2E2E2E2E2E2E2E2E2E2E2E2E2E2E2E2E2E2E2E2E2E2E2E2E2E2E2E2E2E2E2E2E2E2E2E2E2E2E2E2E2E2E2E2E2E2E2E2E2E2E2E2E2E2E2E2E2
310
E2E2E2E2E2E2E2E2E2E2E2E2E2E2E2E2E2E2E2E2E2E2E2E2E2E2E2E2E2E2E2E2E2E2E2E2E2E2E2E2E2E2E2E2E2E2E2E2E2E2E2E2E2E2E2E2E2E2E2E2E2E2E2E2E2E2E2E2E2E2E2E2E2E2E2E2E2E2E2E2E2E2E2E2E2E2E2E2E2E2E2E2E2E2E2E2E2E2E2E2E2E2E2E2E2E2E2E2E2E2E2E2E2E2E2E2E2E2E2E2E2E2E2E2E2E2E2
310
E2E2E2E2E2E2E2E2E2E2E2E2E2E2E2E2E2E2E2E2E2E2E2E2E2E2E2E2E2E2E2E2E2E2E2E2E2E2E2E2E2E2E2E2E2E2E2E2E2E2E2E2E2E2E2E2E2E2E2E2E2E2E2E2E2E2E2E2E2E2E2E2E2E2E2E2E2E2E2E2E2E2E2E2E2E2E2E2E2E2E2E2E2E2E2E2E2E2E2E2E2E2E2E2E2E2E2E2E2E2E2E2E2E2E2E2E2E2E2E2E2E2E2E2E2E2E2
310
E2E2E2E2E2E2E2E2E2E2E2E2E2E2E2E2E2E2E2E2E2E2E2E2E2E2E2E2E2E2E2E2E2E2E2E2E2E2E2E2E2E2E2E2E2E2E2E2E2E2E2E2E2E2E2E2E2E2E2E2E2E2E2E2E2E2E2E2E2E2E2E2E2E2E2E2E2E2E2E2E2E2E2E2E2E2E2E2E2E2E2E2E2E2E2E2E2E2E2E2E2E2E2E2E2E2E2E2E2E2E2E2E2E2E2E2E2E2E2E2E2E2E2E2E2E2E2
310
E2E2E2E2E2E2E2E2E2E2E2E2E2E2E2E2E2E2E2E2E2E2E2E2E2E2E2E2E2E2E2E2E2E2E2E2E2E2E2E2E2E2E2E2E2E2E2E2E2E2E2E2E2E2E2E2E2E2E2E2E2E2E2E2E2E2E2E2E2E2E2E2E2E2E2E2E2E2E2E2E2E2E2E2E2E2E2E2E2E2E2E2E2E2E2E2E2E2E2E2E2E2E2E2E2E2E2E2E2E2E2E2E2E2E2E2E2E2E2E2E2E2E2E2E2E2E2
310
E2E2E2E2E2E2E2E2E2E2E2E2E2E2E2E2E2E2E2E2E2E2E2E2E2E2E2E2E2E2E2E2E2E2E2E2E2E2E2E2E2E2E2E2E2E2E2E2E2E2E2E2E2E2E2E2E2E2E2E2E2E2E2E2E2E2E2E2E2E2E2E2E2E2E2E2E2E2E2E2E2E2E2E2E2E2E2E2E2E2E2E2E2E2E2E2E2E2E2E2E2E2E2E2E2E2E2E2E2E2E2E2E2E2E2E2E2E2E2E2E2E2E2E2E2E2E2
310
E2E2E2E2E2E2E2E2E2E2E2E2E2E2E2E2E2E2E2E2E2E2E2E2E2E2E2E2E2E2E2E2E2E2E2E2E2E2E2E2E2E2E2E2E2E2E2E2E2E2E2E2E2E2E2E2E2E2E2E2E2E2E2E2E2E2E2E2E2E2E2E2E2E2E2E2E2E2E2E2E2E2E2E2E2E2E2E2E2E2E2E2E2E2E2E2E2E2E2E2E2E2E2E2E2E2E2E2E2E2E2E2E2E2E2E2E2E2E2E2E2E2E2E2E2E2E2
310
E2E2E2E2E2E2E2E2E2E2E2E2E2E2E2E2E2E2E2E2E2E2E2E2E2E2E2E2E2E2E2E2E2E2E2E2E2E2E2E2E2E2E2E2E2E2E2E2E2E2E2E2E2E2E2E2E2E2E2E2E2E2E2E2E2E2E2E2E2E2E2E2E2E2E2E2E2E2E2E2E2E2E2E2E2E2E2E2E2E2E2E2E2E2E2E2E2E2E2E2E2E2E2E2E2E2E2E2E2E2E2E2E2E2E2E2E2E2E2E2E2E2E2E2E2E2E2
310
E2E2E2E2E2E2E2E2E2E2E2E2E2E2E2E2E2E2E2E2E2E2E2E2E2E2E2E2E2E2E2E2E2E2E2E2E2E2E2E2E2E2E2E2E2E2E2E2E2E2E2E2E2E2E2E2E2E2E2E2E2E2E2E2E2E2E2E2E2E2E2E2E2E2E2E2E2E2E2E2E2E2E2E2E2E2E2E2E2E2E2E2E2E2E2E2E2E2E2E2E2E2E2E2E2E2E2E2E2E2E2E2E2E2E2E2E2E2E2E2E2E2E2E2E2E2E2
310
E2E2E2E2E2E2E2E2E2E2E2E2E2E2E2E2E2E2E2E2E2E2E2E2E2E2E2E2E2E2E2E2E2E2E2E2E2E2E2E2E2E2E2E2E2E2E2E2E2E2E2E2E2E2E2E2E2E2E2E2E2E2E2E2E2E2E2E2E2E2E2E2E2E2E2E2E2E2E2E2E2E2E2E2E2E2E2E2E2E2E2E2E2E2E2E2E2E2E2E2E2E2E2E2E2E2E2E2E2E2E2E2E2E2E2E2E2E2E2E2E2E2E2E2E2E2E2
310
E2E2E2E2E2E2E2E2E2E2E2E2E2E2E2E2E2E2E2E2E2E2E2E2E2E2E2E2E2E2E2E2E2E2E2E2E2E2E2E2E2E2E2E2E2E2E2E2E2E2E2E2E2E2E2E2E2E2E2E2E2E2E2E2E2E2E2E2E2E2E2E2E2E2E2E2E2E2E2E2E2E2E2E2E2E2E2E2E2E2E2E2E2E2E2E2E2E2E2E2E2E2E2E2E2E2E2E2E2E2E2E2E2E2E2E2E2E2E2E2E2E2E2E2E2E2E2
310
E2E2E2E2E2E2E2E2E2E2E2E2E2E2E2E2E2E2E2E2E2E2E2E2E2E2E2E2E2E2E2E2E2E2E2E2E2E2E2E2E2E2E2E2E2E2E2E2E2E2E2E2E2E2E2E2E2E2E2E2E2E2E2E2E2E2E2E2E2E2E2E2E2E2E2E2E2E2E2E2E2E2E2E2E2E2E2E2E2E2E2E2E2E2E2E2E2E2E2E2E2E2E2E2E2E2E2E2E2E2E2E2E2E2E2E2E2E2E2E2E2E2E2E2E2E2E2
310
E2E2E2E2E2E2E2E2E2E2E2E2E2E2E2E2E2E2E2E2E2E2E2E2E2E2E2E2E2E2E2E2E2E2E2E2E2E2E2E2E2E2E2E2E2E2E2E2E2E2E2E2E2E2E2E2E2E2E2E2E2E2E2E2E2E2E2E2E2E2E2E2E2E2E2E2E2E2E2E2E2E2E2E2E2E2E2E2E2E2E2E2E2E2E2E2E2E2E2E2E2E2E2E2E2E2E2E2E2E2E2E2E2E2E2E2E2E2E2E2E2E2E2E2E2E2E2
310
E2E2E2E2E2E2E2E2E2E2E2E2E2E2E2E2E2E2E2E2E2E2E2E2E2E2E2E2E2E2E2E2E2E2E2E2E2E2E2E2E2E2E2E2E2E2E2E2E2E2E2E2E2E2E2E2E2E2E2E2E2E2E2E2E2E2E2E2E2E2E2E2E2E2E2E2E2E2E2E2E2E2E2E2E2E2E2E2E2E2E2E2E2E2E2E2E2E2E2E2E2E2E2E2E2E2E2E2E2E2E2E2E2E2E2E2E2E2E2E2E2E2E2E2E2E2E2
310
E2E2E2E2E2E2E2E2E2E2E2E2E2E2E2E2E2E2E2E2E2E2E2E2E2E2E2E2E2E2E2E2E2E2E2E2E2E2E2E2E2E2E2E2E2E2E2E2E2E2E2E2E2E2E2E2E2E2E2E2E2E2E2E2E2E2E2E2E2E2E2E2E2E2E2E2E2E2E2E2E2E2E2E2E2E2E2E2E2E2E2E2E2E2E2E2E2E2E2E2E2E2E2E2E2E2E2E2E2E2E2E2E2E2E2E2E2E2E2E2E2E2E2E2E2E2E2
310
E2E2E2E2E2E2E2E2E2E2E2E2E2E2E2E2E2E2E2E2E2E2E2E2E2E2E2E2E2E2E2E2E2E2E2E2E2E2E2E2E2E2E2E2E2E2E2E2E2E2E2E2E2E2E2E2E2E2E2E2E2E2E2E2E2E2E2E2E2E2E2E2E2E2E2E2E2E2E2E2E2E2E2E2E2E2E2E2E2E2E2E2E2E2E2E2E2E2E2E2E2E2E2E2E2E2E2E2E2E2E2E2E2E2E2E2E2E2E2E2E2E2E2E2E2E2E2
310
E2E2E2E2E2E2E2E2E2E2E2E2E2E2E2E2E2E2E2E2E2E2E2E2E2E2E2E2E2E2E2E2E2E2E2E2E2E2E2E2E2E2E2E2E2E2E2E2E2E2E2E2E2E2E2E2E2E2E2E2E2E2E2E2E2E2E2E2E2E2E2E2E2E2E2E2E2E2E2E2E2E2E2E2E2E2E2E2E2E2E2E2E2E2E2E2E2E2E2E2E2E2E2E2E2E2E2E2E2E2E2E2E2E2E2E2E2E2E2E2E2E2E2E2E2E2E2
310
E2E2E2E2E2E2E2E2E2E2E2E2E2E2E2E2E2E2E2E2E2E2E2E2E2E2E2E2E2E2E2E2E2E2E2E2E2E2E2E2E2E2E2E2E2E2E2E2E2E2E2E2E2E2E2E2E2E2E2E2E2E2E2E2E2E2E2E2E2E2E2E2E2E2E2E2E2E2E2E2E2E2E2E2E2E2E2E2E2E2E2E2E2E2E2E2E2E2E2E2E2E2E2E2E2E2E2E2E2E2E2E2E2E2E2E2E2E2E2E2E2E2E2E2E2E2E2
310
E2E2E2E2E2E2E2E2E2E2E2E2E2E2E2E2E2E2E2E2E2E2E2E2E2E2E2E2E2E2E2E2E2E2E2E2E2E2E2E2E2E2E2E2E2E2E2E2E2E2E2E2E2E2E2E2E2E2E2E2E2E2E2E2E2E2E2E2E2E2E2E2E2E2E2E2E2E2E2E2E2E2E2E2E2E2E2E2E2E2E2E2E2E2E2E2E2E2E2E2E2E2E2E2E2E2E2E2E2E2E2E2E2E2E2E2E2E2E2E2E2E2E2E2E2E2E2
310
E2E2E2E2E2E2E2E2E2E2E2E2E2E2E2E2E2E2E2E2E2E2E2E2E2E2E2E2E2E2E2E2E2E2E2E2E2E2E2E2E2E2E2E2E2E2E2E2E2E2E2E2E2E2E2E2E2E2E2E2E2E2E2E2E2E2E2E2E2E2E2E2E2E2E2E2E2E2E2E2E2E2E2E2E2E2E2E2E2E2E2E2E2E2E2E2E2E2E2E2E2E2E2E2E2E2E2E2E2E2E2E2E2E2E2E2E2E2E2E2E2E2E2E2E2E2E2
310
E2E2E2E2E2E2E2E2E2E2E2E2E2E2E2E2E2E2E2E2E2E2E2E2E2E2E2E2E2E2E2E2E2E2E2E2E2E2E2E2E2E2E2E2E2E2E2E2E2E2E2E2E2E2E2E2E2E2E2E2E2E2E2E2E2E2E2E2E2E2E2E2E2E2E2E2E2E2E2E2E2E2E2E2E2E2E2E2E2E2E2E2E2E2E2E2E2E2E2E2E2E2E2E2E2E2E2E2E2E2E2E2E2E2E2E2E2E2E2E2E2E2E2E2E2E2E2
310
E2E2E2E2E2E2E2E2E2E2E2E2E2E2E2E2E2E2E2E2E2E2E2E2E2E2E2E2E2E2E2E2E2E2E2E2E2E2E2E2E2E2E2E2E2E2E2E2E2E2E2E2E2E2E2E2E2E2E2E2E2E2E2E2E2E2E2E2E2E2E2E2E2E2E2E2E2E2E2E2E2E2E2E2E2E2E2E2E2E2E2E2E2E2E2E2E2E2E2E2E2E2E2E2E2E2E2E2E2E2E2E2E2E2E2E2E2E2E2E2E2E2E2E2E2E2E2
310
E2E2E2E2E2E2E2E2E2E2E2E2E2E2E2E2E2E2E2E2E2E2E2E2E2E2E2E2E2E2E2E2E2E2E2E2E2E2E2E2E2E2E2E2E2E2E2E2E2E2E2E2E2E2E2E2E2E2E2E2E2E2E2E2E2E2E2E2E2E2E2E2E2E2E2E2E2E2E2E2E2E2E2E2E2E2E2E2E2E2E2E2E2E2E2E2E2E2E2E2E2E2E2E2E2E2E2E2E2E2E2E2E2E2E2E2E2E2E2E2E2E2E2E2E2E2E2
310
E2E2E2E2E2E2E2E2E2E2E2E2E2E2E2E2E2E2E2E2E2E2E2E2E2E2E2E2E2E2E2E2E2E2E2E2E2E2E2E2E2E2E2E2E2E2E2E2E2E2E2E2E2E2E2E2E2E2E2E2E2E2E2E2E2E2E2E2E2E2E2E2E2E2E2E2E2E2E2E2E2E2E2E2E2E2E2E2E2E2E2E2E2E2E2E2E2E2E2E2E2E2E2E2E2E2E2E2E2E2E2E2E2E2E2E2E2E2E2E2E2E2E2E2E2E2E2
310
E2E2E2E2E2E2E2E2E2E2E2E2E2E2E2E2E2E2E2E2E2E2E2E2E2E2E2E2E2E2E2E2E2E2E2E2E2E2E2E2E2E2E2E2E2E2E2E2E2E2E2E2E2E2E2E2E2E2E2E2E2E2E2E2E2E2E2E2E2E2E2E2E2E2E2E2E2E2E2E2E2E2E2E2E2E2E2E2E2E2E2E2E2E2E2E2E2E2E2E2E2E2E2E2E2E2E2E2E2E2E2E2E2E2E2E2E2E2E2E2E2E2E2E2E2E2E2
310
E2E2E2E2E2E2E2E2E2E2E2E2E2E2E2E2E2E2E2E2E2E2E2E2E2E2E2E2E2E2E2E2E2E2E2E2E2E2E2E2E2E2E2E2E2E2E2E2E2E2E2E2E2E2E2E2E2E2E2E2E2E2E2E2E2E2E2E2E2E2E2E2E2E2E2E2E2E2E2E2E2E2E2E2E2E2E2E2E2E2E2E2E2E2E2E2E2E2E2E2E2E2E2E2E2E2E2E2E2E2E2E2E2E2E2E2E2E2E2E2E2E2E2E2E2E2E2
310
E2E2E2E2E2E2E2E2E2E2E2E2E2E2E2E2E2E2E2E2E2E2E2E2E2E2E2E2E2E2E2E2E2E2E2E2E2E2E2E2E2E2E2E2E2E2E2E2E2E2E2E2E2E2E2E2E2E2E2E2E2E2E2E2E2E2E2E2E2E2E2E2E2E2E2E2E2E2E2E2E2E2E2E2E2E2E2E2E2E2E2E2E2E2E2E2E2E2E2E2E2E2E2E2E2E2E2E2E2E2E2E2E2E2E2E2E2E2E2E2E2E2E2E2E2E2E2
310
E2E2E2E2E2E2E2E2E2E2E2E2E2E2E2E2E2E2E2E2E2E2E2E2E2E2E2E2E2E2E2E2E2E2E2E2E2E2E2E2E2E2E2E2E2E2E2E2E2E2E2E2E2E2E2E2E2E2E2E2E2E2E2E2E2E2E2E2E2E2E2E2E2E2E2E2E2E2E2E2E2E2E2E2E2E2E2E2E2E2E2E2E2E2E2E2E2E2E2E2E2E2E2E2E2E2E2E2E2E2E2E2E2E2E2E2E2E2E2E2E2E2E2E2E2E2E2
310
E2E2E2E2E2E2E2E2E2E2E2E2E2E2E2E2E2E2E2E2E2E2E2E2E2E2E2E2E2E2E2E2E2E2E2E2E2E2E2E2E2E2E2E2E2E2E2E2E2E2E2E2E2E2E2E2E2E2E2E2E2E2E2E2E2E2E2E2E2E2E2E2E2E2E2E2E2E2E2E2E2E2E2E2E2E2E2E2E2E2E2E2E2E2E2E2E2E2E2E2E2E2E2E2E2E2E2E2E2E2E2E2E2E2E2E2E2E2E2E2E2E2E2E2E2E2E2
310
E2E2E2E2E2E2E2E2E2E2E2E2E2E2E2E2E2E2E2E2E2E2E2E2E2E2E2E2E2E2E2E2E2E2E2E2E2E2E2E2E2E2E2E2E2E2E2E2E2E2E2E2E2E2E2E2E2E2E2E2E2E2E2E2E2E2E2E2E2E2E2E2E2E2E2E2E2E2E2E2E2E2E2E2E2E2E2E2E2E2E2E2E2E2E2E2E2E2E2E2E2E2E2E2E2E2E2E2E2E2E2E2E2E2E2E2E2E2E2E2E2E2E2E2E2E2E2
310
E2E2E2E2E2E2E2E2E2E2E2E2E2E2E2E2E2E2E2E2E2E2E2E2E2E2E2E2E2E2E2E2E2E2E2E2E2E2E2E2E2E2E2E2E2E2E2E2E2E2E2E2E2E2E2E2E2E2E2E2E2E2E2E2E2E2E2E2E2E2E2E2E2E2E2E2E2E2E2E2E2E2E2E2E2E2E2E2E2E2E2E2E2E2E2E2E2E2E2E2E2E2E2E2E2E2E2E2E2E2E2E2E2E2E2E2E2E2E2E2E2E2E2E2E2E2E2
310
E2E2E2E2E2E2E2E2E2E2E2E2E2E2E2E2E2E2E2E2E2E2E2E2E2E2E2E2E2E2E2E2E2E2E2E2E2E2E2E2E2E2E2E2E2E2E2E2E2E2E2E2E2E2E2E2E2E2E2E2E2E2E2E2E2E2E2E2E2E2E2E2E2E2E2E2E2E2E2E2E2E2E2E2E2E2E2E2E2E2E2E2E2E2E2E2E2E2E2E2E2E2E2E2E2E2E2E2E2E2E2E2E2E2E2E2E2E2E2E2E2E2E2E2E2E2E2
310
E2E2E2E2E2E2E2E2E2E2E2E2E2E2E2E2E2E2E2E2E2E2E2E2E2E2E2E2E2E2E2E2E2E2E2E2E2E2E2E2E2E2E2E2E2E2E2E2E2E2E2E2E2E2E2E2E2E2E2E2E2E2E2E2E2E2E2E2E2E2E2E2E2E2E2E2E2E2E2E2E2E2E2E2E2E2E2E2E2E2E2E2E2E2E2E2E2E2E2E2E2E2E2E2E2E2E2E2E2E2E2E2E2E2E2E2E2E2E2E2E2E2E2E2E2E2E2
310
E2E2E2E2E2E2E2E2E2E2E2E2E2E2E2E2E2E2E2E2E2E2E2E2E2E2E2E2E2E2E2E2E2E2E2E2E2E2E2E2E2E2E2E2E2E2E2E2E2E2E2E2E2E2E2E2E2E2E2E2E2E2E2E2E2E2E2E2E2E2E2E2E2E2E2E2E2E2E2E2E2E2E2E2E2E2E2E2E2E2E2E2E2E2E2E2E2E2E2E2E2E2E2E2E2E2E2E2E2E2E2E2E2E2E2E2E2E2E2E2E2E2E2E2E2E2E2
310
E2E2E2E2E2E2E2E2E2E2E2E2E2E2E2E2E2E2E2E2E2E2E2E2E2E2E2E2E2E2E2E2E2E2E2E2E2E2E2E2E2E2E2E2E2E2E2E2E2E2E2E2E2E2E2E2E2E2E2E2E2E2E2E2E2E2E2E2E2E2E2E2E2E2E2E2E2E2E2E2E2E2E2E2E2E2E2E2E2E2E2E2E2E2E2E2E2E2E2E2E2E2E2E2E2E2E2E2E2E2E2E2E2E2E2E2E2E2E2E2E2E2E2E2E2E2E2
310
E2E2E2E2E2E2E2E2E2E2E2E2E2E2E2E2E2E2E2E2E2E2E2E2E2E2E2E2E2E2E2E2E2E2E2E2E2E2E2E2E2E2E2E2E2E2E2E2E2E2E2E2E2E2E2E2E2E2E2E2E2E2E2E2E2E2E2E2E2E2E2E2E2E2E2E2E2E2E2E2E2E2E2E2E2E2E2E2E2E2E2E2E2E2E2E2E2E2E2E2E2E2E2E2E2E2E2E2E2E2E2E2E2E2E2E2E2E2E2E2E2E2E2E2E2E2E2
310
E2E2E2E2E2E2E2E2E2E2E2E2E2E2E2E2E2E2E2E2E2E2E2E2E2E2E2E2E2E2E2E2E2E2E2E2E2E2E2E2E2E2E2E2E2E2E2E2E2E2E2E2E2E2E2E2E2E2E2E2E2E2E2E2E2E2E2E2E2E2E2E2E2E2E2E2E2E2E2E2E2E2E2E2E2E2E2E2E2E2E2E2E2E2E2E2E2E2E2E2E2E2E2E2E2E2E2E2E2E2E2E2E2E2E2E2E2E2E2E2E2E2E2E2E2E2E2
310
E2E2E2E2E2E2E2E2E2E2E2E2E2E2E2E2E2E2E2E2E2E2E2E2E2E2E2E2E2E2E2E2E2E2E2E2E2E2E2E2E2E2E2E2E2E2E2E2E2E2E2E2E2E2E2E2E2E2E2E2E2E2E2E2E2E2E2E2E2E2E2E2E2E2E2E2E2E2E2E2E2E2E2E2E2E2E2E2E2E2E2E2E2E2E2E2E2E2E2E2E2E2E2E2E2E2E2E2E2E2E2E2E2E2E2E2E2E2E2E2E2E2E2E2E2E2E2
310
E2E2E2E2E2E2E2E2E2E2E2E2E2E2E2E2E2E2E2E2E2E2E2E2E2E2E2E2E2E2E2E2E2E2E2E2E2E2E2E2E2E2E2E2E2E2E2E2E2E2E2E2E2E2E2E2E2E2E2E2E2E2E2E2E2E2E2E2E2E2E2E2E2E2E2E2E2E2E2E2E2E2E2E2E2E2E2E2E2E2E2E2E2E2E2E2E2E2E2E2E2E2E2E2E2E2E2E2E2E2E2E2E2E2E2E2E2E2E2E2E2E2E2E2E2E2E2
310
E2E2E2E2E2E2E2E2E2E2E2E2E2E2E2E2E2E2E2E2E2E2E2E2E2E2E2E2E2E2E2E2E2E2E2E2E2E2E2E2E2E2E2E2E2E2E2E2E2E2E2E2E2E2E2E2E2E2E2E2E2E2E2E2E2E2E2E2E2E2E2E2E2E2E2E2E2E2E2E2E2E2E2E2E2E2E2E2E2E2E2E2E2E2E2E2E2E2E2E2E2E2E2E2E2E2E2E2E2E2E2E2E2E2E2E2E2E2E2E2E2E2E2E2E2E2E2
310
E2E2E2E2E2E2E2E2E2E2E2E2E2E2E2E2E2E2E2E2E2E2E2E2E2E2E2E2E2E2E2E2E2E2E2E2E2E2E2E2E2E2E2E2E2E2E2E2E2E2E2E2E2E2E2E2E2E2E2E2E2E2E2E2E2E2E2E2E2E2E2E2E2E2E2E2E2E2E2E2E2E2E2E2E2E2E2E2E2E2E2E2E2E2E2E2E2E2E2E2E2E2E2E2E2E2E2E2E2E2E2E2E2E2E2E2E2E2E2E2E2E2E2E2E2E2E2
310
E2E2E2E2E2E2E2E2E2E2E2E2E2E2E2E2E2E2E2E2E2E2E2E2E2E2E2E2E2E2E2E2E2E2E2E2E2E2E2E2E2E2E2E2E2E2E2E2E2E2E2E2E2E2E2E2E2E2E2E2E2E2E2E2E2E2E2E2E2E2E2E2E2E2E2E2E2E2E2E2E2E2E2E2E2E2E2E2E2E2E2E2E2E2E2E2E2E2E2E2E2E2E2E2E2E2E2E2E2E2E2E2E2E2E2E2E2E2E2E2E2E2E2E2E2E2E2
310
E2E2E2E2E2E2E2E2E2E2E2E2E2E2E2E2E2E2E2E2E2E2E2E2E2E2E2E2E2E2E2E2E2E2E2E2E2E2E2E2E2E2E2E2E2E2E2E2E2E2E2E2E2E2E2E2E2E2E2E2E2E2E2E2E2E2E2E2E2E2E2E2E2E2E2E2E2E2E2E2E2E2E2E2E2E2E2E2E2E2E2E2E2E2E2E2E2E2E2E2E2E2E2E2E2E2E2E2E2E2E2E2E2E2E2E2E2E2E2E2E2E2E2E2E2E2E2
310
E2E2E2E2E2E2E2E2E2E2E2E2E2E2E2E2E2E2E2E2E2E2E2E2E2E2E2E2E2E2E2E2E2E2E2E2E2E2E2E2E2E2E2E2E2E2E2E2E2E2E2E2E2E2E2E2E2E2E2E2E2E2E2E2E2E2E2E2E2E2E2E2E2E2E2E2E2E2E2E2E2E2E2E2E2E2E2E2E2E2E2E2E2E2E2E2E2E2E2E2E2E2E2E2E2E2E2E2E2E2E2E2E2E2E2E2E2E2E2E2E2E2E2E2E2E2E2
310
E2E2E2E2E2E2E2E2E2E2E2E2E2E2E2E2E2E2E2E2E2E2E2E2E2E2E2E2E2E2E2E2E2E2E2E2E2E2E2E2E2E2E2E2E2E2E2E2E2E2E2E2E2E2E2E2E2E2E2E2E2E2E2E2E2E2E2E2E2E2E2E2E2E2E2E2E2E2E2E2E2E2E2E2E2E2E2E2E2E2E2E2E2E2E2E2E2E2E2E2E2E2E2E2E2E2E2E2E2E2E2E2E2E2E2E2E2E2E2E2E2E2E2E2E2E2E2
310
E2E2E2E2E2E2E2E2E2E2E2E2E2E2E2E2E2E2E2E2E2E2E2E2E2E2E2E2E2E2E2E2E2E2E2E2E2E2E2E2E2E2E2E2E2E2E2E2E2E2E2E2E2E2E2E2E2E2E2E2E2E2E2E2E2E2E2E2E2E2E2E2E2E2E2E2E2E2E2E2E2E2E2E2E2E2E2E2E2E2E2E2E2E2E2E2E2E2E2E2E2E2E2E2E2E2E2E2E2E2E2E2E2E2E2E2E2E2E2E2E2E2E2E2E2E2E2
310
E2E2E2E2E2E2E2E2E2E2E2E2E2E2E2E2E2E2E2E2E2E2E2E2E2E2E2E2E2E2E2E2E2E2E2E2E2E2E2E2E2E2E2E2E2E2E2E2E2E2E2E2E2E2E2E2E2E2E2E2E2E2E2E2E2E2E2E2E2E2E2E2E2E2E2E2E2E2E2E2E2E2E2E2E2E2E2E2E2E2E2E2E2E2E2E2E2E2E2E2E2E2E2E2E2E2E2E2E2E2E2E2E2E2E2E2E2E2E2E2E2E2E2E2E2E2E2
310
E2E2E2E2E2E2E2E2E2E2E2E2E2E2E2E2E2E2E2E2E2E2E2E2E2E2E2E2E2E2E2E2E2E2E2E2E2E2E2E2E2E2E2E2E2E2E2E2E2E2E2E2E2E2E2E2E2E2E2E2E2E2E2E2E2E2E2E2E2E2E2E2E2E2E2E2E2E2E2E2E2E2E2E2E2E2E2E2E2E2E2E2E2E2E2E2E2E2E2E2E2E2E2E2E2E2E2E2E2E2E2E2E2E2E2E2E2E2E2E2E2E2E2E2E2E2E2
310
E2E2E2E2E2E2E2E2E2E2E2E2E2E2E2E2E2E2E2E2E2E2E2E2E2E2E2E2E2E2E2E2E2E2E2E2E2E2E2E2E2E2E2E2E2E2E2E2E2E2E2E2E2E2E2E2E2E2E2E2E2E2E2E2E2E2E2E2E2E2E2E2E2E2E2E2E2E2E2E2E2E2E2E2E2E2E2E2E2E2E2E2E2E2E2E2E2E2E2E2E2E2E2E2E2E2E2E2E2E2E2E2E2E2E2E2E2E2E2E2E2E2E2E2E2E2E2
310
E2E2E2E2E2E2E2E2E2E2E2E2E2E2E2E2E2E2E2E2E2E2E2E2E2E2E2E2E2E2E2E2E2E2E2E2E2E2E2E2E2E2E2E2E2E2E2E2E2E2E2E2E2E2E2E2E2E2E2E2E2E2E2E2E2E2E2E2E2E2E2E2E2E2E2E2E2E2E2E2E2E2E2E2E2E2E2E2E2E2E2E2E2E2E2E2E2E2E2E2E2E2E2E2E2E2E2E2E2E2E2E2E2E2E2E2E2E2E2E2E2E2E2E2E2E2E2
310
E2E2E2E2E2E2E2E2E2E2E2E2E2E2E2E2E2E2E2E2E2E2E2E2E2E2E2E2E2E2E2E2E2E2E2E2E2E2E2E2E2E2E2E2E2E2E2E2E2E2E2E2E2E2E2E2E2E2E2E2E2E2E2E2E2E2E2E2E2E2E2E2E2E2E2E2E2E2E2E2E2E2E2E2E2E2E2E2E2E2E2E2E2E2E2E2E2E2E2E2E2E2E2E2E2E2E2E2E2E2E2E2E2E2E2E2E2E2E2E2E2E2E2E2E2E2E2
310
E2E2E2E2E2E2E2E2E2E2E2E2E2E2E2E2E2E2E2E2E2E2E2E2E2E2E2E2E2E2E2E2E2E2E2E2E2E2E2E2E2E2E2E2E2E2E2E2E2E2E2E2E2E2E2E2E2E2E2E2E2E2E2E2E2E2E2E2E2E2E2E2E2E2E2E2E2E2E2E2E2E2E2E2E2E2E2E2E2E2E2E2E2E2E2E2E2E2E2E2E2E2E2E2E2E2E2E2E2E2E2E2E2E2E2E2E2E2E2E2E2E2E2E2E2E2E2
310
E2E2E2E2E2E2E2E2E2E2E2E2E2E2E2E2E2E2E2E2E2E2E2E2E2E2E2E2E2E2E2E2E2E2E2E2E2E2E2E2E2E2E2E2E2E2E2E2E2E2E2E2E2E2E2E2E2E2E2E2E2E2E2E2E2E2E2E2E2E2E2E2E2E2E2E2E2E2E2E2E2E2E2E2E2E2E2E2E2E2E2E2E2E2E2E2E2E2E2E2E2E2E2E2E2E2E2E2E2E2E2E2E2E2E2E2E2E2E2E2E2E2E2E2E2E2E2
310
E2E2E2E2E2E2E2E2E2E2E2E2E2E2E2E2E2E2E2E2E2E2E2E2E2E2E2E2E2E2E2E2E2E2E2E2E2E2E2E2E2E2E2E2E2E2E2E2E2E2E2E2E2E2E2E2E2E2E2E2E2E2E2E2E2E2E2E2E2E2E2E2E2E2E2E2E2E2E2E2E2E2E2E2E2E2E2E2E2E2E2E2E2E2E2E2E2E2E2E2E2E2E2E2E2E2E2E2E2E2E2E2E2E2E2E2E2E2E2E2E2E2E2E2E2E2E2
310
E2E2E2E2E2E2E2E2E2E2E2E2E2E2E2E2E2E2E2E2E2E2E2E2E2E2E2E2E2E2E2E2E2E2E2E2E2E2E2E2E2E2E2E2E2E2E2E2E2E2E2E2E2E2E2E2E2E2E2E2E2E2E2E2E2E2E2E2E2E2E2E2E2E2E2E2E2E2E2E2E2E2E2E2E2E2E2E2E2E2E2E2E2E2E2E2E2E2E2E2E2E2E2E2E2E2E2E2E2E2E2E2E2E2E2E2E2E2E2E2E2E2E2E2E2E2E2
310
E2E2E2E2E2E2E2E2E2E2E2E2E2E2E2E2E2E2E2E2E2E2E2E2E2E2E2E2E2E2E2E2E2E2E2E2E2E2E2E2E2E2E2E2E2E2E2E2E2E2E2E2E2E2E2E2E2E2E2E2E2E2E2E2E2E2E2E2E2E2E2E2E2E2E2E2E2E2E2E2E2E2E2E2E2E2E2E2E2E2E2E2E2E2E2E2E2E2E2E2E2E2E2E2E2E2E2E2E2E2E2E2E2E2E2E2E2E2E2E2E2E2E2E2E2E2E2
310
E2E2E2E2E2E2E2E2E2E2E2E2E2E2E2E2E2E2E2E2E2E2E2E2E2E2E2E2E2E2E2E2E2E2E2E2E2E2E2E2E2E2E2E2E2E2E2E2E2E2E2E2E2E2E2E2E2E2E2E2E2E2E2E2E2E2E2E2E2E2E2E2E2E2E2E2E2E2E2E2E2E2E2E2E2E2E2E2E2E2E2E2E2E2E2E2E2E2E2E2E2E2E2E2E2E2E2E2E2E2E2E2E2E2E2E2E2E2E2E2E2E2E2E2E2E2E2
310
E2E2E2E2E2E2E2E2E2E2E2E2E2E2E2E2E2E2E2E2E2E2E2E2E2E2E2E2E2E2E2E2E2E2E2E2E2E2E2E2E2E2E2E2E2E2E2E2E2E2E2E2E2E2E2E2E2E2E2E2E2E2E2E2E2E2E2E2E2E2E2E2E2E2E2E2E2E2E2E2E2E2E2E2E2E2E2E2E2E2E2E2E2E2E2E2E2E2E2E2E2E2E2E2E2E2E2E2E2E2E2E2E2E2E2E2E2E2E2E2E2E2E2E2E2E2E2
310
E2E2E2E2E2E2E2E2E2E2E2E2E2E2E2E2E2E2E2E2E2E2E2E2E2E2E2E2E2E2E2E2E2E2E2E2E2E2E2E2E2E2E2E2E2E2E2E2E2E2E2E2E2E2E2E2E2E2E2E2E2E2E2E2E2E2E2E2E2E2E2E2E2E2E2E2E2E2E2E2E2E2E2E2E2E2E2E2E2E2E2E2E2E2E2E2E2E2E2E2E2E2E2E2E2E2E2E2E2E2E2E2E2E2E2E2E2E2E2E2E2E2E2E2E2E2E2
310
E2E2E2E2E2E2E2E2E2E2E2E2E2E2E2E2E2E2E2E2E2E2E2E2E2E2E2E2E2E2E2E2E2E2E2E2E2E2E2E2E2E2E2E2E2E2E2E2E2E2E2E2E2E2E2E2E2E2E2E2E2E2E2E2E2E2E2E2E2E2E2E2E2E2E2E2E2E2E2E2E2E2E2E2E2E2E2E2E2E2E2E2E2E2E2E2E2E2E2E2E2E2E2E2E2E2E2E2E2E2E2E2E2E2E2E2E2E2E2E2E2E2E2E2E2E2E2
310
E2E2E2E2E2E2E2E2E2E2E2E2E2E2E2E2E2E2E2E2E2E2E2E2E2E2E2E2E2E2E2E2E2E2E2E2E2E2E2E2E2E2E2E2E2E2E2E2E2E2E2E2E2E2E2E2E2E2E2E2E2E2E2E2E2E2E2E2E2E2E2E2E2E2E2E2E2E2E2E2E2E2E2E2E2E2E2E2E2E2E2E2E2E2E2E2E2E2E2E2E2E2E2E2E2E2E2E2E2E2E2E2E2E2E2E2E2E2E2E2E2E2E2E2E2E2E2
310
E2E2E2E2E2E2E2E2E2E2E2E2E2E2E2E2E2E2E2E2E2E2E2E2E2E2E2E2E2E2E2E2E2E2E2E2E2E2E2E2E2E2E2E2E2E2E2E2E2E2E2E2E2E2E2E2E2E2E2E2E2E2E2E2E2E2E2E2E2E2E2E2E2E2E2E2E2E2E2E2E2E2E2E2E2E2E2E2E2E2E2E2E2E2E2E2E2E2E2E2E2E2E2E2E2E2E2E2E2E2E2E2E2E2E2E2E2E2E2E2E2E2E2E2E2E2E2
310
E2E2E2E2E2E2E2E2E2E2E2E2E2E2E2E2E2E2E2E2E2E2E2E2E2E2E2E2E2E2E2E2E2E2E2E2E2E2E2E2E2E2E2E2E2E2E2E2E2E2E2E2E2E2E2E2E2E2E2E2E2E2E2E2E2E2E2E2E2E2E2E2E2E2E2E2E2E2E2E2E2E2E2E2E2E2E2E2E2E2E2E2E2E2E2E2E2E2E2E2E2E2E2E2E2E2E2E2E2E2E2E2E2E2E2E2E2E2E2E2E2E2E2E2E2E2E2
310
E2E2E2E2E2E2E2E2E2E2E2E2E2E2E2E2E2E2E2E2E2E2E2E2E2E2E2E2E2E2E2E2E2E2E2E2E2E2E2E2E2E2E2E2E2E2E2E2E2E2E2E2E2E2E2E2E2E2E2E2E2E2E2E2E2E2E2E2E2E2E2E2E2E2E2E2E2E2E2E2E2E2E2E2E2E2E2E2E2E2E2E2E2E2E2E2E2E2E2E2E2E2E2E2E2E2E2E2E2E2E2E2E2E2E2E2E2E2E2E2E2E2E2E2E2E2E2
310
E2E2E2E2E2E2E2E2E2E2E2E2E2E2E2E2E2E2E2E2E2E2E2E2E2E2E2E2E2E2E2E2E2E2E2E2E2E2E2E2E2E2E2E2E2E2E2E2E2E2E2E2E2E2E2E2E2E2E2E2E2E2E2E2E2E2E2E2E2E2E2E2E2E2E2E2E2E2E2E2E2E2E2E2E2E2E2E2E2E2E2E2E2E2E2E2E2E2E2E2E2E2E2E2E2E2E2E2E2E2E2E2E2E2E2E2E2E2E2E2E2E2E2E2E2E2E2
310
E2E2E2E2E2E2E2E2E2E2E2E2E2E2E2E2E2E2E2E2E2E2E2E2E2E2E2E2E2E2E2E2E2E2E2E2E2E2E2E2E2E2E2E2E2E2E2E2E2E2E2E2E2E2E2E2E2E2E2E2E2E2E2E2E2E2E2E2E2E2E2E2E2E2E2E2E2E2E2E2E2E2E2E2E2E2E2E2E2E2E2E2E2E2E2E2E2E2E2E2E2E2E2E2E2E2E2E2E2E2E2E2E2E2E2E2E2E2E2E2E2E2E2E2E2E2E2
310
E2E2E2E2E2E2E2E2E2E2E2E2E2E2E2E2E2E2E2E2E2E2E2E2E2E2E2E2E2E2E2E2E2E2E2E2E2E2E2E2E2E2E2E2E2E2E2E2E2E2E2E2E2E2E2E2E2E2E2E2E2E2E2E2E2E2E2E2E2E2E2E2E2E2E2E2E2E2E2E2E2E2E2E2E2E2E2E2E2E2E2E2E2E2E2E2E2E2E2E2E2E2E2E2E2E2E2E2E2E2E2E2E2E2E2E2E2E2E2E2E2E2E2E2E2E2E2
310
E2E2E2E2E2E2E2E2E2E2E2E2E2E2E2E2E2E2E2E2E2E2E2E2E2E2E2E2E2E2E2E2E2E2E2E2E2E2E2E2E2E2E2E2E2E2E2E2E2E2E2E2E2E2E2E2E2E2E2E2E2E2E2E2E2E2E2E2E2E2E2E2E2E2E2E2E2E2E2E2E2E2E2E2E2E2E2E2E2E2E2E2E2E2E2E2E2E2E2E2E2E2E2E2E2E2E2E2E2E2E2E2E2E2E2E2E2E2E2E2E2E2E2E2E2E2E2
310
E2E2E2E2E2E2E2E2E2E2E2E2E2E2E2E2E2E2E2E2E2E2E2E2E2E2E2E2E2E2E2E2E2E2E2E2E2E2E2E2E2E2E2E2E2E2E2E2E2E2E2E2E2E2E2E2E2E2E2E2E2E2E2E2E2E2E2E2E2E2E2E2E2E2E2E2E2E2E2E2E2E2E2E2E2E2E2E2E2E2E2E2E2E2E2E2E2E2E2E2E2E2E2E2E2E2E2E2E2E2E2E2E2E2E2E2E2E2E2E2E2E2E2E2E2E2E2
310
E2E2E2E2E2E2E2E2E2E2E2E2E2E2E2E2E2E2E2E2E2E2E2E2E2E2E2E2E2E2E2E2E2E2E2E2E2E2E2E2E2E2E2E2E2E2E2E2E2E2E2E2E2E2E2E2E2E2E2E2E2E2E2E2E2E2E2E2E2E2E2E2E2E2E2E2E2E2E2E2E2E2E2E2E2E2E2E2E2E2E2E2E2E2E2E2E2E2E2E2E2E2E2E2E2E2E2E2E2E2E2E2E2E2E2E2E2E2E2E2E2E2E2E2E2E2E2
310
E2E2E2E2E2E2E2E2E2E2E2E2E2E2E2E2E2E2E2E2E2E2E2E2E2E2E2E2E2E2E2E2E2E2E2E2E2E2E2E2E2E2E2E2E2E2E2E2E2E2E2E2E2E2E2E2E2E2E2E2E2E2E2E2E2E2E2E2E2E2E2E2E2E2E2E2E2E2E2E2E2E2E2E2E2E2E2E2E2E2E2E2E2E2E2E2E2E2E2E2E2E2E2E2E2E2E2E2E2E2E2E2E2E2E2E2E2E2E2E2E2E2E2E2E2E2E2
310
E2E2E2E2E2E2E2E2E2E2E2E2E2E2E2E2E2E2E2E2E2E2E2E2E2E2E2E2E2E2E2E2E2E2E2E2E2E2E2E2E2E2E2E2E2E2E2E2E2E2E2E2E2E2E2E2E2E2E2E2E2E2E2E2E2E2E2E2E2E2E2E2E2E2E2E2E2E2E2E2E2E2E2E2E2E2E2E2E2E2E2E2E2E2E2E2E2E2E2E2E2E2E2E2E2E2E2E2E2E2E2E2E2E2E2E2E2E2E2E2E2E2E2E2E2E2E2
310
E2E2E2E2E2E2E2E2E2E2E2E2E2E2E2E2E2E2E2E2E2E2E2E2E2E2E2E2E2E2E2E2E2E2E2E2E2E2E2E2E2E2E2E2E2E2E2E2E2E2E2E2E2E2E2E2E2E2E2E2E2E2E2E2E2E2E2E2E2E2E2E2E2E2E2E2E2E2E2E2E2E2E2E2E2E2E2E2E2E2E2E2E2E2E2E2E2E2E2E2E2E2E2E2E2E2E2E2E2E2E2E2E2E2E2E2E2E2E2E2E2E2E2E2E2E2E2
310
E2E2E2E2E2E2E2E2E2E2E2E2E2E2E2E2E2E2E2E2E2E2E2E2E2E2E2E2E2E2E2E2E2E2E2E2E2E2E2E2E2E2E2E2E2E2E2E2E2E2E2E2E2E2E2E2E2E2E2E2E2E2E2E2E2E2E2E2E2E2E2E2E2E2E2E2E2E2E2E2E2E2E2E2E2E2E2E2E2E2E2E2E2E2E2E2E2E2E2E2E2E2E2E2E2E2E2E2E2E2E2E2E2E2E2E2E2E2E2E2E2E2E2E2E2E2E2
310
E2E2E2E2E2E2E2E2E2E2E2E2E2E2E2E2E2E2E2E2E2E2E2E2E2E2E2E2E2E2E2E2E2E2E2E2E2E2E2E2E2E2E2E2E2E2E2E2E2E2E2E2E2E2E2E2E2E2E2E2E2E2E2E2E2E2E2E2E2E2E2E2E2E2E2E2E2E2E2E2E2E2E2E2E2E2E2E2E2E2E2E2E2E2E2E2E2E2E2E2E2E2E2E2E2E2E2E2E2E2E2E2E2E2E2E2E2E2E2E2E2E2E2E2E2E2E2
310
E2E2E2E2E2E2E2E2E2E2E2E2E2E2E2E2E2E2E2E2E2E2E2E2E2E2E2E2E2E2E2E2E2E2E2E2E2E2E2E2E2E2E2E2E2E2E2E2E2E2E2E2E2E2E2E2E2E2E2E2E2E2E2E2E2E2E2E2E2E2E2E2E2E2E2E2E2E2E2E2E2E2E2E2E2E2E2E2E2E2E2E2E2E2E2E2E2E2E2E2E2E2E2E2E2E2E2E2E2E2E2E2E2E2E2E2E2E2E2E2E2E2E2E2E2E2E2
310
E2E2E2E2E2E2E2E2E2E2E2E2E2E2E2E2E2E2E2E2E2E2E2E2E2E2E2E2E2E2E2E2E2E2E2E2E2E2E2E2E2E2E2E2E2E2E2E2E2E2E2E2E2E2E2E2E2E2E2E2E2E2E2E2E2E2E2E2E2E2E2E2E2E2E2E2E2E2E2E2E2E2E2E2E2E2E2E2E2E2E2E2E2E2E2E2E2E2E2E2E2E2E2E2E2E2E2E2E2E2E2E2E2E2E2E2E2E2E2E2E2E2E2E2E2E2E2
310
E2E2E2E2E2E2E2E2E2E2E2E2E2E2E2E2E2E2E2E2E2E2E2E2E2E2E2E2E2E2E2E2E2E2E2E2E2E2E2E2E2E2E2E2E2E2E2E2E2E2E2E2E2E2E2E2E2E2E2E2E2E2E2E2E2E2E2E2E2E2E2E2E2E2E2E2E2E2E2E2E2E2E2E2E2E2E2E2E2E2E2E2E2E2E2E2E2E2E2E2E2E2E2E2E2E2E2E2E2E2E2E2E2E2E2E2E2E2E2E2E2E2E2E2E2E2E2
310
E2E2E2E2E2E2E2E2E2E2E2E2E2E2E2E2E2E2E2E2E2E2E2E2E2E2E2E2E2E2E2E2E2E2E2E2E2E2E2E2E2E2E2E2E2E2E2E2E2E2E2E2E2E2E2E2E2E2E2E2E2E2E2E2E2E2E2E2E2E2E2E2E2E2E2E2E2E2E2E2E2E2E2E2E2E2E2E2E2E2E2E2E2E2E2E2E2E2E2E2E2E2E2E2E2E2E2E2E2E2E2E2E2E2E2E2E2E2E2E2E2E2E2E2E2E2E2
310
E2E2E2E2E2E2E2E2E2E2E2E2E2E2E2E2E2E2E2E2E2E2E2E2E2E2E2E2E2E2E2E2E2E2E2E2E2E2E2E2E2E2E2E2E2E2E2E2E2E2E2E2E2E2E2E2E2E2E2E2E2E2E2E2E2E2E2E2E2E2E2E2E2E2E2E2E2E2E2E2E2E2E2E2E2E2E2E2E2E2E2E2E2E2E2E2E2E2E2E2E2E2E2E2E2E2E2E2E2E2E2E2E2E2E2E2E2E2E2E2E2E2E2E2E2E2E2
310
E2E2E2E2E2E2E2E2E2E2E2E2E2E2E2E2E2E2E2E2E2E2E2E2E2E2E2E2E2E2E2E2E2E2E2E2E2E2E2E2E2E2E2E2E2E2E2E2E2E2E2E2E2E2E2E2E2E2E2E2E2E2E2E2E2E2E2E2E2E2E2E2E2E2E2E2E2E2E2E2E2E2E2E2E2E2E2E2E2E2E2E2E2E2E2E2E2E2E2E2E2E2E2E2E2E2E2E2E2E2E2E2E2E2E2E2E2E2E2E2E2E2E2E2E2E2E2
310
E2E2E2E2E2E2E2E2E2E2E2E2E2E2E2E2E2E2E2E2E2E2E2E2E2E2E2E2E2E2E2E2E2E2E2E2E2E2E2E2E2E2E2E2E2E2E2E2E2E2E2E2E2E2E2E2E2E2E2E2E2E2E2E2E2E2E2E2E2E2E2E2E2E2E2E2E2E2E2E2E2E2E2E2E2E2E2E2E2E2E2E2E2E2E2E2E2E2E2E2E2E2E2E2E2E2E2E2E2E2E2E2E2E2E2E2E2E2E2E2E2E2E2E2E2E2E2
310
E2E2E2E2E2E2E2E2E2E2E2E2E2E2E2E2E2E2E2E2E2E2E2E2E2E2E2E2E2E2E2E2E2E2E2E2E2E2E2E2E2E2E2E2E2E2E2E2E2E2E2E2E2E2E2E2E2E2E2E2E2E2E2E2E2E2E2E2E2E2E2E2E2E2E2E2E2E2E2E2E2E2E2E2E2E2E2E2E2E2E2E2E2E2E2E2E2E2E2E2E2E2E2E2E2E2E2E2E2E2E2E2E2E2E2E2E2E2E2E2E2E2E2E2E2E2E2
310
E2E2E2E2E2E2E2E2E2E2E2E2E2E2E2E2E2E2E2E2E2E2E2E2E2E2E2E2E2E2E2E2E2E2E2E2E2E2E2E2E2E2E2E2E2E2E2E2E2E2E2E2E2E2E2E2E2E2E2E2E2E2E2E2E2E2E2E2E2E2E2E2E2E2E2E2E2E2E2E2E2E2E2E2E2E2E2E2E2E2E2E2E2E2E2E2E2E2E2E2E2E2E2E2E2E2E2E2E2E2E2E2E2E2E2E2E2E2E2E2E2E2E2E2E2E2E2
310
E2E2E2E2E2E2E2E2E2E2E2E2E2E2E2E2E2E2E2E2E2E2E2E2E2E2E2E2E2E2E2E2E2E2E2E2E2E2E2E2E2E2E2E2E2E2E2E2E2E2E2E2E2E2E2E2E2E2E2E2E2E2E2E2E2E2E2E2E2E2E2E2E2E2E2E2E2E2E2E2E2E2E2E2E2E2E2E2E2E2E2E2E2E2E2E2E2E2E2E2E2E2E2E2E2E2E2E2E2E2E2E2E2E2E2E2E2E2E2E2E2E2E2E2E2E2E2
310
E2E2E2E2E2E2E2E2E2E2E2E2E2E2E2E2E2E2E2E2E2E2E2E2E2E2E2E2E2E2E2E2E2E2E2E2E2E2E2E2E2E2E2E2E2E2E2E2E2E2E2E2E2E2E2E2E2E2E2E2E2E2E2E2E2E2E2E2E2E2E2E2E2E2E2E2E2E2E2E2E2E2E2E2E2E2E2E2E2E2E2E2E2E2E2E2E2E2E2E2E2E2E2E2E2E2E2E2E2E2E2E2E2E2E2E2E2E2E2E2E2E2E2E2E2E2E2
310
E2E2E2E2E2E2E2E2E2E2E2E2E2E2E2E2E2E2E2E2E2E2E2E2E2E2E2E2E2E2E2E2E2E2E2E2E2E2E2E2E2E2E2E2E2E2E2E2E2E2E2E2E2E2E2E2E2E2E2E2E2E2E2E2E2E2E2E2E2E2E2E2E2E2E2E2E2E2E2E2E2E2E2E2E2E2E2E2E2E2E2E2E2E2E2E2E2E2E2E2E2E2E2E2E2E2E2E2E2E2E2E2E2E2E2E2E2E2E2E2E2E2E2E2E2E2E2
310
E2E2E2E2E2E2E2E2E2E2E2E2E2E2E2E2E2E2E2E2E2E2E2E2E2E2E2E2E2E2E2E2E2E2E2E2E2E2E2E2E2E2E2E2E2E2E2E2E2E2E2E2E2E2E2E2E2E2E2E2E2E2E2E2E2E2E2E2E2E2E2E2E2E2E2E2E2E2E2E2E2E2E2E2E2E2E2E2E2E2E2E2E2E2E2E2E2E2E2E2E2E2E2E2E2E2E2E2E2E2E2E2E2E2E2E2E2E2E2E2E2E2E2E2E2E2E2
310
E2E2E2E2E2E2E2E2E2E2E2E2E2E2E2E2E2E2E2E2E2E2E2E2E2E2E2E2E2E2E2E2E2E2E2E2E2E2E2E2E2E2E2E2E2E2E2E2E2E2E2E2E2E2E2E2E2E2E2E2E2E2E2E2E2E2E2E2E2E2E2E2E2E2E2E2E2E2E2E2E2E2E2E2E2E2E2E2E2E2E2E2E2E2E2E2E2E2E2E2E2E2E2E2E2E2E2E2E2E2E2E2E2E2E2E2E2E2E2E2E2E2E2E2E2E2E2
310
E2E2E2E2E2E2E2E2E2E2E2E2E2E2E2E2E2E2E2E2E2E2E2E2E2E2E2E2E2E2E2E2E2E2E2E2E2E2E2E2E2E2E2E2E2E2E2E2E2E2E2E2E2E2E2E2E2E2E2E2E2E2E2E2E2E2E2E2E2E2E2E2E2E2E2E2E2E2E2E2E2E2E2E2E2E2E2E2E2E2E2E2E2E2E2E2E2E2E2E2E2E2E2E2E2E2E2E2E2E2E2E2E2E2E2E2E2E2E2E2E2E2E2E2E2E2E2
310
E2E2E2E2E2E2E2E2E2E2E2E2E2E2E2E2E2E2E2E2E2E2E2E2E2E2E2E2E2E2E2E2E2E2E2E2E2E2E2E2E2E2E2E2E2E2E2E2E2E2E2E2E2E2E2E2E2E2E2E2E2E2E2E2E2E2E2E2E2E2E2E2E2E2E2E2E2E2E2E2E2E2E2E2E2E2E2E2E2E2E2E2E2E2E2E2E2E2E2E2E2E2E2E2E2E2E2E2E2E2E2E2E2E2E2E2E2E2E2E2E2E2E2E2E2E2E2
310
E2E2E2E2E2E2E2E2E2E2E2E2E2E2E2E2E2E2E2E2E2E2E2E2E2E2E2E2E2E2E2E2E2E2E2E2E2E2E2E2E2E2E2E2E2E2E2E2E2E2E2E2E2E2E2E2E2E2E2E2E2E2E2E2E2E2E2E2E2E2E2E2E2E2E2E2E2E2E2E2E2E2E2E2E2E2E2E2E2E2E2E2E2E2E2E2E2E2E2E2E2E2E2E2E2E2E2E2E2E2E2E2E2E2E2E2E2E2E2E2E2E2E2E2E2E2E2
310
E2E2E2E2E2E2E2E2E2E2E2E2E2E2E2E2E2E2E2E2E2E2E2E2E2E2E2E2E2E2E2E2E2E2E2E2E2E2E2E2E2E2E2E2E2E2E2E2E2E2E2E2E2E2E2E2E2E2E2E2E2E2E2E2E2E2E2E2E2E2E2E2E2E2E2E2E2E2E2E2E2E2E2E2E2E2E2E2E2E2E2E2E2E2E2E2E2E2E2E2E2E2E2E2E2E2E2E2E2E2E2E2E2E2E2E2E2E2E2E2E2E2E2E2E2E2E2
310
E2E2E2E2E2E2E2E2E2E2E2E2E2E2E2E2E2E2E2E2E2E2E2E2E2E2E2E2E2E2E2E2E2E2E2E2E2E2E2E2E2E2E2E2E2E2E2E2E2E2E2E2E2E2E2E2E2E2E2E2E2E2E2E2E2E2E2E2E2E2E2E2E2E2E2E2E2E2E2E2E2E2E2E2E2E2E2E2E2E2E2E2E2E2E2E2E2E2E2E2E2E2E2E2E2E2E2E2E2E2E2E2E2E2E2E2E2E2E2E2E2E2E2E2E2E2E2
310
E2E2E2E2E2E2E2E2E2E2E2E2E2E2E2E2E2E2E2E2E2E2E2E2E2E2E2E2E2E2E2E2E2E2E2E2E2E2E2E2E2E2E2E2E2E2E2E2E2E2E2E2E2E2E2E2E2E2E2E2E2E2E2E2E2E2E2E2E2E2E2E2E2E2E2E2E2E2E2E2E2E2E2E2E2E2E2E2E2E2E2E2E2E2E2E2E2E2E2E2E2E2E2E2E2E2E2E2E2E2E2E2E2E2E2E2E2E2E2E2E2E2E2E2E2E2E2
310
E2E2E2E2E2E2E2E2E2E2E2E2E2E2E2E2E2E2E2E2E2E2E2E2E2E2E2E2E2E2E2E2E2E2E2E2E2E2E2E2E2E2E2E2E2E2E2E2E2E2E2E2E2E2E2E2E2E2E2E2E2E2E2E2E2E2E2E2E2E2E2E2E2E2E2E2E2E2E2E2E2E2E2E2E2E2E2E2E2E2E2E2E2E2E2E2E2E2E2E2E2E2E2E2E2E2E2E2E2E2E2E2E2E2E2E2E2E2E2E2E2E2E2E2E2E2E2
310
E2E2E2E2E2E2E2E2E2E2E2E2E2E2E2E2E2E2E2E2E2E2E2E2E2E2E2E2E2E2E2E2E2E2E2E2E2E2E2E2E2E2E2E2E2E2E2E2E2E2E2E2E2E2E2E2E2E2E2E2E2E2E2E2E2E2E2E2E2E2E2E2E2E2E2E2E2E2E2E2E2E2E2E2E2E2E2E2E2E2E2E2E2E2E2E2E2E2E2E2E2E2E2E2E2E2E2E2E2E2E2E2E2E2E2E2E2E2E2E2E2E2E2E2E2E2E2
310
E2E2E2E2E2E2E2E2E2E2E2E2E2E2E2E2E2E2E2E2E2E2E2E2E2E2E2E2E2E2E2E2E2E2E2E2E2E2E2E2E2E2E2E2E2E2E2E2E2E2E2E2E2E2E2E2E2E2E2E2E2E2E2E2E2E2E2E2E2E2E2E2E2E2E2E2E2E2E2E2E2E2E2E2E2E2E2E2E2E2E2E2E2E2E2E2E2E2E2E2E2E2E2E2E2E2E2E2E2E2E2E2E2E2E2E2E2E2E2E2E2E2E2E2E2E2E2
310
E2E2E2E2E2E2E2E2E2E2E2E2E2E2E2E2E2E2E2E2E2E2E2E2E2E2E2E2E2E2E2E2E2E2E2E2E2E2E2E2E2E2E2E2E2E2E2E2E2E2E2E2E2E2E2E2E2E2E2E2E2E2E2E2E2E2E2E2E2E2E2E2E2E2E2E2E2E2E2E2E2E2E2E2E2E2E2E2E2E2E2E2E2E2E2E2E2E2E2E2E2E2E2E2E2E2E2E2E2E2E2E2E2E2E2E2E2E2E2E2E2E2E2E2E2E2E2
310
E2E2E2E2E2E2E2E2E2E2E2E2E2E2E2E2E2E2E2E2E2E2E2E2E2E2E2E2E2E2E2E2E2E2E2E2E2E2E2E2E2E2E2E2E2E2E2E2E2E2E2E2E2E2E2E2E2E2E2E2E2E2E2E2E2E2E2E2E2E2E2E2E2E2E2E2E2E2E2E2E2E2E2E2E2E2E2E2E2E2E2E2E2E2E2E2E2E2E2E2E2E2E2E2E2E2E2E2E2E2E2E2E2E2E2E2E2E2E2E2E2E2E2E2E2E2E2
310
E2E2E2E2E2E2E2E2E2E2E2E2E2E2E2E2E2E2E2E2E2E2E2E2E2E2E2E2E2E2E2E2E2E2E2E2E2E2E2E2E2E2E2E2E2E2E2E2E2E2E2E2E2E2E2E2E2E2E2E2E2E2E2E2E2E2E2E2E2E2E2E2E2E2E2E2E2E2E2E2E2E2E2E2E2E2E2E2E2E2E2E2E2E2E2E2E2E2E2E2E2E2E2E2E2E2E2E2E2E2E2E2E2E2E2E2E2E2E2E2E2E2E2E2E2E2E2
310
E2E2E2E2E2E2E2E2E2E2E2E2E2E2E2E2E2E2E2E2E2E2E2E2E2E2E2E2E2E2E2E2E2E2E2E2E2E2E2E2E2E2E2E2E2E2E2E2E2E2E2E2E2E2E2E2E2E2E2E2E2E2E2E2E2E2E2E2E2E2E2E2E2E2E2E2E2E2E2E2E2E2E2E2E2E2E2E2E2E2E2E2E2E2E2E2E2E2E2E2E2E2E2E2E2E2E2E2E2E2E2E2E2E2E2E2E2E2E2E2E2E2E2E2E2E2E2
310
E2E2E2E2E2E2E2E2E2E2E2E2E2E2E2E2E2E2E2E2E2E2E2E2E2E2E2E2E2E2E2E2E2E2E2E2E2E2E2E2E2E2E2E2E2E2E2E2E2E2E2E2E2E2E2E2E2E2E2E2E2E2E2E2E2E2E2E2E2E2E2E2E2E2E2E2E2E2E2E2E2E2E2E2E2E2E2E2E2E2E2E2E2E2E2E2E2E2E2E2E2E2E2E2E2E2E2E2E2E2E2E2E2E2E2E2E2E2E2E2E2E2E2E2E2E2E2
310
E2E2E2E2E2E2E2E2E2E2E2E2E2E2E2E2E2E2E2E2E2E2E2E2E2E2E2E2E2E2E2E2E2E2E2E2E2E2E2E2E2E2E2E2E2E2E2E2E2E2E2E2E2E2E2E2E2E2E2E2E2E2E2E2E2E2E2E2E2E2E2E2E2E2E2E2E2E2E2E2E2E2E2E2E2E2E2E2E2E2E2E2E2E2E2E2E2E2E2E2E2E2E2E2E2E2E2E2E2E2E2E2E2E2E2E2E2E2E2E2E2E2E2E2E2E2E2
310
E2E2E2E2E2E2E2E2E2E2E2E2E2E2E2E2E2E2E2E2E2E2E2E2E2E2E2E2E2E2E2E2E2E2E2E2E2E2E2E2E2E2E2E2E2E2E2E2E2E2E2E2E2E2E2E2E2E2E2E2E2E2E2E2E2E2E2E2E2E2E2E2E2E2E2E2E2E2E2E2E2E2E2E2E2E2E2E2E2E2E2E2E2E2E2E2E2E2E2E2E2E2E2E2E2E2E2E2E2E2E2E2E2E2E2E2E2E2E2E2E2E2E2E2E2E2E2
310
E2E2E2E2E2E2E2E2E2E2E2E2E2E2E2E2E2E2E2E2E2E2E2E2E2E2E2E2E2E2E2E2E2E2E2E2E2E2E2E2E2E2E2E2E2E2E2E2E2E2E2E2E2E2E2E2E2E2E2E2E2E2E2E2E2E2E2E2E2E2E2E2E2E2E2E2E2E2E2E2E2E2E2E2E2E2E2E2E2E2E2E2E2E2E2E2E2E2E2E2E2E2E2E2E2E2E2E2E2E2E2E2E2E2E2E2E2E2E2E2E2E2E2E2E2E2E2
310
E2E2E2E2E2E2E2E2E2E2E2E2E2E2E2E2E2E2E2E2E2E2E2E2E2E2E2E2E2E2E2E2E2E2E2E2E2E2E2E2E2E2E2E2E2E2E2E2E2E2E2E2E2E2E2E2E2E2E2E2E2E2E2E2E2E2E2E2E2E2E2E2E2E2E2E2E2E2E2E2E2E2E2E2E2E2E2E2E2E2E2E2E2E2E2E2E2E2E2E2E2E2E2E2E2E2E2E2E2E2E2E2E2E2E2E2E2E2E2E2E2E2E2E2E2E2E2
310
E2E2E2E2E2E2E2E2E2E2E2E2E2E2E2E2E2E2E2E2E2E2E2E2E2E2E2E2E2E2E2E2E2E2E2E2E2E2E2E2E2E2E2E2E2E2E2E2E2E2E2E2E2E2E2E2E2E2E2E2E2E2E2E2E2E2E2E2E2E2E2E2E2E2E2E2E2E2E2E2E2E2E2E2E2E2E2E2E2E2E2E2E2E2E2E2E2E2E2E2E2E2E2E2E2E2E2E2E2E2E2E2E2E2E2E2E2E2E2E2E2E2E2E2E2E2E2
310
E2E2E2E2E2E2E2E2E2E2E2E2E2E2E2E2E2E2E2E2E2E2E2E2E2E2E2E2E2E2E2E2E2E2E2E2E2E2E2E2E2E2E2E2E2E2E2E2E2E2E2E2E2E2E2E2E2E2E2E2E2E2E2E2E2E2E2E2E2E2E2E2E2E2E2E2E2E2E2E2E2E2E2E2E2E2E2E2E2E2E2E2E2E2E2E2E2E2E2E2E2E2E2E2E2E2E2E2E2E2E2E2E2E2E2E2E2E2E2E2E2E2E2E2E2E2E2
310
E2E2E2E2E2E2E2E2E2E2E2E2E2E2E2E2E2E2E2E2E2E2E2E2E2E2E2E2E2E2E2E2E2E2E2E2E2E2E2E2E2E2E2E2E2E2E2E2E2E2E2E2E2E2E2E2E2E2E2E2E2E2E2E2E2E2E2E2E2E2E2E2E2E2E2E2E2E2E2E2E2E2E2E2E2E2E2E2E2E2E2E2E2E2E2E2E2E2E2E2E2E2E2E2E2E2E2E2E2E2E2E2E2E2E2E2E2E2E2E2E2E2E2E2E2E2E2
310
E2E2E2E2E2E2E2E2E2E2E2E2E2E2E2E2E2E2E2E2E2E2E2E2E2E2E2E2E2E2E2E2E2E2E2E2E2E2E2E2E2E2E2E2E2E2E2E2E2E2E2E2E2E2E2E2E2E2E2E2E2E2E2E2E2E2E2E2E2E2E2E2E2E2E2E2E2E2E2E2E2E2E2E2E2E2E2E2E2E2E2E2E2E2E2E2E2E2E2E2E2E2E2E2E2E2E2E2E2E2E2E2E2E2E2E2E2E2E2E2E2E2E2E2E2E2E2
310
E2E2E2E2E2E2E2E2E2E2E2E2E2E2E2E2E2E2E2E2E2E2E2E2E2E2E2E2E2E2E2E2E2E2E2E2E2E2E2E2E2E2E2E2E2E2E2E2E2E2E2E2E2E2E2E2E2E2E2E2E2E2E2E2E2E2E2E2E2E2E2E2E2E2E2E2E2E2E2E2E2E2E2E2E2E2E2E2E2E2E2E2E2E2E2E2E2E2E2E2E2E2E2E2E2E2E2E2E2E2E2E2E2E2E2E2E2E2E2E2E2E2E2E2E2E2E2
310
E2E2E2E2E2E2E2E2E2E2E2E2E2E2E2E2E2E2E2E2E2E2E2E2E2E2E2E2E2E2E2E2E2E2E2E2E2E2E2E2E2E2E2E2E2E2E2E2E2E2E2E2E2E2E2E2E2E2E2E2E2E2E2E2E2E2E2E2E2E2E2E2E2E2E2E2E2E2E2E2E2E2E2E2E2E2E2E2E2E2E2E2E2E2E2E2E2E2E2E2E2E2E2E2E2E2E2E2E2E2E2E2E2E2E2E2E2E2E2E2E2E2E2E2E2E2E2
310
E2E2E2E2E2E2E2E2E2E2E2E2E2E2E2E2E2E2E2E2E2E2E2E2E2E2E2E2E2E2E2E2E2E2E2E2E2E2E2E2E2E2E2E2E2E2E2E2E2E2E2E2E2E2E2E2E2E2E2E2E2E2E2E2E2E2E2E2E2E2E2E2E2E2E2E2E2E2E2E2E2E2E2E2E2E2E2E2E2E2E2E2E2E2E2E2E2E2E2E2E2E2E2E2E2E2E2E2E2E2E2E2E2E2E2E2E2E2E2E2E2E2E2E2E2E2E2
310
E2E2E2E2E2E2E2E2E2E2E2E2E2E2E2E2E2E2E2E2E2E2E2E2E2E2E2E2E2E2E2E2E2E2E2E2E2E2E2E2E2E2E2E2E2E2E2E2E2E2E2E2E2E2E2E2E2E2E2E2E2E2E2E2E2E2E2E2E2E2E2E2E2E2E2E2E2E2E2E2E2E2E2E2E2E2E2E2E2E2E2E2E2E2E2E2E2E2E2E2E2E2E2E2E2E2E2E2E2E2E2E2E2E2E2E2E2E2E2E2E2E2E2E2E2E2E2
310
E2E2E2E2E2E2E2E2E2E2E2E2E2E2E2E2E2E2E2E2E2E2E2E2E2E2E2E2E2E2E2E2E2E2E2E2E2E2E2E2E2E2E2E2E2E2E2E2E2E2E2E2E2E2E2E2E2E2E2E2E2E2E2E2E2E2E2E2E2E2E2E2E2E2E2E2E2E2E2E2E2E2E2E2E2E2E2E2E2E2E2E2E2E2E2E2E2E2E2E2E2E2E2E2E2E2E2E2E2E2E2E2E2E2E2E2E2E2E2E2E2E2E2E2E2E2E2
310
E2E2E2E2E2E2E2E2E2E2E2E2E2E2E2E2E2E2E2E2E2E2E2E2E2E2E2E2E2E2E2E2E2E2E2E2E2E2E2E2E2E2E2E2E2E2E2E2E2E2E2E2E2E2E2E2E2E2E2E2E2E2E2E2E2E2E2E2E2E2E2E2E2E2E2E2E2E2E2E2E2E2E2E2E2E2E2E2E2E2E2E2E2E2E2E2E2E2E2E2E2E2E2E2E2E2E2E2E2E2E2E2E2E2E2E2E2E2E2E2E2E2E2E2E2E2E2
310
E2E2E2E2E2E2E2E2E2E2E2E2E2E2E2E2E2E2E2E2E2E2E2E2E2E2E2E2E2E2E2E2E2E2E2E2E2E2E2E2E2E2E2E2E2E2E2E2E2E2E2E2E2E2E2E2E2E2E2E2E2E2E2E2E2E2E2E2E2E2E2E2E2E2E2E2E2E2E2E2E2E2E2E2E2E2E2E2E2E2E2E2E2E2E2E2E2E2E2E2E2E2E2E2E2E2E2E2E2E2E2E2E2E2E2E2E2E2E2E2E2E2E2E2E2E2E2
310
E2E2E2E2E2E2E2E2E2E2E2E2E2E2E2E2E2E2E2E2E2E2E2E2E2E2E2E2E2E2E2E2E2E2E2E2E2E2E2E2E2E2E2E2E2E2E2E2E2E2E2E2E2E2E2E2E2E2E2E2E2E2E2E2E2E2E2E2E2E2E2E2E2E2E2E2E2E2E2E2E2E2E2E2E2E2E2E2E2E2E2E2E2E2E2E2E2E2E2E2E2E2E2E2E2E2E2E2E2E2E2E2E2E2E2E2E2E2E2E2E2E2E2E2E2E2E2
310
E2E2E2E2E2E2E2E2E2E2E2E2E2E2E2E2E2E2E2E2E2E2E2E2E2E2E2E2E2E2E2E2E2E2E2E2E2E2E2E2E2E2E2E2E2E2E2E2E2E2E2E2E2E2E2E2E2E2E2E2E2E2E2E2E2E2E2E2E2E2E2E2E2E2E2E2E2E2E2E2E2E2E2E2E2E2E2E2E2E2E2E2E2E2E2E2E2E2E2E2E2E2E2E2E2E2E2E2E2E2E2E2E2E2E2E2E2E2E2E2E2E2E2E2E2E2E2
310
E2E2E2E2E2E2E2E2E2E2E2E2E2E2E2E2E2E2E2E2E2E2E2E2E2E2E2E2E2E2E2E2E2E2E2E2E2E2E2E2E2E2E2E2E2E2E2E2E2E2E2E2E2E2E2E2E2E2E2E2E2E2E2E2E2E2E2E2E2E2E2E2E2E2E2E2E2E2E2E2E2E2E2E2E2E2E2E2E2E2E2E2E2E2E2E2E2E2E2E2E2E2E2E2E2E2E2E2E2E2E2E2E2E2E2E2E2E2E2E2E2E2E2E2E2E2E2
310
E2E2E2E2E2E2E2E2E2E2E2E2E2E2E2E2E2E2E2E2E2E2E2E2E2E2E2E2E2E2E2E2E2E2E2E2E2E2E2E2E2E2E2E2E2E2E2E2E2E2E2E2E2E2E2E2E2E2E2E2E2E2E2E2E2E2E2E2E2E2E2E2E2E2E2E2E2E2E2E2E2E2E2E2E2E2E2E2E2E2E2E2E2E2E2E2E2E2E2E2E2E2E2E2E2E2E2E2E2E2E2E2E2E2E2E2E2E2E2E2E2E2E2E2E2E2E2
310
E2E2E2E2E2E2E2E2E2E2E2E2E2E2E2E2E2E2E2E2E2E2E2E2E2E2E2E2E2E2E2E2E2E2E2E2E2E2E2E2E2E2E2E2E2E2E2E2E2E2E2E2E2E2E2E2E2E2E2E2E2E2E2E2E2E2E2E2E2E2E2E2E2E2E2E2E2E2E2E2E2E2E2E2E2E2E2E2E2E2E2E2E2E2E2E2E2E2E2E2E2E2E2E2E2E2E2E2E2E2E2E2E2E2E2E2E2E2E2E2E2E2E2E2E2E2E2
310
E2E2E2E2E2E2E2E2E2E2E2E2E2E2E2E2E2E2E2E2E2E2E2E2E2E2E2E2E2E2E2E2E2E2E2E2E2E2E2E2E2E2E2E2E2E2E2E2E2E2E2E2E2E2E2E2E2E2E2E2E2E2E2E2E2E2E2E2E2E2E2E2E2E2E2E2E2E2E2E2E2E2E2E2E2E2E2E2E2E2E2E2E2E2E2E2E2E2E2E2E2E2E2E2E2E2E2E2E2E2E2E2E2E2E2E2E2E2E2E2E2E2E2E2E2E2E2
310
E2E2E2E2E2E2E2E2E2E2E2E2E2E2E2E2E2E2E2E2E2E2E2E2E2E2E2E2E2E2E2E2E2E2E2E2E2E2E2E2E2E2E2E2E2E2E2E2E2E2E2E2E2E2E2E2E2E2E2E2E2E2E2E2E2E2E2E2E2E2E2E2E2E2E2E2E2E2E2E2E2E2E2E2E2E2E2E2E2E2E2E2E2E2E2E2E2E2E2E2E2E2E2E2E2E2E2E2E2E2E2E2E2E2E2E2E2E2E2E2E2E2E2E2E2E2E2
310
E2E2E2E2E2E2E2E2E2E2E2E2E2E2E2E2E2E2E2E2E2E2E2E2E2E2E2E2E2E2E2E2E2E2E2E2E2E2E2E2E2E2E2E2E2E2E2E2E2E2E2E2E2E2E2E2E2E2E2E2E2E2E2E2E2E2E2E2E2E2E2E2E2E2E2E2E2E2E2E2E2E2E2E2E2E2E2E2E2E2E2E2E2E2E2E2E2E2E2E2E2E2E2E2E2E2E2E2E2E2E2E2E2E2E2E2E2E2E2E2E2E2E2E2E2E2E2
310
E2E2E2E2E2E2E2E2E2E2E2E2E2E2E2E2E2E2E2E2E2E2E2E2E2E2E2E2E2E2E2E2E2E2E2E2E2E2E2E2E2E2E2E2E2E2E2E2E2E2E2E2E2E2E2E2E2E2E2E2E2E2E2E2E2E2E2E2E2E2E2E2E2E2E2E2E2E2E2E2E2E2E2E2E2E2E2E2E2E2E2E2E2E2E2E2E2E2E2E2E2E2E2E2E2E2E2E2E2E2E2E2E2E2E2E2E2E2E2E2E2E2E2E2E2E2E2
310
E2E2E2E2E2E2E2E2E2E2E2E2E2E2E2E2E2E2E2E2E2E2E2E2E2E2E2E2E2E2E2E2E2E2E2E2E2E2E2E2E2E2E2E2E2E2E2E2E2E2E2E2E2E2E2E2E2E2E2E2E2E2E2E2E2E2E2E2E2E2E2E2E2E2E2E2E2E2E2E2E2E2E2E2E2E2E2E2E2E2E2E2E2E2E2E2E2E2E2E2E2E2E2E2E2E2E2E2E2E2E2E2E2E2E2E2E2E2E2E2E2E2E2E2E2E2E2
310
E2E2E2E2E2E2E2E2E2E2E2E2E2E2E2E2E2E2E2E2E2E2E2E2E2E2E2E2E2E2E2E2E2E2E2E2E2E2E2E2E2E2E2E2E2E2E2E2E2E2E2E2E2E2E2E2E2E2E2E2E2E2E2E2E2E2E2E2E2E2E2E2E2E2E2E2E2E2E2E2E2E2E2E2E2E2E2E2E2E2E2E2E2E2E2E2E2E2E2E2E2E2E2E2E2E2E2E2E2E2E2E2E2E2E2E2E2E2E2E2E2E2E2E2E2E2E2
310
E2E2E2E2E2E2E2E2E2E2E2E2E2E2E2E2E2E2E2E2E2E2E2E2E2E2E2E2E2E2E2E2E2E2E2E2E2E2E2E2E2E2E2E2E2E2E2E2E2E2E2E2E2E2E2E2E2E2E2E2E2E2E2E2E2E2E2E2E2E2E2E2E2E2E2E2E2E2E2E2E2E2E2E2E2E2E2E2E2E2E2E2E2E2E2E2E2E2E2E2E2E2E2E2E2E2E2E2E2E2E2E2E2E2E2E2E2E2E2E2E2E2E2E2E2E2E2
310
E2E2E2E2E2E2E2E2E2E2E2E2E2E2E2E2E2E2E2E2E2E2E2E2E2E2E2E2E2E2E2E2E2E2E2E2E2E2E2E2E2E2E2E2E2E2E2E2E2E2E2E2E2E2E2E2E2E2E2E2E2E2E2E2E2E2E2E2E2E2E2E2E2E2E2E2E2E2E2E2E2E2E2E2E2E2E2E2E2E2E2E2E2E2E2E2E2E2E2E2E2E2E2E2E2E2E2E2E2E2E2E2E2E2E2E2E2E2E2E2E2E2E2E2E2E2E2
310
E2E2E2E2E2E2E2E2E2E2E2E2E2E2E2E2E2E2E2E2E2E2E2E2E2E2E2E2E2E2E2E2E2E2E2E2E2E2E2E2E2E2E2E2E2E2E2E2E2E2E2E2E2E2E2E2E2E2E2E2E2E2E2E2E2E2E2E2E2E2E2E2E2E2E2E2E2E2E2E2E2E2E2E2E2E2E2E2E2E2E2E2E2E2E2E2E2E2E2E2E2E2E2E2E2E2E2E2E2E2E2E2E2E2E2E2E2E2E2E2E2E2E2E2E2E2E2
310
E2E2E2E2E2E2E2E2E2E2E2E2E2E2E2E2E2E2E2E2E2E2E2E2E2E2E2E2E2E2E2E2E2E2E2E2E2E2E2E2E2E2E2E2E2E2E2E2E2E2E2E2E2E2E2E2E2E2E2E2E2E2E2E2E2E2E2E2E2E2E2E2E2E2E2E2E2E2E2E2E2E2E2E2E2E2E2E2E2E2E2E2E2E2E2E2E2E2E2E2E2E2E2E2E2E2E2E2E2E2E2E2E2E2E2E2E2E2E2E2E2E2E2E2E2E2E2
310
E2E2E2E2E2E2E2E2E2E2E2E2E2E2E2E2E2E2E2E2E2E2E2E2E2E2E2E2E2E2E2E2E2E2E2E2E2E2E2E2E2E2E2E2E2E2E2E2E2E2E2E2E2E2E2E2E2E2E2E2E2E2E2E2E2E2E2E2E2E2E2E2E2E2E2E2E2E2E2E2E2E2E2E2E2E2E2E2E2E2E2E2E2E2E2E2E2E2E2E2E2E2E2E2E2E2E2E2E2E2E2E2E2E2E2E2E2E2E2E2E2E2E2E2E2E2E2
310
E2E2E2E2E2E2E2E2E2E2E2E2E2E2E2E2E2E2E2E2E2E2E2E2E2E2E2E2E2E2E2E2E2E2E2E2E2E2E2E2E2E2E2E2E2E2E2E2E2E2E2E2E2E2E2E2E2E2E2E2E2E2E2E2E2E2E2E2E2E2E2E2E2E2E2E2E2E2E2E2E2E2E2E2E2E2E2E2E2E2E2E2E2E2E2E2E2E2E2E2E2E2E2E2E2E2E2E2E2E2E2E2E2E2E2E2E2E2E2E2E2E2E2E2E2E2E2
310
E2E2E2E2E2E2E2E2E2E2E2E2E2E2E2E2E2E2E2E2E2E2E2E2E2E2E2E2E2E2E2E2E2E2E2E2E2E2E2E2E2E2E2E2E2E2E2E2E2E2E2E2E2E2E2E2E2E2E2E2E2E2E2E2E2E2E2E2E2E2E2E2E2E2E2E2E2E2E2E2E2E2E2E2E2E2E2E2E2E2E2E2E2E2E2E2E2E2E2E2E2E2E2E2E2E2E2E2E2E2E2E2E2E2E2E2E2E2E2E2E2E2E2E2E2E2E2
310
E2E2E2E2E2E2E2E2E2E2E2E2E2E2E2E2E2E2E2E2E2E2E2E2E2E2E2E2E2E2E2E2E2E2E2E2E2E2E2E2E2E2E2E2E2E2E2E2E2E2E2E2E2E2E2E2E2E2E2E2E2E2E2E2E2E2E2E2E2E2E2E2E2E2E2E2E2E2E2E2E2E2E2E2E2E2E2E2E2E2E2E2E2E2E2E2E2E2E2E2E2E2E2E2E2E2E2E2E2E2E2E2E2E2E2E2E2E2E2E2E2E2E2E2E2E2E2
310
E2E2E2E2E2E2E2E2E2E2E2E2E2E2E2E2E2E2E2E2E2E2E2E2E2E2E2E2E2E2E2E2E2E2E2E2E2E2E2E2E2E2E2E2E2E2E2E2E2E2E2E2E2E2E2E2E2E2E2E2E2E2E2E2E2E2E2E2E2E2E2E2E2E2E2E2E2E2E2E2E2E2E2E2E2E2E2E2E2E2E2E2E2E2E2E2E2E2E2E2E2E2E2E2E2E2E2E2E2E2E2E2E2E2E2E2E2E2E2E2E2E2E2E2E2E2E2
310
E2E2E2E2E2E2E2E2E2E2E2E2E2E2E2E2E2E2E2E2E2E2E2E2E2E2E2E2E2E2E2E2E2E2E2E2E2E2E2E2E2E2E2E2E2E2E2E2E2E2E2E2E2E2E2E2E2E2E2E2E2E2E2E2E2E2E2E2E2E2E2E2E2E2E2E2E2E2E2E2E2E2E2E2E2E2E2E2E2E2E2E2E2E2E2E2E2E2E2E2E2E2E2E2E2E2E2E2E2E2E2E2E2E2E2E2E2E2E2E2E2E2E2E2E2E2E2
310
E2E2E2E2E2E2E2E2E2E2E2E2E2E2E2E2E2E2E2E2E2E2E2E2E2E2E2E2E2E2E2E2E2E2E2E2E2E2E2E2E2E2E2E2E2E2E2E2E2E2E2E2E2E2E2E2E2E2E2E2E2E2E2E2E2E2E2E2E2E2E2E2E2E2E2E2E2E2E2E2E2E2E2E2E2E2E2E2E2E2E2E2E2E2E2E2E2E2E2E2E2E2E2E2E2E2E2E2E2E2E2E2E2E2E2E2E2E2E2E2E2E2E2E2E2E2E2
310
E2E2E2E2E2E2E2E2E2E2E2E2E2E2E2E2E2E2E2E2E2E2E2E2E2E2E2E2E2E2E2E2E2E2E2E2E2E2E2E2E2E2E2E2E2E2E2E2E2E2E2E2E2E2E2E2E2E2E2E2E2E2E2E2E2E2E2E2E2E2E2E2E2E2E2E2E2E2E2E2E2E2E2E2E2E2E2E2E2E2E2E2E2E2E2E2E2E2E2E2E2E2E2E2E2E2E2E2E2E2E2E2E2E2E2E2E2E2E2E2E2E2E2E2E2E2E2
310
E2E2E2E2E2E2E2E2E2E2E2E2E2E2E2E2E2E2E2E2E2E2E2E2E2E2E2E2E2E2E2E2E2E2E2E2E2E2E2E2E2E2E2E2E2E2E2E2E2E2E2E2E2E2E2E2E2E2E2E2E2E2E2E2E2E2E2E2E2E2E2E2E2E2E2E2E2E2E2E2E2E2E2E2E2E2E2E2E2E2E2E2E2E2E2E2E2E2E2E2E2E2E2E2E2E2E2E2E2E2E2E2E2E2E2E2E2E2E2E2E2E2E2E2E2E2E2
310
E2E2E2E2E2E2E2E2E2E2E2E2E2E2E2E2E2E2E2E2E2E2E2E2E2E2E2E2E2E2E2E2E2E2E2E2E2E2E2E2E2E2E2E2E2E2E2E2E2E2E2E2E2E2E2E2E2E2E2E2E2E2E2E2E2E2E2E2E2E2E2E2E2E2E2E2E2E2E2E2E2E2E2E2E2E2E2E2E2E2E2E2E2E2E2E2E2E2E2E2E2E2E2E2E2E2E2E2E2E2E2E2E2E2E2E2E2E2E2E2E2E2E2E2E2E2E2
310
E2E2E2E2E2E2E2E2E2E2E2E2E2E2E2E2E2E2E2E2E2E2E2E2E2E2E2E2E2E2E2E2E2E2E2E2E2E2E2E2E2E2E2E2E2E2E2E2E2E2E2E2E2E2E2E2E2E2E2E2E2E2E2E2E2E2E2E2E2E2E2E2E2E2E2E2E2E2E2E2E2E2E2E2E2E2E2E2E2E2E2E2E2E2E2E2E2E2E2E2E2E2E2E2E2E2E2E2E2E2E2E2E2E2E2E2E2E2E2E2E2E2E2E2E2E2E2
310
E2E2E2E2E2E2E2E2E2E2E2E2E2E2E2E2E2E2E2E2E2E2E2E2E2E2E2E2E2E2E2E2E2E2E2E2E2E2E2E2E2E2E2E2E2E2E2E2E2E2E2E2E2E2E2E2E2E2E2E2E2E2E2E2E2E2E2E2E2E2E2E2E2E2E2E2E2E2E2E2E2E2E2E2E2E2E2E2E2E2E2E2E2E2E2E2E2E2E2E2E2E2E2E2E2E2E2E2E2E2E2E2E2E2E2E2E2E2E2E2E2E2E2E2E2E2E2
310
E2E2E2E2E2E2E2E2E2E2E2E2E2E2E2E2E2E2E2E2E2E2E2E2E2E2E2E2E2E2E2E2E2E2E2E2E2E2E2E2E2E2E2E2E2E2E2E2E2E2E2E2E2E2E2E2E2E2E2E2E2E2E2E2E2E2E2E2E2E2E2E2E2E2E2E2E2E2E2E2E2E2E2E2E2E2E2E2E2E2E2E2E2E2E2E2E2E2E2E2E2E2E2E2E2E2E2E2E2E2E2E2E2E2E2E2E2E2E2E2E2E2E2E2E2E2E2
310
E2E2E2E2E2E2E2E2E2E2E2E2E2E2E2E2E2E2E2E2E2E2E2E2E2E2E2E2E2E2E2E2E2E2E2E2E2E2E2E2E2E2E2E2E2E2E2E2E2E2E2E2E2E2E2E2E2E2E2E2E2E2E2E2E2E2E2E2E2E2E2E2E2E2E2E2E2E2E2E2E2E2E2E2E2E2E2E2E2E2E2E2E2E2E2E2E2E2E2E2E2E2E2E2E2E2E2E2E2E2E2E2E2E2E2E2E2E2E2E2E2E2E2E2E2E2E2
310
E2E2E2E2E2E2E2E2E2E2E2E2E2E2E2E2E2E2E2E2E2E2E2E2E2E2E2E2E2E2E2E2E2E2E2E2E2E2E2E2E2E2E2E2E2E2E2E2E2E2E2E2E2E2E2E2E2E2E2E2E2E2E2E2E2E2E2E2E2E2E2E2E2E2E2E2E2E2E2E2E2E2E2E2E2E2E2E2E2E2E2E2E2E2E2E2E2E2E2E2E2E2E2E2E2E2E2E2E2E2E2E2E2E2E2E2E2E2E2E2E2E2E2E2E2E2E2
310
E2E2E2E2E2E2E2E2E2E2E2E2E2E2E2E2E2E2E2E2E2E2E2E2E2E2E2E2E2E2E2E2E2E2E2E2E2E2E2E2E2E2E2E2E2E2E2E2E2E2E2E2E2E2E2E2E2E2E2E2E2E2E2E2E2E2E2E2E2E2E2E2E2E2E2E2E2E2E2E2E2E2E2E2E2E2E2E2E2E2E2E2E2E2E2E2E2E2E2E2E2E2E2E2E2E2E2E2E2E2E2E2E2E2E2E2E2E2E2E2E2E2E2E2E2E2E2
310
E2E2E2E2E2E2E2E2E2E2E2E2E2E2E2E2E2E2E2E2E2E2E2E2E2E2E2E2E2E2E2E2E2E2E2E2E2E2E2E2E2E2E2E2E2E2E2E2E2E2E2E2E2E2E2E2E2E2E2E2E2E2E2E2E2E2E2E2E2E2E2E2E2E2E2E2E2E2E2E2E2E2E2E2E2E2E2E2E2E2E2E2E2E2E2E2E2E2E2E2E2E2E2E2E2E2E2E2E2E2E2E2E2E2E2E2E2E2E2E2E2E2E2E2E2E2E2
310
E2E2E2E2E2E2E2E2E2E2E2E2E2E2E2E2E2E2E2E2E2E2E2E2E2E2E2E2E2E2E2E2E2E2E2E2E2E2E2E2E2E2E2E2E2E2E2E2E2E2E2E2E2E2E2E2E2E2E2E2E2E2E2E2E2E2E2E2E2E2E2E2E2E2E2E2E2E2E2E2E2E2E2E2E2E2E2E2E2E2E2E2E2E2E2E2E2E2E2E2E2E2E2E2E2E2E2E2E2E2E2E2E2E2E2E2E2E2E2E2E2E2E2E2E2E2E2
310
E2E2E2E2E2E2E2E2E2E2E2E2E2E2E2E2E2E2E2E2E2E2E2E2E2E2E2E2E2E2E2E2E2E2E2E2E2E2E2E2E2E2E2E2E2E2E2E2E2E2E2E2E2E2E2E2E2E2E2E2E2E2E2E2E2E2E2E2E2E2E2E2E2E2E2E2E2E2E2E2E2E2E2E2E2E2E2E2E2E2E2E2E2E2E2E2E2E2E2E2E2E2E2E2E2E2E2E2E2E2E2E2E2E2E2E2E2E2E2E2E2E2E2E2E2E2E2
310
E2E2E2E2E2E2E2E2E2E2E2E2E2E2E2E2E2E2E2E2E2E2E2E2E2E2E2E2E2E2E2E2E2E2E2E2E2E2E2E2E2E2E2E2E2E2E2E2E2E2E2E2E2E2E2E2E2E2E2E2E2E2E2E2E2E2E2E2E2E2E2E2E2E2E2E2E2E2E2E2E2E2E2E2E2E2E2E2E2E2E2E2E2E2E2E2E2E2E2E2E2E2E2E2E2E2E2E2E2E2E2E2E2E2E2E2E2E2E2E2E2E2E2E2E2E2E2
310
E2E2E2E2E2E2E2E2E2E2E2E2E2E2E2E2E2E2E2E2E2E2E2E2E2E2E2E2E2E2E2E2E2E2E2E2E2E2E2E2E2E2E2E2E2E2E2E2E2E2E2E2E2E2E2E2E2E2E2E2E2E2E2E2E2E2E2E2E2E2E2E2E2E2E2E2E2E2E2E2E2E2E2E2E2E2E2E2E2E2E2E2E2E2E2E2E2E2E2E2E2E2E2E2E2E2E2E2E2E2E2E2E2E2E2E2E2E2E2E2E2E2E2E2E2E2E2
310
E2E2E2E2E2E2E2E2E2E2E2E2E2E2E2E2E2E2E2E2E2E2E2E2E2E2E2E2E2E2E2E2E2E2E2E2E2E2E2E2E2E2E2E2E2E2E2E2E2E2E2E2E2E2E2E2E2E2E2E2E2E2E2E2E2E2E2E2E2E2E2E2E2E2E2E2E2E2E2E2E2E2E2E2E2E2E2E2E2E2E2E2E2E2E2E2E2E2E2E2E2E2E2E2E2E2E2E2E2E2E2E2E2E2E2E2E2E2E2E2E2E2E2E2E2E2E2
310
E2E2E2E2E2E2E2E2E2E2E2E2E2E2E2E2E2E2E2E2E2E2E2E2E2E2E2E2E2E2E2E2E2E2E2E2E2E2E2E2E2E2E2E2E2E2E2E2E2E2E2E2E2E2E2E2E2E2E2E2E2E2E2E2E2E2E2E2E2E2E2E2E2E2E2E2E2E2E2E2E2E2E2E2E2E2E2E2E2E2E2E2E2E2E2E2E2E2E2E2E2E2E2E2E2E2E2E2E2E2E2E2E2E2E2E2E2E2E2E2E2E2E2E2E2E2E2
310
E2E2E2E2E2E2E2E2E2E2E2E2E2E2E2E2E2E2E2E2E2E2E2E2E2E2E2E2E2E2E2E2E2E2E2E2E2E2E2E2E2E2E2E2E2E2E2E2E2E2E2E2E2E2E2E2E2E2E2E2E2E2E2E2E2E2E2E2E2E2E2E2E2E2E2E2E2E2E2E2E2E2E2E2E2E2E2E2E2E2E2E2E2E2E2E2E2E2E2E2E2E2E2E2E2E2E2E2E2E2E2E2E2E2E2E2E2E2E2E2E2E2E2E2E2E2E2
310
E2E2E2E2E2E2E2E2E2E2E2E2E2E2E2E2E2E2E2E2E2E2E2E2E2E2E2E2E2E2E2E2E2E2E2E2E2E2E2E2E2E2E2E2E2E2E2E2E2E2E2E2E2E2E2E2E2E2E2E2E2E2E2E2E2E2E2E2E2E2E2E2E2E2E2E2E2E2E2E2E2E2E2E2E2E2E2E2E2E2E2E2E2E2E2E2E2E2E2E2E2E2E2E2E2E2E2E2E2E2E2E2E2E2E2E2E2E2E2E2E2E2E2E2E2E2E2
310
E2E2E2E2E2E2E2E2E2E2E2E2E2E2E2E2E2E2E2E2E2E2E2E2E2E2E2E2E2E2E2E2E2E2E2E2E2E2E2E2E2E2E2E2E2E2E2E2E2E2E2E2E2E2E2E2E2E2E2E2E2E2E2E2E2E2E2E2E2E2E2E2E2E2E2E2E2E2E2E2E2E2E2E2E2E2E2E2E2E2E2E2E2E2E2E2E2E2E2E2E2E2E2E2E2E2E2E2E2E2E2E2E2E2E2E2E2E2E2E2E2E2E2E2E2E2E2
310
E2E2E2E2E2E2E2E2E2E2E2E2E2E2E2E2E2E2E2E2E2E2E2E2E2E2E2E2E2E2E2E2E2E2E2E2E2E2E2E2E2E2E2E2E2E2E2E2E2E2E2E2E2E2E2E2E2E2E2E2E2E2E2E2E2E2E2E2E2E2E2E2E2E2E2E2E2E2E2E2E2E2E2E2E2E2E2E2E2E2E2E2E2E2E2E2E2E2E2E2E2E2E2E2E2E2E2E2E2E2E2E2E2E2E2E2E2E2E2E2E2E2E2E2E2E2E2
310
E2E2E2E2E2E2E2E2E2E2E2E2E2E2E2E2E2E2E2E2E2E2E2E2E2E2E2E2E2E2E2E2E2E2E2E2E2E2E2E2E2E2E2E2E2E2E2E2E2E2E2E2E2E2E2E2E2E2E2E2E2E2E2E2E2E2E2E2E2E2E2E2E2E2E2E2E2E2E2E2E2E2E2E2E2E2E2E2E2E2E2E2E2E2E2E2E2E2E2E2E2E2E2E2E2E2E2E2E2E2E2E2E2E2E2E2E2E2E2E2E2E2E2E2E2E2E2
310
E2E2E2E2E2E2E2E2E2E2E2E2E2E2E2E2E2E2E2E2E2E2E2E2E2E2E2E2E2E2E2E2E2E2E2E2E2E2E2E2E2E2E2E2E2E2E2E2E2E2E2E2E2E2E2E2E2E2E2E2E2E2E2E2E2E2E2E2E2E2E2E2E2E2E2E2E2E2E2E2E2E2E2E2E2E2E2E2E2E2E2E2E2E2E2E2E2E2E2E2E2E2E2E2E2E2E2E2E2E2E2E2E2E2E2E2E2E2E2E2E2E2E2E2E2E2E2
310
E2E2E2E2E2E2E2E2E2E2E2E2E2E2E2E2E2E2E2E2E2E2E2E2E2E2E2E2E2E2E2E2E2E2E2E2E2E2E2E2E2E2E2E2E2E2E2E2E2E2E2E2E2E2E2E2E2E2E2E2E2E2E2E2E2E2E2E2E2E2E2E2E2E2E2E2E2E2E2E2E2E2E2E2E2E2E2E2E2E2E2E2E2E2E2E2E2E2E2E2E2E2E2E2E2E2E2E2E2E2E2E2E2E2E2E2E2E2E2E2E2E2E2E2E2E2E2
310
E2E2E2E2E2E2E2E2E2E2E2E2E2E2E2E2E2E2E2E2E2E2E2E2E2E2E2E2E2E2E2E2E2E2E2E2E2E2E2E2E2E2E2E2E2E2E2E2E2E2E2E2E2E2E2E2E2E2E2E2E2E2E2E2E2E2E2E2E2E2E2E2E2E2E2E2E2E2E2E2E2E2E2E2E2E2E2E2E2E2E2E2E2E2E2E2E2E2E2E2E2E2E2E2E2E2E2E2E2E2E2E2E2E2E2E2E2E2E2E2E2E2E2E2E2E2E2
310
E2E2E2E2E2E2E2E2E2E2E2E2E2E2E2E2E2E2E2E2E2E2E2E2E2E2E2E2E2E2E2E2E2E2E2E2E2E2E2E2E2E2E2E2E2E2E2E2E2E2E2E2E2E2E2E2E2E2E2E2E2E2E2E2E2E2E2E2E2E2E2E2E2E2E2E2E2E2E2E2E2E2E2E2E2E2E2E2E2E2E2E2E2E2E2E2E2E2E2E2E2E2E2E2E2E2E2E2E2E2E2E2E2E2E2E2E2E2E2E2E2E2E2E2E2E2E2
310
E2E2E2E2E2E2E2E2E2E2E2E2E2E2E2E2E2E2E2E2E2E2E2E2E2E2E2E2E2E2E2E2E2E2E2E2E2E2E2E2E2E2E2E2E2E2E2E2E2E2E2E2E2E2E2E2E2E2E2E2E2E2E2E2E2E2E2E2E2E2E2E2E2E2E2E2E2E2E2E2E2E2E2E2E2E2E2E2E2E2E2E2E2E2E2E2E2E2E2E2E2E2E2E2E2E2E2E2E2E2E2E2E2E2E2E2E2E2E2E2E2E2E2E2E2E2E2
310
E2E2E2E2E2E2E2E2E2E2E2E2E2E2E2E2E2E2E2E2E2E2E2E2E2E2E2E2E2E2E2E2E2E2E2E2E2E2E2E2E2E2E2E2E2E2E2E2E2E2E2E2E2E2E2E2E2E2E2E2E2E2E2E2E2E2E2E2E2E2E2E2E2E2E2E2E2E2E2E2E2E2E2E2E2E2E2E2E2E2E2E2E2E2E2E2E2E2E2E2E2E2E2E2E2E2E2E2E2E2E2E2E2E2E2E2E2E2E2E2E2E2E2E2E2E2E2
310
E2E2E2E2E2E2E2E2E2E2E2E2E2E2E2E2E2E2E2E2E2E2E2E2E2E2E2E2E2E2E2E2E2E2E2E2E2E2E2E2E2E2E2E2E2E2E2E2E2E2E2E2E2E2E2E2E2E2E2E2E2E2E2E2E2E2E2E2E2E2E2E2E2E2E2E2E2E2E2E2E2E2E2E2E2E2E2E2E2E2E2E2E2E2E2E2E2E2E2E2E2E2E2E2E2E2E2E2E2E2E2E2E2E2E2E2E2E2E2E2E2E2E2E2E2E2E2
310
E2E2E2E2E2E2E2E2E2E2E2E2E2E2E2E2E2E2E2E2E2E2E2E2E2E2E2E2E2E2E2E2E2E2E2E2E2E2E2E2E2E2E2E2E2E2E2E2E2E2E2E2E2E2E2E2E2E2E2E2E2E2E2E2E2E2E2E2E2E2E2E2E2E2E2E2E2E2E2E2E2E2E2E2E2E2E2E2E2E2E2E2E2E2E2E2E2E2E2E2E2E2E2E2E2E2E2E2E2E2E2E2E2E2E2E2E2E2E2E2E2E2E2E2E2E2E2
310
E2E2E2E2E2E2E2E2E2E2E2E2E2E2E2E2E2E2E2E2E2E2E2E2E2E2E2E2E2E2E2E2E2E2E2E2E2E2E2E2E2E2E2E2E2E2E2E2E2E2E2E2E2E2E2E2E2E2E2E2E2E2E2E2E2E2E2E2E2E2E2E2E2E2E2E2E2E2E2E2E2E2E2E2E2E2E2E2E2E2E2E2E2E2E2E2E2E2E2E2E2E2E2E2E2E2E2E2E2E2E2E2E2E2E2E2E2E2E2E2E2E2E2E2E2E2E2
310
E2E2E2E2E2E2E2E2E2E2E2E2E2E2E2E2E2E2E2E2E2E2E2E2E2E2E2E2E2E2E2E2E2E2E2E2E2E2E2E2E2E2E2E2E2E2E2E2E2E2E2E2E2E2E2E2E2E2E2E2E2E2E2E2E2E2E2E2E2E2E2E2E2E2E2E2E2E2E2E2E2E2E2E2E2E2E2E2E2E2E2E2E2E2E2E2E2E2E2E2E2E2E2E2E2E2E2E2E2E2E2E2E2E2E2E2E2E2E2E2E2E2E2E2E2E2E2
310
E2E2E2E2E2E2E2E2E2E2E2E2E2E2E2E2E2E2E2E2E2E2E2E2E2E2E2E2E2E2E2E2E2E2E2E2E2E2E2E2E2E2E2E2E2E2E2E2E2E2E2E2E2E2E2E2E2E2E2E2E2E2E2E2E2E2E2E2E2E2E2E2E2E2E2E2E2E2E2E2E2E2E2E2E2E2E2E2E2E2E2E2E2E2E2E2E2E2E2E2E2E2E2E2E2E2E2E2E2E2E2E2E2E2E2E2E2E2E2E2E2E2E2E2E2E2E2
310
E2E2E2E2E2E2E2E2E2E2E2E2E2E2E2E2E2E2E2E2E2E2E2E2E2E2E2E2E2E2E2E2E2E2E2E2E2E2E2E2E2E2E2E2E2E2E2E2E2E2E2E2E2E2E2E2E2E2E2E2E2E2E2E2E2E2E2E2E2E2E2E2E2E2E2E2E2E2E2E2E2E2E2E2E2E2E2E2E2E2E2E2E2E2E2E2E2E2E2E2E2E2E2E2E2E2E2E2E2E2E2E2E2E2E2E2E2E2E2E2E2E2E2E2E2E2E2
310
E2E2E2E2E2E2E2E2E2E2E2E2E2E2E2E2E2E2E2E2E2E2E2E2E2E2E2E2E2E2E2E2E2E2E2E2E2E2E2E2E2E2E2E2E2E2E2E2E2E2E2E2E2E2E2E2E2E2E2E2E2E2E2E2E2E2E2E2E2E2E2E2E2E2E2E2E2E2E2E2E2E2E2E2E2E2E2E2E2E2E2E2E2E2E2E2E2E2E2E2E2E2E2E2E2E2E2E2E2E2E2E2E2E2E2E2E2E2E2E2E2E2E2E2E2E2E2
310
E2E2E2E2E2E2E2E2E2E2E2E2E2E2E2E2E2E2E2E2E2E2E2E2E2E2E2E2E2E2E2E2E2E2E2E2E2E2E2E2E2E2E2E2E2E2E2E2E2E2E2E2E2E2E2E2E2E2E2E2E2E2E2E2E2E2E2E2E2E2E2E2E2E2E2E2E2E2E2E2E2E2E2E2E2E2E2E2E2E2E2E2E2E2E2E2E2E2E2E2E2E2E2E2E2E2E2E2E2E2E2E2E2E2E2E2E2E2E2E2E2E2E2E2E2E2E2
310
E2E2E2E2E2E2E2E2E2E2E2E2E2E2E2E2E2E2E2E2E2E2E2E2E2E2E2E2E2E2E2E2E2E2E2E2E2E2E2E2E2E2E2E2E2E2E2E2E2E2E2E2E2E2E2E2E2E2E2E2E2E2E2E2E2E2E2E2E2E2E2E2E2E2E2E2E2E2E2E2E2E2E2E2E2E2E2E2E2E2E2E2E2E2E2E2E2E2E2E2E2E2E2E2E2E2E2E2E2E2E2E2E2E2E2E2E2E2E2E2E2E2E2E2E2E2E2
310
E2E2E2E2E2E2E2E2E2E2E2E2E2E2E2E2E2E2E2E2E2E2E2E2E2E2E2E2E2E2E2E2E2E2E2E2E2E2E2E2E2E2E2E2E2E2E2E2E2E2E2E2E2E2E2E2E2E2E2E2E2E2E2E2E2E2E2E2E2E2E2E2E2E2E2E2E2E2E2E2E2E2E2E2E2E2E2E2E2E2E2E2E2E2E2E2E2E2E2E2E2E2E2E2E2E2E2E2E2E2E2E2E2E2E2E2E2E2E2E2E2E2E2E2E2E2E2
310
E2E2E2E2E2E2E2E2E2E2E2E2E2E2E2E2E2E2E2E2E2E2E2E2E2E2E2E2E2E2E2E2E2E2E2E2E2E2E2E2E2E2E2E2E2E2E2E2E2E2E2E2E2E2E2E2E2E2E2E2E2E2E2E2E2E2E2E2E2E2E2E2E2E2E2E2E2E2E2E2E2E2E2E2E2E2E2E2E2E2E2E2E2E2E2E2E2E2E2E2E2E2E2E2E2E2E2E2E2E2E2E2E2E2E2E2E2E2E2E2E2E2E2E2E2E2E2
310
E2E2E2E2E2E2E2E2E2E2E2E2E2E2E2E2E2E2E2E2E2E2E2E2E2E2E2E2E2E2E2E2E2E2E2E2E2E2E2E2E2E2E2E2E2E2E2E2E2E2E2E2E2E2E2E2E2E2E2E2E2E2E2E2E2E2E2E2E2E2E2E2E2E2E2E2E2E2E2E2E2E2E2E2E2E2E2E2E2E2E2E2E2E2E2E2E2E2E2E2E2E2E2E2E2E2E2E2E2E2E2E2E2E2E2E2E2E2E2E2E2E2E2E2E2E2E2
310
E2E2E2E2E2E2E2E2E2E2E2E2E2E2E2E2E2E2E2E2E2E2E2E2E2E2E2E2E2E2E2E2E2E2E2E2E2E2E2E2E2E2E2E2E2E2E2E2E2E2E2E2E2E2E2E2E2E2E2E2E2E2E2E2E2E2E2E2E2E2E2E2E2E2E2E2E2E2E2E2E2E2E2E2E2E2E2E2E2E2E2E2E2E2E2E2E2E2E2E2E2E2E2E2E2E2E2E2E2E2E2E2E2E2E2E2E2E2E2E2E2E2E2E2E2E2E2
310
E2E2E2E2E2E2E2E2E2E2E2E2E2E2E2E2E2E2E2E2E2E2E2E2E2E2E2E2E2E2E2E2E2E2E2E2E2E2E2E2E2E2E2E2E2E2E2E2E2E2E2E2E2E2E2E2E2E2E2E2E2E2E2E2E2E2E2E2E2E2E2E2E2E2E2E2E2E2E2E2E2E2E2E2E2E2E2E2E2E2E2E2E2E2E2E2E2E2E2E2E2E2E2E2E2E2E2E2E2E2E2E2E2E2E2E2E2E2E2E2E2E2E2E2E2E2E2
310
E2E2E2E2E2E2E2E2E2E2E2E2E2E2E2E2E2E2E2E2E2E2E2E2E2E2E2E2E2E2E2E2E2E2E2E2E2E2E2E2E2E2E2E2E2E2E2E2E2E2E2E2E2E2E2E2E2E2E2E2E2E2E2E2E2E2E2E2E2E2E2E2E2E2E2E2E2E2E2E2E2E2E2E2E2E2E2E2E2E2E2E2E2E2E2E2E2E2E2E2E2E2E2E2E2E2E2E2E2E2E2E2E2E2E2E2E2E2E2E2E2E2E2E2E2E2E2
310
E2E2E2E2E2E2E2E2E2E2E2E2E2E2E2E2E2E2E2E2E2E2E2E2E2E2E2E2E2E2E2E2E2E2E2E2E2E2E2E2E2E2E2E2E2E2E2E2E2
  0
XRECORD
  5
15FD
102
{ACAD_REACTORS
330
15FC
102
}
330
15FC
100
AcDbXrecord
280
     1
102
SHADEPLOT
 70
     0
102
SHADEPLOTRESLEVEL
 70
     2
102
SHADEPLOTCUSTOMDPI
 70
   300
  0
XRECORD
  5
1601
102
{ACAD_REACTORS
330
A40
102
}
330
A40
100
AcDbXrecord
280
     1
102
MATERIAL
148
0.0
149
0.0
149
0.0
 93
        0
 94
      127
282
     0
 72
     0
 77
     0
171
     0
175
     0
179
     0
273
     0
  0
XRECORD
  5
A42
102
{ACAD_REACTORS
330
A40
102
}
330
A40
100
AcDbXrecord
280
     1
270
     1
271
     1
  0
XRECORD
  5
A41
102
{ACAD_REACTORS
330
A40
102
}
330
A40
100
AcDbXrecord
280
     1
270
     1
271
     1
  0
XRECORD
  5
A45
102
{ACAD_REACTORS
330
A40
102
}
330
A40
100
AcDbXrecord
280
     1
270
     1
271
     1
  0
XRECORD
  5
A44
102
{ACAD_REACTORS
330
A40
102
}
330
A40
100
AcDbXrecord
280
     1
270
     1
271
     1
  0
XRECORD
  5
A46
102
{ACAD_REACTORS
330
A40
102
}
330
A40
100
AcDbXrecord
280
     1
270
     1
271
     1
  0
XRECORD
  5
A43
102
{ACAD_REACTORS
330
A40
102
}
330
A40
100
AcDbXrecord
280
     1
270
     1
271
     1
  0
XRECORD
  5
1600
102
{ACAD_REACTORS
330
A38
102
}
330
A38
100
AcDbXrecord
280
     1
102
MATERIAL
148
0.0
149
0.0
149
0.0
 93
        0
 94
      127
282
     0
 72
     0
 77
     0
171
     0
175
     0
179
     0
273
     0
  0
XRECORD
  5
A3A
102
{ACAD_REACTORS
330
A38
102
}
330
A38
100
AcDbXrecord
280
     1
270
     1
271
     1
  0
XRECORD
  5
A39
102
{ACAD_REACTORS
330
A38
102
}
330
A38
100
AcDbXrecord
280
     1
270
     1
271
     1
  0
XRECORD
  5
A3D
102
{ACAD_REACTORS
330
A38
102
}
330
A38
100
AcDbXrecord
280
     1
270
     1
271
     1
  0
XRECORD
  5
A3C
102
{ACAD_REACTORS
330
A38
102
}
330
A38
100
AcDbXrecord
280
     1
270
     1
271
     1
  0
XRECORD
  5
A3E
102
{ACAD_REACTORS
330
A38
102
}
330
A38
100
AcDbXrecord
280
     1
270
     1
271
     1
  0
XRECORD
  5
A3B
102
{ACAD_REACTORS
330
A38
102
}
330
A38
100
AcDbXrecord
280
     1
270
     1
271
     1
  0
XRECORD
  5
1602
102
{ACAD_REACTORS
330
A48
102
}
330
A48
100
AcDbXrecord
280
     1
102
MATERIAL
148
0.0
149
0.0
149
0.0
 93
        0
 94
      127
282
     0
 72
     0
 77
     0
171
     0
175
     0
179
     0
273
     0
  0
XRECORD
  5
A4A
102
{ACAD_REACTORS
330
A48
102
}
330
A48
100
AcDbXrecord
280
     1
270
     1
271
     1
  0
XRECORD
  5
A49
102
{ACAD_REACTORS
330
A48
102
}
330
A48
100
AcDbXrecord
280
     1
270
     1
271
     1
  0
XRECORD
  5
A4D
102
{ACAD_REACTORS
330
A48
102
}
330
A48
100
AcDbXrecord
280
     1
270
     1
271
     1
  0
XRECORD
  5
A4C
102
{ACAD_REACTORS
330
A48
102
}
330
A48
100
AcDbXrecord
280
     1
270
     1
271
     1
  0
XRECORD
  5
A4E
102
{ACAD_REACTORS
330
A48
102
}
330
A48
100
AcDbXrecord
280
     1
270
     1
271
     1
  0
XRECORD
  5
A4B
102
{ACAD_REACTORS
330
A48
102
}
330
A48
100
AcDbXrecord
280
     1
270
     1
271
     1
  0
CELLSTYLEMAP
  5
15F8
102
{ACAD_REACTORS
330
AED
102
}
330
AED
100
AcDbCellStyleMap
 90
        3
300
CELLSTYLE
  1
TABLEFORMAT_BEGIN
 90
        5
170
     1
 91
        0
 92
    32768
 62
   257
 93
        1
300
CONTENTFORMAT
  1
CONTENTFORMAT_BEGIN
 90
        0
 91
        0
 92
        4
 93
        0
300

 40
0.0
140
1.0
 94
        5
 62
     0
340
10
144
6.0
309
CONTENTFORMAT_END
171
     1
301
MARGIN
  1
CELLMARGIN_BEGIN
 40
1.5
 40
1.5
 40
1.5
 40
1.5
 40
0.18
 40
0.18
309
CELLMARGIN_END
 94
        6
 95
        1
302
GRIDFORMAT
  1
GRIDFORMAT_BEGIN
 90
        0
 91
        1
 62
     0
 92
       -2
340
0
 93
        0
 40
0.045
309
GRIDFORMAT_END
 95
        2
302
GRIDFORMAT
  1
GRIDFORMAT_BEGIN
 90
        0
 91
        1
 62
     0
 92
       -2
340
0
 93
        0
 40
0.045
309
GRIDFORMAT_END
 95
        4
302
GRIDFORMAT
  1
GRIDFORMAT_BEGIN
 90
        0
 91
        1
 62
     0
 92
       -2
340
0
 93
        0
 40
0.045
309
GRIDFORMAT_END
 95
        8
302
GRIDFORMAT
  1
GRIDFORMAT_BEGIN
 90
        0
 91
        1
 62
     0
 92
       -2
340
0
 93
        0
 40
0.045
309
GRIDFORMAT_END
 95
       16
302
GRIDFORMAT
  1
GRIDFORMAT_BEGIN
 90
        0
 91
        1
 62
     0
 92
       -2
340
0
 93
        0
 40
0.045
309
GRIDFORMAT_END
 95
       32
302
GRIDFORMAT
  1
GRIDFORMAT_BEGIN
 90
        0
 91
        1
 62
     0
 92
       -2
340
0
 93
        0
 40
0.045
309
GRIDFORMAT_END
309
TABLEFORMAT_END
  1
CELLSTYLE_BEGIN
 90
        1
 91
        1
300
_TITLE
309
CELLSTYLE_END
300
CELLSTYLE
  1
TABLEFORMAT_BEGIN
 90
        5
170
     1
 91
        0
 92
        0
 62
   257
 93
        1
300
CONTENTFORMAT
  1
CONTENTFORMAT_BEGIN
 90
        0
 91
        0
 92
        4
 93
        0
300

 40
0.0
140
1.0
 94
        5
 62
     0
340
10
144
4.5
309
CONTENTFORMAT_END
171
     1
301
MARGIN
  1
CELLMARGIN_BEGIN
 40
1.5
 40
1.5
 40
1.5
 40
1.5
 40
0.18
 40
0.18
309
CELLMARGIN_END
 94
        6
 95
        1
302
GRIDFORMAT
  1
GRIDFORMAT_BEGIN
 90
        0
 91
        1
 62
     0
 92
       -2
340
0
 93
        0
 40
0.045
309
GRIDFORMAT_END
 95
        2
302
GRIDFORMAT
  1
GRIDFORMAT_BEGIN
 90
        0
 91
        1
 62
     0
 92
       -2
340
0
 93
        0
 40
0.045
309
GRIDFORMAT_END
 95
        4
302
GRIDFORMAT
  1
GRIDFORMAT_BEGIN
 90
        0
 91
        1
 62
     0
 92
       -2
340
0
 93
        0
 40
0.045
309
GRIDFORMAT_END
 95
        8
302
GRIDFORMAT
  1
GRIDFORMAT_BEGIN
 90
        0
 91
        1
 62
     0
 92
       -2
340
0
 93
        0
 40
0.045
309
GRIDFORMAT_END
 95
       16
302
GRIDFORMAT
  1
GRIDFORMAT_BEGIN
 90
        0
 91
        1
 62
     0
 92
       -2
340
0
 93
        0
 40
0.045
309
GRIDFORMAT_END
 95
       32
302
GRIDFORMAT
  1
GRIDFORMAT_BEGIN
 90
        0
 91
        1
 62
     0
 92
       -2
340
0
 93
        0
 40
0.045
309
GRIDFORMAT_END
309
TABLEFORMAT_END
  1
CELLSTYLE_BEGIN
 90
        2
 91
        1
300
_HEADER
309
CELLSTYLE_END
300
CELLSTYLE
  1
TABLEFORMAT_BEGIN
 90
        5
170
     1
 91
        0
 92
        0
 62
   257
 93
        1
300
CONTENTFORMAT
  1
CONTENTFORMAT_BEGIN
 90
        0
 91
        0
 92
        4
 93
        0
300

 40
0.0
140
1.0
 94
        2
 62
     0
340
10
144
4.5
309
CONTENTFORMAT_END
171
     1
301
MARGIN
  1
CELLMARGIN_BEGIN
 40
1.5
 40
1.5
 40
1.5
 40
1.5
 40
0.18
 40
0.18
309
CELLMARGIN_END
 94
        6
 95
        1
302
GRIDFORMAT
  1
GRIDFORMAT_BEGIN
 90
        0
 91
        1
 62
     0
 92
       -2
340
0
 93
        0
 40
0.045
309
GRIDFORMAT_END
 95
        2
302
GRIDFORMAT
  1
GRIDFORMAT_BEGIN
 90
        0
 91
        1
 62
     0
 92
       -2
340
0
 93
        0
 40
0.045
309
GRIDFORMAT_END
 95
        4
302
GRIDFORMAT
  1
GRIDFORMAT_BEGIN
 90
        0
 91
        1
 62
     0
 92
       -2
340
0
 93
        0
 40
0.045
309
GRIDFORMAT_END
 95
        8
302
GRIDFORMAT
  1
GRIDFORMAT_BEGIN
 90
        0
 91
        1
 62
     0
 92
       -2
340
0
 93
        0
 40
0.045
309
GRIDFORMAT_END
 95
       16
302
GRIDFORMAT
  1
GRIDFORMAT_BEGIN
 90
        0
 91
        1
 62
     0
 92
       -2
340
0
 93
        0
 40
0.045
309
GRIDFORMAT_END
 95
       32
302
GRIDFORMAT
  1
GRIDFORMAT_BEGIN
 90
        0
 91
        1
 62
     0
 92
       -2
340
0
 93
        0
 40
0.045
309
GRIDFORMAT_END
309
TABLEFORMAT_END
  1
CELLSTYLE_BEGIN
 90
        3
 91
        2
300
_DATA
309
CELLSTYLE_END
  0
XRECORD
  5
15FF
102
{ACAD_REACTORS
330
AED
102
}
330
AED
100
AcDbXrecord
280
     1
102
ACAD_ROUNDTRIP_PRE2007_TABLESTYLE
 90
        4
 91
        0
  1

 92
        4
 93
        0
  2

 94
        4
 95
        0
  3

  0
ENDSEC
  0
EOF
